<?xml version="1.0" standalone="no"?>
<!DOCTYPE svg PUBLIC "-//W3C//DTD SVG 1.1//EN" "http://www.w3.org/Graphics/SVG/1.1/DTD/svg11.dtd" >
<svg xmlns="http://www.w3.org/2000/svg" xmlns:xlink="http://www.w3.org/1999/xlink" version="1.1">
<metadata></metadata>
<defs>
<font id="istok_webitalic" horiz-adv-x="1110" >
<font-face units-per-em="2048" ascent="1638" descent="-410" />
<missing-glyph horiz-adv-x="682" />
<glyph unicode="&#xfb01;" horiz-adv-x="1112" d="M5 -355l294 1273h-107q-45 0 -37 35l14 62q8 35 53 35h107l28 119q45 193 156.5 258.5t317.5 65.5q101 0 167 -24.5t133 -85.5q18 -16 -1 -36l-66 -69q-14 -15 -35 6q-43 44 -97 61.5t-114 17.5q-140 0 -200 -43t-92 -180l-21 -90h552q45 0 35 -45l-222 -960 q-10 -45 -55 -45h-86q-45 0 -35 45l202 873h-421l-294 -1273q-10 -45 -55 -45h-86q-45 0 -35 45z" />
<glyph unicode="&#xfb02;" horiz-adv-x="1112" d="M5 -355l294 1273h-107q-45 0 -37 35l14 62q8 35 53 35h107l28 119q46 199 161.5 261.5t292.5 62.5q131 0 226 -33.5t142 -78.5l-309 -1336q-10 -45 -55 -45h-86q-45 0 -35 45l291 1260q-35 35 -88 46.5t-98 11.5q-95 0 -166 -33.5t-107 -189.5l-21 -90h183q45 0 37 -35 l-14 -62q-8 -35 -53 -35h-183l-294 -1273q-10 -45 -55 -45h-86q-45 0 -35 45z" />
<glyph horiz-adv-x="0" />
<glyph unicode="&#xd;" horiz-adv-x="682" />
<glyph unicode=" "  horiz-adv-x="682" />
<glyph unicode="&#x09;" horiz-adv-x="682" />
<glyph unicode="&#xa0;" horiz-adv-x="682" />
<glyph unicode="!" horiz-adv-x="600" d="M99 45l29 122q10 45 55 45h112q45 0 35 -45l-29 -122q-10 -45 -55 -45h-112q-45 0 -35 45zM209 435l197 944q11 55 63 55h104q50 0 37 -55l-239 -944q-11 -45 -55 -45h-72q-45 0 -35 45z" />
<glyph unicode="&#x22;" horiz-adv-x="828" d="M262 869l104 545q11 55 49 55h104q38 0 23 -55l-146 -545q-13 -45 -46 -45h-64q-33 0 -24 45zM612 869l104 545q11 55 49 55h104q38 0 23 -55l-146 -545q-13 -45 -46 -45h-64q-33 0 -24 45z" />
<glyph unicode="#" horiz-adv-x="1390" d="M132 410l9 50q6 35 51 35h215l76 432h-215q-44 0 -38 35l8 50q6 35 52 35h215l58 330q8 45 43 45h62q35 0 27 -45l-58 -330h336l58 330q8 45 43 45h62q35 0 27 -45l-58 -330h215q44 0 38 -35l-8 -50q-6 -35 -52 -35h-215l-76 -432h215q45 0 39 -35l-9 -50q-6 -35 -51 -35 h-215l-58 -330q-8 -45 -43 -45h-62q-35 0 -27 45l58 330h-336l-58 -330q-8 -45 -43 -45h-62q-35 0 -27 45l58 330h-215q-45 0 -39 35zM539 495h336l76 432h-336z" />
<glyph unicode="$" d="M65 185l44 51q32 37 86 -14q70 -66 129 -81t121 -19l125 541q-40 22 -86 51q-55 34 -94 77t-67.5 105t-28.5 173q0 161 98.5 248t184.5 108.5t175 25.5l28 120q10 45 45 45h50q35 0 25 -45l-29 -125q56 -8 123 -36t106 -67q45 -45 17 -80l-48 -59q-26 -32 -64 4 q-41 38 -93.5 56.5t-76.5 24.5l-117 -505q63 -30 125 -74q52 -37 85.5 -75.5t57.5 -99t24 -150.5q0 -141 -97.5 -244t-192 -134t-190.5 -36l-31 -136q-10 -45 -45 -45h-50q-35 0 -25 45l32 137q-108 7 -187 37.5t-139 89.5q-51 50 -20 86zM480 1084q0 -58 14 -112.5 t71 -99.5q22 -17 46 -33l107 462q-93 -6 -165.5 -64t-72.5 -153zM566 125q75 14 161.5 81.5t86.5 175.5q0 50 -13.5 103t-83.5 97q-19 13 -40 24z" />
<glyph unicode="%" horiz-adv-x="1782" d="M121 1052q0 168 113 311.5t262 143.5q143 0 199 -86.5t56 -228.5q0 -168 -113 -311.5t-262 -143.5q-143 0 -199 86.5t-56 228.5zM218 -40q-27 23 2 56l1280 1496q29 35 56 12l38 -33q25 -22 -4 -56l-1278 -1497q-31 -35 -58 -12zM281 1032q0 -80 20 -130t85 -50 q80 0 142.5 110t62.5 250q0 80 -20 130t-85 50q-80 0 -142.5 -110t-62.5 -250zM1006 258q0 168 113 311.5t262 143.5q143 0 199 -86.5t56 -228.5q0 -168 -113 -311.5t-262 -143.5q-143 0 -199 86.5t-56 228.5zM1166 238q0 -80 20 -130t85 -50q80 0 142.5 110t62.5 250 q0 80 -20 130t-85 50q-80 0 -142.5 -110t-62.5 -250z" />
<glyph unicode="&#x26;" horiz-adv-x="1354" d="M71 290q0 103 91.5 238t334.5 289q-25 51 -60.5 139.5t-35.5 200.5q0 120 87 213.5t281 93.5q106 0 202 -64t96 -221q0 -95 -101.5 -196t-246.5 -190l235 -387q49 42 109.5 124t80.5 129q19 45 54 29l67 -30q41 -18 24 -57q-38 -87 -121 -181.5t-138 -139.5l135 -222 q35 -58 -31 -58h-81q-58 0 -84 43l-80 130q-114 -91 -200.5 -147t-239.5 -56q-172 0 -275 77t-103 243zM266 307q0 -92 47.5 -142t169.5 -50q92 0 171 53t162 125l-245 405q-153 -92 -229 -196.5t-76 -194.5zM581 1143q0 -91 19.5 -140t43.5 -92q132 89 187.5 155t55.5 129 q0 56 -35 93t-109 37q-66 0 -114 -44.5t-48 -137.5z" />
<glyph unicode="'" horiz-adv-x="478" d="M262 869l104 545q11 55 49 55h104q38 0 23 -55l-146 -545q-13 -45 -46 -45h-64q-33 0 -24 45z" />
<glyph unicode="(" horiz-adv-x="670" d="M90 316q0 287 151.5 588.5t472.5 592.5q43 39 70 14l32 -30q28 -26 -7 -58q-122 -109 -322.5 -431.5t-200.5 -705.5q0 -241 31 -397t73 -232q23 -41 -4 -59l-37 -24q-30 -19 -66 26q-94 118 -143.5 332t-49.5 384z" />
<glyph unicode=")" horiz-adv-x="670" d="M-107 -393q-28 26 7 58q122 109 322.5 431.5t200.5 705.5q0 241 -31 397t-73 232q-23 41 4 59l37 24q30 19 66 -26q94 -118 143.5 -332t49.5 -384q0 -287 -151.5 -588.5t-472.5 -592.5q-43 -39 -70 -14z" />
<glyph unicode="*" horiz-adv-x="940" d="M217 859q-24 71 66 106l235 92l-193 93q-73 35 -16 106l8 10q57 70 116 17l155 -139l27 232q10 88 91 88h12q81 0 51 -88l-81 -232l219 139q83 53 108 -17l4 -10q25 -71 -66 -106l-235 -93l193 -92q74 -35 16 -106l-8 -10q-57 -70 -116 -18l-155 140l-26 -232 q-11 -88 -92 -88h-12q-81 0 -50 88l80 232l-219 -140q-83 -52 -108 18z" />
<glyph unicode="+" horiz-adv-x="1280" d="M127 700v50q0 35 45 35h454v455q0 45 35 45h50q35 0 35 -45v-455h456q45 0 45 -35v-50q0 -35 -45 -35h-456v-455q0 -45 -35 -45h-50q-35 0 -35 45v455h-454q-45 0 -45 35z" />
<glyph unicode="," horiz-adv-x="600" d="M49 -241q-14 15 13 35q35 26 74 88.5t52 117.5h-52q-46 0 -35 45l29 122q11 45 55 45h116q46 0 35 -45l-29 -122q-30 -127 -67.5 -192t-115.5 -127q-26 -20 -38 -7z" />
<glyph unicode="-" horiz-adv-x="680" d="M64 518l16 70q8 35 53 35h478q45 0 37 -35l-16 -70q-8 -35 -53 -35h-478q-45 0 -37 35z" />
<glyph unicode="." horiz-adv-x="600" d="M99 45l29 122q10 45 55 45h112q45 0 35 -45l-29 -122q-10 -45 -55 -45h-112q-45 0 -35 45z" />
<glyph unicode="/" horiz-adv-x="840" d="M-166 -332l1124 1771q27 43 57 28l47 -24q28 -14 2 -55l-1124 -1771q-27 -43 -55 -29l-47 24q-30 15 -4 56z" />
<glyph unicode="0" d="M104 440q0 365 144 688.5t469 323.5q190 0 278.5 -135t88.5 -335q0 -365 -144 -688.5t-469 -323.5q-190 0 -278.5 135t-88.5 335zM290 410q0 -100 44 -198t149 -98q195 0 305 274t110 624q0 100 -44 198t-149 98q-195 0 -305 -274t-110 -624z" />
<glyph unicode="1" horiz-adv-x="827" d="M313 1148q-11 30 35 46q70 24 163 92t144 118q37 36 64 36h85q46 0 36 -45l-312 -1350q-10 -45 -55 -45h-86q-45 0 -35 45l248 1074q3 14 16 60h-4q-34 -40 -106.5 -79t-118.5 -52q-34 -10 -45 20z" />
<glyph unicode="2" d="M-6 45l11 48q9 38 50 72l483 395q215 176 307 294t92 247q0 78 -51 139.5t-172 61.5q-125 0 -203 -72t-120 -173q-22 -54 -63 -38l-75 29q-33 13 -8 86q41 120 170 219t301 99q212 0 314.5 -94.5t102.5 -253.5q0 -195 -133.5 -333t-320.5 -286l-403 -319l-1 -4q41 2 81 2 h531q54 0 44 -45l-17 -74q-10 -45 -65 -45h-810q-55 0 -45 45z" />
<glyph unicode="3" d="M57 224l57 58q30 32 79 -25q56 -65 129.5 -101t149.5 -36q146 0 249 92t103 229q0 129 -51 192t-165 63h-108q-46 0 -38 33l17 74q8 35 53 35h71q132 0 232.5 92.5t100.5 200.5q0 81 -57 126t-163 45q-98 0 -174.5 -45t-115.5 -87q-42 -45 -73 -9l-54 62q-28 31 30 80 q70 59 176.5 104t223.5 45q198 0 296.5 -90t98.5 -244q0 -126 -115 -227.5t-211 -112.5l-1 -4q100 -27 161.5 -117t61.5 -230q0 -151 -138 -304t-424 -153q-152 0 -248.5 57t-143.5 121q-36 49 -9 76z" />
<glyph unicode="4" d="M46 399l20 88q8 32 40 69l745 848q31 36 64 36h91q46 0 36 -45l-202 -877h171q45 0 34 -45l-17 -74q-10 -45 -54 -45h-172l-72 -309q-10 -45 -55 -45h-86q-45 0 -35 45l72 309h-545q-45 0 -35 45zM265 518h399l127 555q7 30 16 60h-2z" />
<glyph unicode="5" d="M77 245l67 49q36 28 76 -31q24 -36 88.5 -89.5t191.5 -53.5q149 0 240.5 108t91.5 273q0 129 -55.5 182t-167.5 53q-47 0 -95.5 -13.5t-126.5 -64.5q-50 -33 -88 -33h-47q-44 0 -34 45l163 707q10 45 55 45h690q45 0 35 -45l-17 -74q-10 -45 -56 -45h-559l-91 -395 q-5 -24 -16 -60h4q45 43 114.5 63t123.5 20q207 0 285.5 -114.5t78.5 -291.5q0 -219 -152 -364.5t-385 -145.5q-178 0 -275.5 68.5t-135.5 130.5q-34 53 -3 76z" />
<glyph unicode="6" d="M116 449q0 415 179 709t495 294q102 0 185.5 -34t131.5 -89q39 -45 14 -66l-62 -50q-37 -31 -72 13q-27 34 -85 55t-134 21q-156 0 -280.5 -157.5t-179.5 -401.5h2q57 78 152.5 117t185.5 39q168 0 270 -98.5t102 -290.5q0 -207 -136.5 -373.5t-370.5 -166.5 q-189 0 -293 127.5t-104 351.5zM305 384q0 -123 56 -193.5t159 -70.5q125 0 214.5 129t89.5 275q0 106 -59 164t-159 58q-132 0 -216.5 -120.5t-84.5 -241.5z" />
<glyph unicode="7" horiz-adv-x="1100" d="M252 39l14 59q90 381 282 645.5t453 514.5l1 2q-31 -2 -61 -2h-628q-45 0 -34 45l17 74q10 45 55 45h834q45 0 35 -45l-16 -69q-8 -31 -53 -72q-252 -227 -438 -509t-258 -594l-22 -94q-10 -45 -55 -45h-91q-45 0 -35 45z" />
<glyph unicode="8" d="M57 350q0 160 117 278.5t229 143.5v3q-76 48 -112 112t-36 161q0 165 135 284.5t337 119.5q205 0 297.5 -93t92.5 -231q0 -158 -110 -253t-204 -109v-2q94 -35 140.5 -116t46.5 -188q0 -202 -148.5 -346t-368.5 -144q-194 0 -305 96t-111 284zM252 356q0 -113 54 -174.5 t178 -61.5q131 0 220.5 96t89.5 230q0 94 -41.5 166t-151.5 72q-148 0 -248.5 -99t-100.5 -229zM443 1068q0 -129 50 -175.5t121 -46.5q124 0 219.5 75t95.5 187q0 88 -50.5 141t-162.5 53q-114 0 -193.5 -78t-79.5 -156z" />
<glyph unicode="9" d="M103 159l62 50q37 31 72 -13q27 -34 85 -55t134 -21q156 0 280.5 157.5t179.5 401.5h-2q-57 -78 -152.5 -117t-185.5 -39q-168 0 -270 98.5t-102 290.5q0 207 136.5 373.5t370.5 166.5q189 0 293 -127.5t104 -351.5q0 -415 -179 -709t-495 -294q-102 0 -185.5 34 t-131.5 89q-39 45 -14 66zM400 898q0 -106 59 -164t159 -58q132 0 216.5 120.5t84.5 241.5q0 123 -56 193.5t-159 70.5q-125 0 -214.5 -129t-89.5 -275z" />
<glyph unicode=":" horiz-adv-x="600" d="M99 45l29 122q10 45 55 45h112q45 0 35 -45l-29 -122q-10 -45 -55 -45h-112q-45 0 -35 45zM292 883l29 122q10 45 55 45h112q45 0 35 -45l-29 -122q-10 -45 -55 -45h-112q-45 0 -35 45z" />
<glyph unicode=";" horiz-adv-x="600" d="M49 -241q-14 15 13 35q35 26 74 88.5t52 117.5h-52q-46 0 -35 45l29 122q11 45 55 45h116q46 0 35 -45l-29 -122q-30 -127 -67.5 -192t-115.5 -127q-26 -20 -38 -7zM292 883l29 122q10 45 55 45h112q45 0 35 -45l-29 -122q-10 -45 -55 -45h-112q-45 0 -35 45z" />
<glyph unicode="&#x3c;" horiz-adv-x="1280" d="M152 719v32q0 20 25 34l952 550q39 23 57 -8l25 -43q18 -30 -22 -53l-859 -495v-2l859 -495q40 -23 22 -53l-25 -43q-18 -31 -57 -8l-952 550q-25 14 -25 34z" />
<glyph unicode="=" horiz-adv-x="1280" d="M127 530v50q0 35 45 35h1030q45 0 45 -35v-50q0 -35 -45 -35h-1030q-45 0 -45 35zM127 870v50q0 35 45 35h1030q45 0 45 -35v-50q0 -35 -45 -35h-1030q-45 0 -45 35z" />
<glyph unicode="&#x3e;" horiz-adv-x="1280" d="M181 186q-18 30 22 53l859 495v2l-859 495q-40 23 -22 53l25 43q18 31 57 8l952 -550q25 -14 25 -34v-32q0 -20 -25 -34l-952 -550q-39 -23 -57 8z" />
<glyph unicode="?" horiz-adv-x="1016" d="M285 1170q-34 19 4 86q42 73 147 140.5t268 67.5q198 0 287.5 -81t89.5 -250q0 -159 -231 -365t-258 -330l-5 -23q-10 -45 -56 -45h-86q-44 0 -34 45l8 37q38 176 252 373.5t214 318.5q0 98 -53.5 134t-133.5 36q-88 0 -167.5 -51t-106.5 -104q-27 -52 -68 -29zM311 45 l29 122q10 45 55 45h112q45 0 35 -45l-29 -122q-10 -45 -55 -45h-112q-45 0 -35 45z" />
<glyph unicode="@" horiz-adv-x="1992" d="M120 551q0 381 260 651.5t680 270.5q306 0 559 -178.5t253 -578.5q0 -294 -141 -449.5t-371 -155.5q-130 0 -166 57t-36 164h-2q-38 -89 -130 -155t-183 -66q-134 0 -215.5 96t-81.5 260q0 206 131.5 390.5t328.5 184.5q191 0 235 -176h4l23 106q7 34 42 34h110 q35 0 27 -35l-131 -591q-22 -98 4 -123.5t71 -25.5q146 0 252.5 111.5t106.5 373.5q0 304 -194 470.5t-494 166.5q-342 0 -581 -218.5t-239 -598.5q0 -332 228.5 -540t549.5 -208q150 0 302.5 54.5t283.5 160.5q27 22 43 0l39 -54q17 -24 -10 -42q-163 -115 -322.5 -177 t-344.5 -62q-359 0 -625 238t-266 645zM717 447q0 -123 44.5 -169.5t123.5 -46.5q101 0 188.5 142.5t103.5 208.5q15 64 15 145q0 69 -41 133t-121 64q-134 0 -223.5 -144t-89.5 -333z" />
<glyph unicode="A" horiz-adv-x="1360" d="M-20 66l770 1307q36 61 80 61h140q41 0 52 -61l226 -1307q2 -11 2 -21q0 -45 -44 -45h-91q-53 0 -61 49l-57 331h-615l-195 -331q-29 -49 -83 -49h-112q-29 0 -29 21q0 16 17 45zM480 544h488l-70 400q-13 72 -21 157.5t-8 159.5h-4q-18 -71 -56 -145t-95 -172z" />
<glyph unicode="B" horiz-adv-x="1338" d="M76 55l305 1324q13 55 63 55h370q273 0 379 -100.5t106 -249.5q0 -139 -95.5 -221.5t-237.5 -112.5v-3q103 -21 183.5 -100.5t80.5 -215.5q0 -167 -151 -299t-496 -132h-470q-40 0 -40 35q0 9 3 20zM293 164h296q210 0 323 71t113 204q0 121 -102.5 173t-278.5 52h-236z M442 808h271q142 0 266.5 76t124.5 192q0 103 -73 148.5t-252 45.5h-231z" />
<glyph unicode="C" horiz-adv-x="1392" d="M110 580q0 395 210.5 639.5t587.5 244.5q184 0 298 -64t161 -170q8 -18 8 -32q0 -30 -31 -48l-78 -46q-7 -4 -14 -4q-19 0 -38 32q-30 54 -109 115t-214 61q-250 0 -413 -183t-163 -568q0 -182 96 -306.5t326 -124.5q136 0 230.5 71.5t146.5 143.5q30 42 57 42 q11 0 21 -7l90 -58q15 -9 15 -26q0 -21 -23 -54q-79 -115 -213 -191.5t-351 -76.5q-302 0 -451 172.5t-149 437.5z" />
<glyph unicode="D" horiz-adv-x="1406" d="M76 55l305 1324q13 55 63 55h319q358 0 496 -175t138 -411q0 -340 -210 -594t-655 -254h-419q-40 0 -40 35q0 9 3 20zM293 164h268q332 0 481.5 212t149.5 484q0 172 -81.5 292t-393.5 120h-168z" />
<glyph unicode="E" horiz-adv-x="1270" d="M76 55l305 1324q13 55 63 55h875q47 0 47 -32q0 -6 -2 -13l-17 -74q-11 -45 -66 -45h-733l-102 -444h673q46 0 46 -31q0 -6 -2 -14l-17 -74q-10 -45 -65 -45h-673l-115 -498h763q46 0 46 -31q0 -6 -2 -14l-17 -74q-10 -45 -65 -45h-905q-40 0 -40 35q0 9 3 20z" />
<glyph unicode="F" horiz-adv-x="1166" d="M76 55l305 1324q13 55 63 55h815q47 0 47 -32q0 -6 -2 -13l-17 -74q-11 -45 -66 -45h-673l-109 -474h587q46 0 46 -31q0 -6 -2 -14l-17 -74q-10 -45 -65 -45h-587l-133 -577q-13 -55 -63 -55h-92q-40 0 -40 35q0 9 3 20z" />
<glyph unicode="G" horiz-adv-x="1470" d="M110 580q0 395 210.5 639.5t595.5 244.5q194 0 308 -66t158 -150q10 -19 10 -35q0 -27 -29 -46l-76 -50q-8 -6 -17 -6q-19 0 -36 31q-25 43 -109 104.5t-226 61.5q-257 0 -420.5 -183t-163.5 -568q0 -182 96 -306.5t326 -124.5q130 0 240 40t162 96l57 248h-297 q-47 0 -47 32q0 6 2 13l17 74q11 45 66 45h434q46 0 46 -31q0 -7 -2 -14l-109 -472q-142 -106 -270 -146.5t-326 -40.5q-302 0 -451 172.5t-149 437.5z" />
<glyph unicode="H" horiz-adv-x="1422" d="M76 55l305 1324q13 55 63 55h92q40 0 40 -35q0 -9 -3 -20l-127 -551h698l127 551q13 55 63 55h92q40 0 40 -35q0 -9 -3 -20l-305 -1324q-13 -55 -63 -55h-92q-40 0 -40 35q0 9 3 20l140 609h-698l-140 -609q-13 -55 -63 -55h-92q-40 0 -40 35q0 9 3 20z" />
<glyph unicode="I" horiz-adv-x="532" d="M76 55l305 1324q13 55 63 55h92q40 0 39 -35q0 -9 -2 -20l-305 -1324q-13 -55 -63 -55h-92q-40 0 -40 35q0 9 3 20z" />
<glyph unicode="J" horiz-adv-x="824" d="M-28 94l36 71q15 30 38 30q17 0 38 -16q70 -53 132 -53q97 0 152 65t83 187l231 1001q13 55 63 55h92q40 0 40 -35q0 -9 -3 -20l-225 -978q-40 -176 -132 -303.5t-320 -127.5q-116 0 -212 59q-21 13 -21 34q0 14 8 31z" />
<glyph unicode="K" horiz-adv-x="1328" d="M76 55l305 1324q13 55 63 55h92q40 0 40 -35q0 -9 -3 -20l-130 -565q-5 -22 -21 -80h4l799 661q47 39 79 39h143q42 0 42 -17q0 -16 -39 -49l-628 -518l354 -784q10 -21 10 -36q0 -30 -43 -30h-107q-43 0 -61 39l-307 684l-304 -252l-96 -416q-13 -55 -63 -55h-92 q-40 0 -40 35q0 9 3 20z" />
<glyph unicode="L" horiz-adv-x="1136" d="M76 55l305 1324q13 55 63 55h92q40 0 40 -35q0 -9 -3 -20l-280 -1215h663q46 0 46 -31q0 -6 -2 -14l-17 -74q-10 -45 -65 -45h-805q-40 0 -40 35q0 9 3 20z" />
<glyph unicode="M" horiz-adv-x="1708" d="M76 55l305 1324q13 55 63 55h201q38 0 43 -60l79 -897q7 -82 10 -146.5t3 -124.5h6q27 63 59 125t78 146l493 897q33 60 71 60h225q40 0 40 -35q0 -9 -3 -20l-305 -1324q-13 -55 -63 -55h-92q-40 0 -40 35q0 9 3 20l242 1049q10 45 20 80h-4l-628 -1123q-34 -61 -80 -61 h-110q-46 0 -52 61l-110 1123h-4q-8 -44 -16 -80l-242 -1049q-13 -55 -63 -55h-92q-40 0 -40 35q0 9 3 20z" />
<glyph unicode="N" horiz-adv-x="1438" d="M76 55l305 1324q13 55 63 55h121q71 0 89 -50l388 -1060h4q9 46 17 80l224 975q13 55 63 55h92q40 0 40 -35q0 -9 -3 -20l-305 -1324q-13 -55 -63 -55h-82q-70 0 -88 50l-413 1125h-4q-8 -44 -16 -80l-240 -1040q-13 -55 -63 -55h-92q-40 0 -40 35q0 9 3 20z" />
<glyph unicode="O" horiz-adv-x="1514" d="M110 580q0 400 214 642t554 242q305 0 461 -162.5t156 -447.5q0 -400 -214 -642t-554 -242q-305 0 -461 162.5t-156 447.5zM315 556q0 -205 106.5 -317.5t316.5 -112.5q220 0 386 183.5t166 568.5q0 205 -106.5 317.5t-316.5 112.5q-220 0 -386 -183.5t-166 -568.5z" />
<glyph unicode="P" horiz-adv-x="1298" d="M76 55l305 1324q13 55 63 55h410q234 0 355.5 -105t121.5 -284q0 -181 -145.5 -325t-499.5 -144h-298l-120 -521q-13 -55 -63 -55h-92q-40 0 -40 35q0 9 3 20zM426 740h311q207 0 303 78.5t96 206.5q0 136 -75 190.5t-242 54.5h-271z" />
<glyph unicode="Q" horiz-adv-x="1514" d="M110 580q0 400 214 642t554 242q305 0 461 -162.5t156 -447.5q0 -400 -214 -642q-185 -209 -464 -238q1 -123 52.5 -167t166.5 -44q51 0 116 13q40 7 43 -15l12 -90q3 -24 -28 -28q-122 -20 -175 -20q-205 0 -292 84.5t-87 267.5q-230 23 -359 157q-156 163 -156 448z M315 556q0 -205 106.5 -317.5t316.5 -112.5q220 0 386 183.5t166 568.5q0 205 -106.5 317.5t-316.5 112.5q-220 0 -386 -183.5t-166 -568.5z" />
<glyph unicode="R" horiz-adv-x="1384" d="M76 55l305 1324q13 55 63 55h453q252 0 360 -108t108 -270q0 -165 -137.5 -274t-333.5 -125l-1 -2q85 -76 109 -118.5t46 -103.5l131 -367q7 -20 7 -33q0 -33 -40 -33h-93q-48 0 -61 39l-116 357q-24 74 -95.5 149.5t-208.5 75.5h-174l-130 -566q-13 -55 -63 -55h-92 q-40 0 -40 35q0 9 3 20zM436 785h309q180 0 302.5 62t122.5 191q0 144 -89.5 188t-235.5 44h-297z" />
<glyph unicode="S" horiz-adv-x="1217" d="M94 198l57 70q13 16 31 16q24 0 55 -29q65 -61 141 -95t194 -34q100 0 169 28.5t122.5 83t53.5 135.5q0 43 -12.5 89t-52 81t-87.5 54q-55 22 -117 42.5t-138 58.5q-64 32 -110 81t-73 117t-27 145q0 141 90 250.5t201 141t206 31.5q133 0 223 -33t164 -90q30 -23 30 -47 q0 -16 -13 -33l-58 -75q-10 -13 -25 -13q-19 0 -44 21q-36 30 -118 65t-171 35q-57 0 -123 -19t-118 -77.5t-52 -142.5q0 -44 12 -84.5t44.5 -70.5t69.5 -48q58 -28 119.5 -48t111.5 -40q80 -32 146.5 -83t95.5 -128.5t29 -147.5q0 -141 -76 -236t-187 -147t-301 -52 q-164 0 -271 40t-171 102q-31 31 -31 57q0 15 11 29z" />
<glyph unicode="T" horiz-adv-x="1240" d="M229 1307l19 82q10 45 65 45h1058q47 0 47 -32q0 -6 -2 -13l-19 -82q-11 -45 -66 -45h-433l-278 -1207q-13 -55 -63 -55h-92q-40 0 -40 35q0 9 3 20l278 1207h-433q-46 0 -46 31q0 6 2 14z" />
<glyph unicode="U" horiz-adv-x="1402" d="M249 547l192 832q13 55 63 55h92q40 0 40 -35q0 -9 -3 -20l-185 -802q-33 -146 -33 -239q0 -86 28 -126q59 -86 240 -86q146 0 262.5 85.5t180.5 365.5l185 802q13 55 63 55h92q40 0 40 -35q0 -9 -3 -20l-192 -832q-73 -317 -234 -447t-430 -130q-199 0 -335 130 q-88 85 -88 248q0 88 25 199z" />
<glyph unicode="V" horiz-adv-x="1338" d="M251 1368q-1 10 -1 18q0 48 43 48h90q55 0 61 -49l118 -895q8 -59 15 -157t7 -160h4q26 63 81.5 164t86.5 153l532 895q29 49 83 49h114q29 0 29 -21q0 -16 -17 -45l-789 -1307q-37 -61 -80 -61h-140q-43 0 -52 61z" />
<glyph unicode="W" horiz-adv-x="1888" d="M243 1374v8q0 52 40 52h107q31 0 32 -46l23 -961v-40q0 -39 -1 -77q-2 -56 -2 -137h5q24 59 50.5 117t61.5 136l439 954q25 54 76 54h135q51 0 52 -54l18 -954v-53v-63q-1 -66 -1 -137h5q27 60 63 133.5t57 120.5l434 961q21 46 54 46h132q24 0 24 -21q0 -15 -12 -39 l-633 -1297q-38 -77 -92 -77h-125q-50 0 -52 84l-26 959q-1 34 -1 61q0 34 2 56q2 42 2 99h-2q-21 -61 -37 -103.5t-49 -112.5l-453 -959q-40 -84 -90 -84h-125q-53 0 -56 77z" />
<glyph unicode="X" horiz-adv-x="1298" d="M16 66l638 686l-299 616q-11 22 -11 36q0 30 44 30h98q43 0 61 -39l235 -522l456 522q34 39 79 39h138q33 0 33 -17q0 -16 -30 -49l-591 -641l326 -661q11 -22 11 -37q0 -29 -44 -29h-105q-44 0 -61 39l-254 568l-497 -568q-34 -39 -79 -39h-145q-33 0 -33 17t30 49z" />
<glyph unicode="Y" horiz-adv-x="1302" d="M277 1368q-8 19 -8 32q0 34 50 34h93q44 0 61 -49l156 -437q14 -40 37.5 -109.5t37.5 -129.5h4q42 60 82.5 112t102.5 127l358 437q40 49 83 49h125q38 0 38 -20q0 -16 -26 -46l-681 -778l-123 -535q-13 -55 -63 -55h-92q-40 0 -40 35q0 9 3 20l123 535z" />
<glyph unicode="Z" horiz-adv-x="1216" d="M-35 45l11 48q10 45 51 89l1010 1086l1 4q-41 -2 -81 -2h-622q-46 0 -46 32q0 6 2 13l17 74q10 45 65 45h922q47 0 47 -32q0 -6 -2 -13l-7 -31q-7 -30 -35 -61l-1034 -1131l-1 -4q28 2 81 2h680q46 0 46 -32q0 -6 -2 -13l-17 -74q-10 -45 -65 -45h-976q-47 0 -47 32 q0 6 2 13z" />
<glyph unicode="[" horiz-adv-x="658" d="M-24 -363l419 1814q10 45 55 45h328q45 0 37 -35l-14 -60q-8 -35 -53 -35h-197l-379 -1644h197q45 0 37 -35l-14 -60q-8 -35 -53 -35h-328q-45 0 -35 45z" />
<glyph unicode="\" horiz-adv-x="840" d="M159 1394q-12 46 23 55l47 12q37 9 47 -28l466 -1771q12 -46 -25 -56l-46 -12q-35 -9 -45 29z" />
<glyph unicode="]" horiz-adv-x="658" d="M-129 -373l14 60q8 35 53 35h197l379 1644h-197q-45 0 -37 35l14 60q8 35 53 35h328q45 0 35 -45l-419 -1814q-10 -45 -55 -45h-328q-45 0 -37 35z" />
<glyph unicode="^" horiz-adv-x="866" d="M206 979l263 421q21 34 65 34h42q44 0 65 -34l263 -421q23 -37 -6 -56l-49 -32q-29 -19 -54 20l-239 379h-2l-239 -379q-25 -39 -54 -20l-49 32q-29 19 -6 56z" />
<glyph unicode="_" horiz-adv-x="1100" d="M-219 -295q0 35 45 35h1058q45 0 45 -35v-60q0 -35 -45 -35h-1058q-45 0 -45 35v60z" />
<glyph unicode="`" horiz-adv-x="614" d="M407 1383q-38 52 22 52h101q54 0 75 -37l112 -195q30 -53 -19 -53h-64q-56 0 -77 29z" />
<glyph unicode="a" horiz-adv-x="1099" d="M66 339q0 275 186.5 501.5t391.5 226.5q90 0 148 -37.5t86 -87.5h2l21 63q15 45 49 45h84q37 0 37 -30q0 -7 -2 -15l-222 -960q-10 -45 -55 -45h-81q-37 0 -37 31q0 6 2 14l25 120h-2q-49 -65 -130.5 -123.5t-181.5 -58.5q-145 0 -233 87.5t-88 268.5zM252 332 q0 -66 35.5 -142.5t145.5 -76.5q90 0 199 119t139 248l67 290q0 90 -57.5 128.5t-142.5 38.5q-140 0 -263 -179.5t-123 -425.5z" />
<glyph unicode="b" horiz-adv-x="1119" d="M42 45l320 1386q10 45 55 45h86q37 0 37 -30q0 -7 -2 -15l-112 -485q-7 -29 -16 -61h2q44 79 137 130.5t173 51.5q190 0 264.5 -116.5t74.5 -279.5q0 -255 -161 -471.5t-379 -216.5q-111 0 -173 33.5t-113 101.5h-2l-23 -73q-14 -45 -49 -45h-84q-37 0 -37 30q0 7 2 15z M275 290q10 -100 65 -138.5t167 -38.5q152 0 260 169.5t108 395.5q0 104 -45 181.5t-158 77.5q-98 0 -199.5 -117.5t-132.5 -249.5z" />
<glyph unicode="c" horiz-adv-x="1026" d="M68 402q0 265 163.5 465t428.5 200q162 0 231 -56.5t100 -124.5q16 -36 -14 -52l-66 -35q-10 -5 -19 -5q-21 0 -34 30q-14 32 -64 72.5t-147 40.5q-156 0 -274.5 -140t-118.5 -410q0 -122 58.5 -198t188.5 -76q103 0 169 53.5t94 95.5q23 35 53 14l63 -46q29 -21 5 -55 q-29 -40 -127 -116t-270 -76q-234 0 -327 133.5t-93 285.5z" />
<glyph unicode="d" horiz-adv-x="1119" d="M70 379q0 255 161 471.5t379 216.5q111 0 173 -33.5t113 -101.5h2q3 24 12 61l101 438q10 45 55 45h86q37 0 37 -30q0 -7 -2 -15l-320 -1386q-10 -45 -55 -45h-84q-30 0 -30 30q0 7 1 15l22 120h-2q-44 -79 -137 -130.5t-173 -51.5q-190 0 -264.5 116.5t-74.5 279.5z M256 372q0 -104 45 -181.5t158 -77.5q98 0 199.5 117.5t132.5 249.5l65 280q-10 100 -65 138.5t-167 38.5q-152 0 -260 -169.5t-108 -395.5z" />
<glyph unicode="e" horiz-adv-x="1078" d="M68 396q0 300 156.5 485.5t427.5 185.5q155 0 250.5 -88.5t95.5 -200.5q0 -148 -141.5 -218t-350.5 -112l-246 -49q-6 -38 -6 -40q0 -99 54 -172t189 -73q115 0 185 42t95 76q23 30 42 30q11 0 21 -9l59 -51q19 -17 -6 -56q-23 -36 -124 -99.5t-296 -63.5 q-213 0 -309 123.5t-96 289.5zM265 538l205 40q140 27 246 74.5t106 133.5q0 68 -61.5 109.5t-141.5 41.5q-121 0 -215.5 -92t-138.5 -307z" />
<glyph unicode="f" horiz-adv-x="652" d="M5 -355l294 1273h-107q-45 0 -37 35l14 62q8 35 53 35h107l35 149q38 167 143 230.5t221 63.5q69 0 109.5 -7t93.5 -31q20 -9 6 -32l-50 -79q-12 -20 -37 -8q-19 10 -49 18.5t-67 8.5q-83 0 -129 -40t-72 -153l-28 -120h183q45 0 37 -35l-14 -62q-8 -35 -53 -35h-183 l-294 -1273q-10 -45 -55 -45h-86q-37 0 -37 30q0 7 2 15z" />
<glyph unicode="g" horiz-adv-x="1119" d="M5 -298q-10 16 -10 30q0 16 14 30l50 48q11 11 23 11q15 0 33 -19q38 -40 96 -64.5t164 -24.5q124 0 208.5 67.5t121.5 230.5l21 93q6 27 16 61h-2q-44 -79 -137 -130.5t-173 -51.5q-190 0 -264.5 116.5t-74.5 279.5q0 255 161 471.5t379 216.5q111 0 173 -33.5 t113 -101.5h2l23 73q14 45 49 45h84q37 0 37 -30q0 -7 -2 -15l-234 -1013q-47 -205 -160 -307t-372 -102q-135 0 -221 32.5t-118 86.5zM277 372q0 -104 45 -181.5t158 -77.5q98 0 199.5 117.5t132.5 249.5l65 280q-10 100 -65 138.5t-167 38.5q-152 0 -260 -169.5 t-108 -395.5z" />
<glyph unicode="h" horiz-adv-x="1128" d="M42 45l320 1386q10 45 56 45h86q36 0 36 -30q0 -7 -2 -15l-112 -486q-6 -28 -15 -60h4q59 73 153.5 127.5t214.5 54.5q170 -1 232 -103q37 -62 38 -150q0 -59 -17 -130l-148 -639q-10 -45 -55 -45h-86q-37 0 -37 30q0 7 2 15l137 591q22 95 22 156q0 64 -25 92 q-48 52 -158 53q-120 0 -218.5 -116.5t-133.5 -266.5l-118 -509q-10 -45 -55 -45h-86q-37 0 -37 30q0 7 2 15z" />
<glyph unicode="i" horiz-adv-x="460" d="M42 45l222 960q10 45 55 45h86q37 0 37 -30q0 -7 -2 -15l-222 -960q-10 -45 -55 -45h-86q-37 0 -37 30q0 7 2 15zM330 1285l20 86q10 45 55 45h86q37 0 37 -30q0 -7 -2 -15l-20 -86q-11 -45 -56 -45h-86q-36 0 -36 29q0 7 2 16z" />
<glyph unicode="j" horiz-adv-x="466" d="M-293 -365l25 81q8 26 29 15q35 -18 91 -18q59 0 101 57t83 236l231 999q10 45 55 45h86q37 0 37 -30q0 -7 -2 -15l-253 -1098q-45 -194 -136 -259t-200 -65q-99 0 -137 20q-17 9 -10 32zM336 1285l20 86q10 45 55 45h86q37 0 37 -30q0 -7 -2 -15l-20 -86 q-11 -45 -56 -45h-86q-36 0 -36 29q0 7 2 16z" />
<glyph unicode="k" horiz-adv-x="1003" d="M42 45l320 1386q10 45 56 45h86q36 0 36 -30q0 -7 -2 -15l-189 -820q-7 -29 -16 -60h2l505 473q28 26 59 26h111q42 0 42 -18q0 -15 -29 -41l-409 -380l228 -552q7 -16 7 -28q0 -31 -47 -31h-81q-33 0 -48 37l-186 454l-211 -198l-58 -248q-11 -45 -55 -45h-86 q-37 0 -37 30q0 7 2 15z" />
<glyph unicode="l" horiz-adv-x="460" d="M42 45l289 1248q4 20 18 38l100 127q27 35 39 35h35q30 0 22 -35l-327 -1413q-10 -45 -55 -45h-86q-37 0 -37 30q0 7 2 15z" />
<glyph unicode="m" horiz-adv-x="1678" d="M42 45l222 960q10 45 55 45h84q37 0 37 -30q0 -7 -2 -15l-27 -120h4q59 72 148.5 127t179.5 55q110 0 172.5 -69.5t62.5 -164.5h4q63 82 159.5 158t211.5 76q140 -1 207 -103q42 -64 41 -156q0 -57 -15 -124l-148 -639q-10 -45 -55 -45h-86q-37 0 -37 30q0 7 2 15 l135 581q26 114 26 181q0 48 -13 72q-32 58 -142 58q-90 0 -189.5 -120.5t-132.5 -262.5l-118 -509q-10 -45 -55 -45h-86q-37 0 -37 30q0 7 2 15l135 581q26 114 26 181q0 48 -13 72q-32 58 -142 58q-90 0 -188.5 -116.5t-133.5 -266.5l-118 -509q-10 -45 -55 -45h-86 q-37 0 -37 30q0 7 2 15z" />
<glyph unicode="n" horiz-adv-x="1128" d="M42 45l222 960q10 45 55 45h84q37 0 37 -30q0 -7 -2 -15l-27 -120h4q59 73 153.5 127.5t214.5 54.5q170 -1 232 -103q37 -62 38 -150q0 -59 -17 -130l-148 -639q-10 -45 -55 -45h-86q-37 0 -37 30q0 7 2 15l137 591q22 95 22 156q0 64 -25 92q-48 52 -158 53 q-120 0 -218.5 -116.5t-133.5 -266.5l-118 -509q-10 -45 -55 -45h-86q-37 0 -37 30q0 7 2 15z" />
<glyph unicode="o" horiz-adv-x="1148" d="M68 402q0 264 163.5 464.5t428.5 200.5q234 0 327 -134.5t93 -284.5q0 -264 -163.5 -464.5t-428.5 -200.5q-234 0 -327 134.5t-93 284.5zM254 387q0 -125 58.5 -199.5t188.5 -74.5q156 0 274.5 141.5t118.5 408.5q0 125 -58.5 199.5t-188.5 74.5q-156 0 -274.5 -141.5 t-118.5 -408.5z" />
<glyph unicode="p" horiz-adv-x="1119" d="M-50 -355l314 1360q10 45 55 45h84q30 0 30 -30q0 -7 -1 -15l-22 -120h2q44 79 137 130.5t173 51.5q190 0 264.5 -116.5t74.5 -279.5q0 -255 -161 -471.5t-379 -216.5q-111 0 -173 33.5t-113 101.5h-2q-4 -28 -12 -61l-95 -412q-10 -45 -55 -45h-86q-37 0 -37 30 q0 7 2 15zM275 290q10 -100 65 -138.5t167 -38.5q152 0 260 169.5t108 395.5q0 104 -45 181.5t-158 77.5q-98 0 -199.5 -117.5t-132.5 -249.5z" />
<glyph unicode="q" horiz-adv-x="1119" d="M70 379q0 255 161 471.5t379 216.5q111 0 173 -33.5t113 -101.5h2l23 73q14 45 49 45h84q37 0 37 -30q0 -7 -2 -15l-314 -1360q-10 -45 -55 -45h-86q-37 0 -37 30q0 7 2 15l106 459q9 37 16 61h-2q-44 -79 -137 -130.5t-173 -51.5q-190 0 -264.5 116.5t-74.5 279.5z M256 372q0 -104 45 -181.5t158 -77.5q98 0 199.5 117.5t132.5 249.5l65 280q-10 100 -65 138.5t-167 38.5q-152 0 -260 -169.5t-108 -395.5z" />
<glyph unicode="r" horiz-adv-x="722" d="M42 45l222 960q10 45 55 45h84q37 0 37 -30q0 -7 -2 -15l-37 -160h4q72 113 147.5 167.5t178.5 54.5q59 0 83 -11q19 -8 10 -30l-33 -82q-7 -18 -29 -14q-34 7 -69 7q-109 0 -221 -141.5t-147 -291.5l-107 -459q-10 -45 -55 -45h-86q-37 0 -37 30q0 7 2 15z" />
<glyph unicode="s" horiz-adv-x="937" d="M41 157l50 59q9 10 22 10q18 0 43 -19q57 -43 122.5 -68.5t137.5 -25.5q54 0 107.5 14.5t88.5 57.5t35 86t-12.5 73t-43.5 51t-62 33q-42 16 -96.5 38t-101.5 44q-46 22 -82 63t-53 89.5t-17 103.5q0 82 50 160.5t144.5 109.5t205.5 31q96 0 173 -27.5t131 -72.5 q30 -25 4 -54l-50 -56q-8 -8 -19 -8q-18 0 -45 19q-40 28 -92 46t-107 18q-48 0 -101.5 -14t-85.5 -50t-32 -86q0 -36 10 -66t35.5 -50.5t54.5 -33.5q52 -24 100.5 -41t88.5 -35q70 -30 114 -70t59.5 -89t15.5 -106q0 -111 -69.5 -184t-158.5 -98.5t-204 -25.5 q-143 0 -228.5 39.5t-123.5 79.5q-29 31 -8 55z" />
<glyph unicode="t" horiz-adv-x="757" d="M173 953l14 62q8 35 53 35h118l21 90q5 19 19 38l99 127q27 35 39 35h35q30 0 22 -35l-59 -255h213q45 0 37 -35l-14 -62q-8 -35 -53 -35h-213l-147 -637q-12 -52 -11 -86q0 -35 12 -51q24 -32 59 -31q46 0 95 17.5t66 28.5q22 14 29 -6l26 -72q6 -18 -11 -29 q-41 -26 -119.5 -47.5t-167.5 -21.5t-139 75q-31 46 -30 115q0 44 12 97l150 648h-118q-45 0 -37 35z" />
<glyph unicode="u" horiz-adv-x="1120" d="M145 366l148 639q10 45 55 45h86q37 0 37 -30q0 -7 -2 -15l-136 -591q-22 -95 -22 -157q0 -65 25 -92q48 -52 153 -52q147 0 230 116.5t118 266.5l118 509q10 45 55 45h86q37 0 37 -30q0 -7 -2 -15l-222 -960q-10 -45 -55 -45h-84q-37 0 -37 30q0 7 2 15l28 120h-4 q-59 -73 -154.5 -127.5t-210.5 -54.5q-160 1 -225 103q-40 63 -40 154q0 57 16 126z" />
<glyph unicode="v" horiz-adv-x="986" d="M162 1001q-1 6 -1 11q0 38 39 38h99q32 0 36 -39l60 -660q4 -40 7 -91t3 -96h4q18 45 34.5 75.5t61.5 111.5l364 660q22 39 54 39h119q27 0 27 -18q0 -12 -11 -31l-545 -940q-35 -61 -68 -61h-132q-33 0 -40 61z" />
<glyph unicode="w" horiz-adv-x="1444" d="M158 1001q-2 49 38 49h97q36 0 36 -39l-3 -660q0 -45 -1 -98t-1 -84h4q11 28 38 87.5t45 94.5l328 660q19 39 54 39h90q35 0 36 -39l24 -660v-39v-46q-1 -48 -1 -97h4q13 29 41.5 91t42.5 91l299 660q18 39 54 39h113q25 0 25 -19q0 -11 -9 -30l-465 -940 q-30 -61 -68 -61h-120q-38 0 -40 61l-17 661v43v49q2 34 5 59h-2q-9 -25 -26 -66t-39 -85l-323 -661q-30 -61 -68 -61h-120q-38 0 -40 61z" />
<glyph unicode="x" horiz-adv-x="968" d="M-3 59l452 506l-193 426q-8 17 -8 29q0 30 47 30h74q36 0 47 -26l148 -348l287 348q21 26 59 26h109q37 0 37 -18q0 -15 -24 -41l-400 -449l221 -483q8 -17 8 -29q0 -30 -48 -30h-78q-36 0 -47 26l-170 405l-338 -405q-22 -26 -59 -26h-112q-36 0 -36 18q0 15 24 41z" />
<glyph unicode="y" horiz-adv-x="1128" d="M29 -306q-14 19 -14 36q0 18 16 32l56 52q32 29 50 0q30 -48 87 -74.5t170 -26.5q121 0 206.5 68.5t122.5 228.5q23 102 37 155h-4q-59 -73 -150 -127.5t-218 -54.5q-170 0 -232 103q-37 61 -37 150q0 59 16 130l148 639q10 45 55 45h86q37 0 37 -30q0 -7 -2 -15 l-136 -591q-22 -96 -22 -157q0 -65 25 -92q47 -52 157 -52q106 0 211.5 113.5t141.5 269.5l117 509q10 45 55 45h86q37 0 37 -30q0 -7 -2 -15l-234 -1014q-47 -205 -158 -306.5t-374 -101.5q-171 0 -236 33t-98 78z" />
<glyph unicode="z" horiz-adv-x="950" d="M-49 35l12 51q8 34 53 80l737 752v2q-30 -2 -60 -2h-469q-45 0 -37 35l14 62q8 35 53 35h702q45 0 37 -35l-11 -47q-7 -28 -55 -78l-740 -758v-2q30 2 60 2h521q45 0 37 -35l-14 -62q-8 -35 -53 -35h-750q-45 0 -37 35z" />
<glyph unicode="{" horiz-adv-x="776" d="M101 524l9 40q11 45 46 45q64 0 159 64.5t140 257.5l54 235q39 170 100 250t287 80q45 0 37 -35l-14 -60q-8 -35 -53 -35q-98 0 -125.5 -41.5t-49.5 -135.5l-67 -286q-54 -234 -156 -293t-173 -65l-1 -2q75 -19 138.5 -108.5t26.5 -249.5l-66 -286q-22 -95 -13 -136 t107 -41q45 0 37 -35l-14 -60q-8 -35 -53 -35q-180 0 -222.5 99t-12.5 231l54 235q41 176 -9.5 249t-140.5 73q-35 0 -25 45z" />
<glyph unicode="|" horiz-adv-x="590" d="M232 -395v1846q0 45 35 45h60q35 0 35 -45v-1846q0 -45 -35 -45h-60q-35 0 -35 45z" />
<glyph unicode="}" horiz-adv-x="776" d="M-128 -373l14 60q8 35 53 35q98 0 125.5 41.5t49.5 135.5l67 286q54 234 156 293t173 65l1 2q-75 19 -138.5 108.5t-26.5 249.5l66 286q22 95 13 136t-107 41q-45 0 -37 35l14 60q8 35 53 35q180 0 222.5 -99t12.5 -231l-54 -235q-41 -176 9.5 -249t140.5 -73 q35 0 25 -45l-9 -40q-11 -45 -46 -45q-64 0 -159 -64.5t-140 -257.5l-54 -235q-39 -170 -100 -250t-287 -80q-45 0 -37 35z" />
<glyph unicode="~" horiz-adv-x="1280" d="M146 671q35 110 116 174.5t196 64.5t278.5 -120t238.5 -120q69 0 113 45t69 101q13 30 37 21l43 -15q24 -8 13 -43q-35 -110 -116 -174.5t-196 -64.5t-278.5 120t-238.5 120q-69 0 -113 -45t-69 -101q-13 -30 -37 -21l-43 15q-24 8 -13 43z" />
<glyph unicode="&#xa1;" horiz-adv-x="600" d="M15 -329l239 944q11 45 55 45h72q45 0 35 -45l-197 -944q-11 -55 -63 -55h-104q-50 0 -37 55zM295 883l29 122q10 45 55 45h112q45 0 35 -45l-29 -122q-10 -45 -55 -45h-112q-45 0 -35 45z" />
<glyph unicode="&#xa2;" d="M118 402q0 265 158.5 459t401.5 205l43 186q10 45 45 45h50q35 0 25 -45l-44 -190q95 -12 154 -60t90 -116q16 -36 -14 -52l-66 -35q-34 -18 -53 25q-14 32 -54 64.5t-87 42.5l-189 -817q85 6 146.5 56t89.5 92q23 35 53 14l63 -46q29 -21 5 -55q-29 -40 -125.5 -115 t-261.5 -77l-43 -185q-10 -45 -45 -45h-50q-35 0 -25 45l45 193q-149 25 -230.5 142t-81.5 269zM304 387q0 -122 47 -183t109 -79l187 808q-126 -19 -234.5 -147.5t-108.5 -398.5z" />
<glyph unicode="&#xa3;" d="M-20 45l14 57q10 41 51 73q54 41 135 124t106 193l31 136h-158q-44 0 -34 45l17 74q10 45 56 45h157l51 221q57 247 175 343t321 96q108 0 178.5 -36.5t107.5 -80.5q26 -32 -1 -61l-41 -44q-29 -32 -66 2q-31 28 -82 49t-120 21q-114 0 -186.5 -63t-104.5 -204l-56 -243 h285q44 0 34 -45l-17 -74q-10 -45 -54 -45h-286l-31 -133q-31 -133 -96.5 -217t-117.5 -112v-4q27 2 81 2h571q54 0 44 -45l-17 -74q-10 -45 -65 -45h-837q-56 0 -45 45z" />
<glyph unicode="&#xa4;" d="M166 289q-26 24 5 57l131 140q-74 106 -74 242t74 242l-131 140q-31 33 -5 57l37 34q26 24 56 -9l124 -133q104 85 248 85t248 -85l124 133q30 33 56 9l37 -34q26 -24 -5 -57l-131 -140q74 -106 74 -242t-74 -242l131 -140q31 -33 5 -57l-37 -34q-26 -24 -56 9l-124 133 q-104 -85 -248 -85t-248 85l-124 -133q-30 -33 -56 -9zM361 728q0 -117 75 -201.5t195 -84.5t195 84.5t75 201.5t-75 201.5t-195 84.5t-195 -84.5t-75 -201.5z" />
<glyph unicode="&#xa5;" d="M110 305l14 59q11 45 55 45h273l42 181h-273q-44 0 -34 45l13 59q10 45 56 45h186l-220 629q-23 66 42 66h80q47 0 61 -49l125 -437q23 -80 37.5 -129.5t28.5 -109.5h4q42 60 80 111t96 128l327 437q37 49 83 49h104q66 0 12 -66l-510 -629h176q44 0 34 -45l-13 -59 q-10 -45 -56 -45h-263l-42 -181h263q46 0 35 -45l-14 -59q-11 -45 -55 -45h-263l-50 -215q-10 -45 -55 -45h-86q-45 0 -35 45l50 215h-273q-46 0 -35 45z" />
<glyph unicode="&#xa6;" horiz-adv-x="590" d="M230 -293v644q0 45 35 45h60q35 0 35 -45v-644q0 -45 -35 -45h-60q-35 0 -35 45zM230 705v644q0 45 35 45h60q35 0 35 -45v-644q0 -45 -35 -45h-60q-35 0 -35 45z" />
<glyph unicode="&#xa7;" horiz-adv-x="1160" d="M141 565q0 122 94.5 214t246.5 201q-40 76 -40 150q0 138 112.5 236t251.5 98q117 0 172 -32t87 -82q23 -35 -1 -55l-60 -51q-17 -16 -43 18q-28 37 -61 54.5t-99 17.5q-83 0 -130 -56.5t-47 -114.5q0 -140 222.5 -314t222.5 -324q0 -122 -94.5 -214t-246.5 -201 q40 -76 40 -150q0 -138 -112.5 -236t-251.5 -98q-117 0 -172 32t-87 82q-23 35 1 55l60 51q17 16 43 -18q28 -37 61 -54.5t99 -17.5q83 0 130 56.5t47 114.5q0 140 -222.5 314t-222.5 324zM312 608q0 -94 150 -218.5t200 -182.5l117 89q119 91 119 186q0 94 -150 218.5 t-200 182.5l-117 -89q-119 -91 -119 -186z" />
<glyph unicode="&#xa8;" horiz-adv-x="614" d="M204 1285l20 86q10 45 55 45h86q45 0 35 -45l-20 -86q-11 -45 -56 -45h-86q-45 0 -34 45zM610 1285l20 86q10 45 55 45h86q45 0 35 -45l-20 -86q-11 -45 -56 -45h-86q-45 0 -34 45z" />
<glyph unicode="&#xa9;" horiz-adv-x="1654" d="M100 717q0 152 59.5 290t159.5 238t238 159.5t290 59.5t290 -59.5t238 -159.5t159.5 -238t59.5 -290t-59.5 -290t-159.5 -238t-238 -159.5t-290 -59.5t-290 59.5t-238 159.5t-159.5 238t-59.5 290zM200 717q0 -132 51.5 -251.5t138 -206t206 -140t251.5 -53.5t251.5 53.5 t206 140t138 206t51.5 251.5t-51.5 251.5t-138 206t-206 140t-251.5 53.5t-251.5 -53.5t-206 -140t-138 -206t-51.5 -251.5zM450 717q0 203 103 318t292 115q110 0 184.5 -38t105.5 -103q16 -34 -5 -46l-58 -32q-23 -13 -41 22q-19 37 -59 64.5t-122 27.5q-145 0 -207.5 -83 t-62.5 -245t62.5 -245t207.5 -83q84 0 130.5 34.5t69.5 76.5q18 33 42 20l60 -33q21 -12 3 -47q-34 -67 -113.5 -111.5t-196.5 -44.5q-188 0 -291.5 115t-103.5 318z" />
<glyph unicode="&#xaa;" horiz-adv-x="750" d="M188 1019q0 189 121 331.5t275 142.5q61 0 94 -24.5t52 -57.5h1l15 41q11 29 33 29h67q31 0 24 -29l-147 -624q-7 -29 -37 -29h-66q-29 0 -23 29l17 78h-2q-33 -42 -88.5 -80t-120.5 -38q-99 0 -157 56.5t-58 174.5zM326 1015q0 -43 24 -81t87 -38q59 0 131.5 74 t91.5 151l40 164q-10 61 -43 80.5t-70 19.5q-95 0 -178 -108.5t-83 -261.5z" />
<glyph unicode="&#xab;" horiz-adv-x="1032" d="M134 517q-14 23 11 46l411 380q28 26 45 8l45 -49q16 -17 -13 -44l-359 -334l205 -334q16 -26 -8 -44l-49 -36q-25 -18 -41 8zM484 517q-14 23 11 46l411 380q28 26 45 8l45 -49q16 -17 -13 -44l-359 -334l205 -334q16 -26 -8 -44l-49 -36q-25 -18 -41 8z" />
<glyph unicode="&#xac;" d="M130 843v50q0 35 45 35h860q45 0 45 -35v-420q0 -45 -35 -45h-50q-35 0 -35 45v335h-785q-45 0 -45 35z" />
<glyph unicode="&#xad;" horiz-adv-x="680" d="M64 518l16 70q8 35 53 35h478q45 0 37 -35l-16 -70q-8 -35 -53 -35h-478q-45 0 -37 35z" />
<glyph unicode="&#xae;" horiz-adv-x="1654" d="M100 717q0 152 59.5 290t159.5 238t238 159.5t290 59.5t290 -59.5t238 -159.5t159.5 -238t59.5 -290t-59.5 -290t-159.5 -238t-238 -159.5t-290 -59.5t-290 59.5t-238 159.5t-159.5 238t-59.5 290zM200 717q0 -132 51.5 -251.5t138 -206t206 -140t251.5 -53.5t251.5 53.5 t206 140t138 206t51.5 251.5t-51.5 251.5t-138 206t-206 140t-251.5 53.5t-251.5 -53.5t-206 -140t-138 -206t-51.5 -251.5zM560 315v768q0 32 29 32h280q168 0 243 -63t75 -165q0 -90 -58.5 -152.5t-174.5 -76.5v-1q57 -35 77 -59t44 -64l131 -212q24 -39 -11 -39h-76 q-26 0 -40 23l-116 197q-23 39 -75.5 84.5t-125.5 45.5h-82v-318q0 -32 -29 -32h-62q-29 0 -29 32zM680 743h149q113 0 173 32.5t60 108.5q0 70 -55 95.5t-150 25.5h-177v-262z" />
<glyph unicode="&#xaf;" horiz-adv-x="614" d="M180 1275l10 40q8 35 53 35h528q45 0 37 -35l-10 -40q-8 -35 -53 -35h-528q-45 0 -37 35z" />
<glyph unicode="&#xb0;" horiz-adv-x="560" d="M246 1240q0 83 58.5 141.5t141.5 58.5t141.5 -58.5t58.5 -141.5t-58.5 -141.5t-141.5 -58.5t-141.5 58.5t-58.5 141.5zM346 1240q0 -42 29 -71t71 -29t71 29t29 71t-29 71t-71 29t-71 -29t-29 -71z" />
<glyph unicode="&#xb1;" horiz-adv-x="1280" d="M127 -25v50q0 35 45 35h1030q45 0 45 -35v-50q0 -35 -45 -35h-1030q-45 0 -45 35zM127 700v50q0 35 45 35h454v455q0 45 35 45h50q35 0 35 -45v-455h456q45 0 45 -35v-50q0 -35 -45 -35h-456v-455q0 -45 -35 -45h-50q-35 0 -35 45v455h-454q-45 0 -45 35z" />
<glyph unicode="&#xb2;" horiz-adv-x="590" d="M104 735l9 41q4 20 26 38l287 235q91 74 123.5 123t32.5 106q0 44 -28.5 66t-75.5 22q-41 0 -81 -27t-69 -84q-15 -30 -31 -23l-51 23q-22 10 -7 44q32 70 99 118.5t148 48.5q113 0 166.5 -48t53.5 -128q0 -64 -34.5 -130t-153.5 -161l-223 -179v-2q21 1 41 1h248 q29 0 24 -23l-14 -61q-5 -23 -35 -23h-433q-27 0 -22 23z" />
<glyph unicode="&#xb3;" horiz-adv-x="594" d="M142 788q-20 25 0 39l46 33q20 14 40 -10q28 -34 57 -44t67 -10q86 0 133 44t47 106q0 46 -30 81.5t-92 35.5h-41q-23 0 -19 17l14 60q4 18 27 18h29q66 0 113.5 39.5t47.5 90.5q0 40 -24 59t-74 19q-40 0 -71.5 -12t-61.5 -35q-29 -22 -40 -8l-37 46q-14 17 21 43 q40 30 88 48t111 18q107 0 157.5 -47.5t50.5 -113.5q0 -88 -54.5 -130.5t-119.5 -58.5l-1 -2q59 -17 94.5 -62t35.5 -115q0 -96 -88 -168.5t-222 -72.5q-78 0 -126 27t-78 65z" />
<glyph unicode="&#xb4;" horiz-adv-x="614" d="M375 1203l166 195q32 37 87 37h121q59 0 6 -52l-206 -204q-30 -29 -85 -29h-84q-50 0 -5 53z" />
<glyph unicode="&#xb5;" horiz-adv-x="1160" d="M-48 -372l318 1376q10 45 55 45h86q45 0 35 -45l-127 -549q-36 -154 3.5 -248.5t159.5 -94.5q96 0 207 92t148 252l127 549q10 45 55 45h86q45 0 35 -45l-222 -960q-10 -45 -55 -45h-84q-46 0 -35 45l19 80h-4q-84 -79 -151 -111t-144 -32q-61 0 -121 32t-98 110h-4 q-5 -29 -12 -60l-101 -436q-10 -45 -55 -45h-86q-45 0 -35 45z" />
<glyph unicode="&#xb6;" horiz-adv-x="1022" d="M83 1084q0 142 104 246t246 104h95q35 0 35 -45v-1714q0 -45 -35 -45h-60q-35 0 -35 45v1059q-142 0 -246 104t-104 246zM753 -325v1714q0 45 35 45h60q35 0 35 -45v-1714q0 -45 -35 -45h-60q-35 0 -35 45z" />
<glyph unicode="&#xb7;" horiz-adv-x="600" d="M246 664v122q0 45 45 45h112q45 0 45 -45v-122q0 -45 -45 -45h-112q-45 0 -45 45z" />
<glyph unicode="&#xb8;" horiz-adv-x="614" d="M-75 -359l13 38q11 32 40 17q24 -12 86 -12q48 0 79 19t31 52q0 25 -24.5 40.5t-73.5 15.5h-28q-22 0 -18 25q7 42 18 55l89 109q18 22 45 22h69q32 0 14 -22l-78 -96l-1 -3q67 -13 90 -43t23 -89q0 -82 -70 -133.5t-168 -51.5q-69 0 -125 21q-21 8 -11 36z" />
<glyph unicode="&#xb9;" horiz-adv-x="480" d="M265 1314q-5 14 17 24q26 12 78.5 41t86.5 62q19 19 33 19h72q24 0 19 -23l-162 -702q-5 -23 -30 -23h-72q-23 0 -18 23l127 552q3 15 10 31h-3q-21 -20 -51.5 -39.5t-58.5 -29.5q-22 -8 -28 9z" />
<glyph unicode="&#xba;" horiz-adv-x="780" d="M190 1060q0 172 111.5 302.5t291.5 130.5q165 0 225 -84t60 -189q0 -172 -111 -302t-291 -130q-165 0 -225.5 83.5t-60.5 188.5zM328 1051q0 -75 35.5 -115t123.5 -40q100 0 176.5 84.5t76.5 249.5q0 75 -35 115t-123 40q-100 0 -177 -84.5t-77 -249.5z" />
<glyph unicode="&#xbb;" horiz-adv-x="1032" d="M75 178q-16 17 13 44l359 334l-205 334q-16 26 8 44l49 36q25 18 41 -8l247 -399q14 -23 -11 -46l-411 -380q-28 -26 -45 -8zM425 178q-16 17 13 44l359 334l-205 334q-16 26 8 44l49 36q25 18 41 -8l247 -399q14 -23 -11 -46l-411 -380q-28 -26 -45 -8z" />
<glyph unicode="&#xbc;" horiz-adv-x="1756" d="M266 -40q-27 23 2 56l1280 1496q29 35 56 12l38 -33q25 -22 -4 -56l-1278 -1497q-31 -35 -58 -12zM375 1314q-5 14 17 24q26 12 78.5 41t86.5 62q19 19 33 19h72q24 0 19 -23l-162 -702q-5 -23 -30 -23h-72q-23 0 -18 23l127 552q3 15 10 31h-3q-21 -20 -51.5 -39.5 t-58.5 -29.5q-22 -8 -28 9zM1024 196l15 71q3 14 22 36l373 426q17 19 33 19h88q24 0 19 -23l-103 -445h70q23 0 18 -23l-14 -61q-5 -23 -28 -23h-71l-34 -150q-5 -23 -29 -23h-74q-22 0 -17 23l34 150h-284q-23 0 -18 23zM1167 280h184l61 262q3 14 10 31h-3z" />
<glyph unicode="&#xbd;" horiz-adv-x="1756" d="M266 -40q-27 23 2 56l1280 1496q29 35 56 12l38 -33q25 -22 -4 -56l-1278 -1497q-31 -35 -58 -12zM375 1314q-5 14 17 24q26 12 78.5 41t86.5 62q19 19 33 19h72q24 0 19 -23l-162 -702q-5 -23 -30 -23h-72q-23 0 -18 23l127 552q3 15 10 31h-3q-21 -20 -51.5 -39.5 t-58.5 -29.5q-22 -8 -28 9zM1033 23l9 41q4 20 26 38l287 235q91 74 123.5 123t32.5 106q0 44 -28.5 66t-75.5 22q-41 0 -81 -27t-69 -84q-15 -30 -31 -23l-51 23q-22 10 -7 44q32 70 99 118.5t148 48.5q113 0 166.5 -48t53.5 -128q0 -64 -34.5 -130t-153.5 -161l-223 -179 v-2q21 1 41 1h248q29 0 24 -23l-14 -61q-5 -23 -35 -23h-433q-27 0 -22 23z" />
<glyph unicode="&#xbe;" horiz-adv-x="1756" d="M197 788q-20 25 0 39l46 33q20 14 40 -10q28 -34 57 -44t67 -10q86 0 133 44t47 106q0 46 -30 81.5t-92 35.5h-41q-23 0 -19 17l14 60q4 18 27 18h29q66 0 113.5 39.5t47.5 90.5q0 40 -24 59t-74 19q-40 0 -71.5 -12t-61.5 -35q-29 -22 -40 -8l-37 46q-14 17 21 43 q40 30 88 48t111 18q107 0 157.5 -47.5t50.5 -113.5q0 -88 -54.5 -130.5t-119.5 -58.5l-1 -2q59 -17 94.5 -62t35.5 -115q0 -96 -88 -168.5t-222 -72.5q-78 0 -126 27t-78 65zM266 -40q-27 23 2 56l1280 1496q29 35 56 12l38 -33q25 -22 -4 -56l-1278 -1497q-31 -35 -58 -12 zM1034 196l15 71q3 14 22 36l373 426q17 19 33 19h88q24 0 19 -23l-103 -445h70q23 0 18 -23l-14 -61q-5 -23 -28 -23h-71l-34 -150q-5 -23 -29 -23h-74q-22 0 -17 23l34 150h-284q-23 0 -18 23zM1177 280h184l61 262q3 14 10 31h-3z" />
<glyph unicode="&#xbf;" horiz-adv-x="1016" d="M-29 -83q0 159 231 365t258 330l5 23q10 45 56 45h86q44 0 34 -45l-8 -37q-38 -176 -252 -373.5t-214 -318.5q0 -98 53.5 -134t133.5 -36q88 0 167.5 51t106.5 104q27 52 68 29l71 -40q34 -19 -4 -86q-42 -73 -147 -140.5t-268 -67.5q-198 0 -287.5 81t-89.5 250z M510 883l29 122q10 45 55 45h112q45 0 35 -45l-29 -122q-10 -45 -55 -45h-112q-45 0 -35 45z" />
<glyph unicode="&#xc0;" horiz-adv-x="1360" d="M-20 66l770 1307q36 61 80 61h140q41 0 52 -61l226 -1307q11 -66 -42 -66h-91q-53 0 -61 49l-57 331h-615l-195 -331q-29 -49 -83 -49h-112q-51 0 -12 66zM480 544h488l-70 400q-13 72 -21 157.5t-8 159.5h-4q-18 -71 -56 -145t-95 -172zM675 1733q-56 52 21 52h145 q49 0 76 -37l111 -155q38 -53 -20 -53h-82q-46 0 -76 29z" />
<glyph unicode="&#xc1;" horiz-adv-x="1360" d="M-20 66l770 1307q36 61 80 61h140q41 0 52 -61l226 -1307q11 -66 -42 -66h-91q-53 0 -61 49l-57 331h-615l-195 -331q-29 -49 -83 -49h-112q-51 0 -12 66zM480 544h488l-70 400q-13 72 -21 157.5t-8 159.5h-4q-18 -71 -56 -145t-95 -172zM877 1593l155 155q37 37 86 37 h169q77 0 7 -52l-221 -164q-40 -29 -86 -29h-106q-57 0 -4 53z" />
<glyph unicode="&#xc2;" horiz-adv-x="1360" d="M-20 66l770 1307q36 61 80 61h140q41 0 52 -61l226 -1307q11 -66 -42 -66h-91q-53 0 -61 49l-57 331h-615l-195 -331q-29 -49 -83 -49h-112q-51 0 -12 66zM480 544h488l-70 400q-13 72 -21 157.5t-8 159.5h-4q-18 -71 -56 -145t-95 -172zM537 1589q-8 32 38 51l248 104 q43 18 68 18h70q25 0 60 -18l234 -122q35 -19 14 -51l-28 -41q-21 -32 -59 -13l-257 132h-2l-319 -132q-45 -19 -53 13z" />
<glyph unicode="&#xc3;" horiz-adv-x="1360" d="M-20 66l770 1307q36 61 80 61h140q41 0 52 -61l226 -1307q11 -66 -42 -66h-91q-53 0 -61 49l-57 331h-615l-195 -331q-29 -49 -83 -49h-112q-51 0 -12 66zM480 544h488l-70 400q-13 72 -21 157.5t-8 159.5h-4q-18 -71 -56 -145t-95 -172zM558 1620q28 65 85.5 108 t146.5 43q75 0 159 -49t128 -49q48 0 81 27t49 52q19 29 38 18l42 -25q23 -13 9 -45q-28 -65 -85.5 -108t-146.5 -43q-75 0 -159 49t-128 49q-48 0 -81 -27t-49 -52q-19 -29 -38 -18l-42 25q-23 13 -9 45z" />
<glyph unicode="&#xc4;" horiz-adv-x="1360" d="M-20 66l770 1307q36 61 80 61h140q41 0 52 -61l226 -1307q11 -66 -42 -66h-91q-53 0 -61 49l-57 331h-615l-195 -331q-29 -49 -83 -49h-112q-51 0 -12 66zM480 544h488l-70 400q-13 72 -21 157.5t-8 159.5h-4q-18 -71 -56 -145t-95 -172zM578 1595l21 92q11 45 56 45h92 q45 0 34 -45l-21 -92q-10 -45 -55 -45h-92q-45 0 -35 45zM1056 1595l21 92q11 45 56 45h92q45 0 34 -45l-21 -92q-10 -45 -55 -45h-92q-45 0 -35 45z" />
<glyph unicode="&#xc5;" horiz-adv-x="1360" d="M-20 66l770 1307q36 61 80 61h140q41 0 52 -61l226 -1307q11 -66 -42 -66h-91q-53 0 -61 49l-57 331h-615l-195 -331q-29 -49 -83 -49h-112q-51 0 -12 66zM480 544h488l-70 400q-13 72 -21 157.5t-8 159.5h-4q-18 -71 -56 -145t-95 -172zM709 1647q0 75 52 124t130 49 t130 -50t52 -123t-52 -123t-130 -50t-130 49t-52 124zM787 1647q0 -42 29 -70.5t75 -28.5t75 28.5t29 70.5t-29 70.5t-75 28.5t-75 -28.5t-29 -70.5z" />
<glyph unicode="&#xc6;" horiz-adv-x="1957" d="M-13 66l924 1316q37 52 79 52h1049q55 0 45 -45l-17 -74q-10 -45 -66 -45h-693l-102 -444h633q54 0 44 -45l-17 -74q-10 -45 -65 -45h-633l-115 -498h723q54 0 44 -45l-17 -74q-10 -45 -65 -45h-865q-50 0 -37 55l75 325h-474l-232 -331q-34 -49 -78 -49h-127 q-59 0 -13 66zM552 544h397l167 726h-72q-30 -59 -66.5 -115t-68.5 -102z" />
<glyph unicode="&#xc7;" horiz-adv-x="1392" d="M110 580q0 395 210.5 639.5t587.5 244.5q184 0 298 -64t161 -170q23 -53 -23 -80l-78 -46q-27 -16 -52 28q-30 54 -109 115t-214 61q-250 0 -413 -183t-163 -568q0 -182 96 -306.5t326 -124.5q136 0 230.5 71.5t146.5 143.5q42 58 78 35l90 -58q33 -21 -8 -80 q-79 -115 -213 -191.5t-351 -76.5q-302 0 -451 172.5t-149 437.5zM429 -359l13 38q11 32 40 17q24 -12 86 -12q48 0 79 19t31 52q0 25 -24.5 40.5t-73.5 15.5h-28q-22 0 -18 25q7 42 18 55l89 109q18 22 45 22h69q32 0 14 -22l-78 -96l-1 -3q67 -13 90 -43t23 -89 q0 -82 -70 -133.5t-168 -51.5q-69 0 -125 21q-21 8 -11 36z" />
<glyph unicode="&#xc8;" horiz-adv-x="1270" d="M76 55l305 1324q13 55 63 55h875q55 0 45 -45l-17 -74q-11 -45 -66 -45h-733l-102 -444h673q55 0 44 -45l-17 -74q-10 -45 -65 -45h-673l-115 -498h763q55 0 44 -45l-17 -74q-10 -45 -65 -45h-905q-50 0 -37 55zM700 1733q-56 52 21 52h145q49 0 76 -37l111 -155 q38 -53 -20 -53h-82q-46 0 -76 29z" />
<glyph unicode="&#xc9;" horiz-adv-x="1270" d="M76 55l305 1324q13 55 63 55h875q55 0 45 -45l-17 -74q-11 -45 -66 -45h-733l-102 -444h673q55 0 44 -45l-17 -74q-10 -45 -65 -45h-673l-115 -498h763q55 0 44 -45l-17 -74q-10 -45 -65 -45h-905q-50 0 -37 55zM902 1593l155 155q37 37 86 37h169q77 0 7 -52l-221 -164 q-40 -29 -86 -29h-106q-57 0 -4 53z" />
<glyph unicode="&#xca;" horiz-adv-x="1270" d="M76 55l305 1324q13 55 63 55h875q55 0 45 -45l-17 -74q-11 -45 -66 -45h-733l-102 -444h673q55 0 44 -45l-17 -74q-10 -45 -65 -45h-673l-115 -498h763q55 0 44 -45l-17 -74q-10 -45 -65 -45h-905q-50 0 -37 55zM562 1589q-8 32 38 51l248 104q43 18 68 18h70 q25 0 60 -18l234 -122q35 -19 14 -51l-28 -41q-21 -32 -59 -13l-257 132h-2l-319 -132q-45 -19 -53 13z" />
<glyph unicode="&#xcb;" horiz-adv-x="1270" d="M76 55l305 1324q13 55 63 55h875q55 0 45 -45l-17 -74q-11 -45 -66 -45h-733l-102 -444h673q55 0 44 -45l-17 -74q-10 -45 -65 -45h-673l-115 -498h763q55 0 44 -45l-17 -74q-10 -45 -65 -45h-905q-50 0 -37 55zM603 1595l21 92q11 45 56 45h92q45 0 34 -45l-21 -92 q-10 -45 -55 -45h-92q-45 0 -35 45zM1081 1595l21 92q11 45 56 45h92q45 0 34 -45l-21 -92q-10 -45 -55 -45h-92q-45 0 -35 45z" />
<glyph unicode="&#xcc;" horiz-adv-x="532" d="M76 55l305 1324q13 55 63 55h92q50 0 37 -55l-305 -1324q-13 -55 -63 -55h-92q-50 0 -37 55zM290 1733q-56 52 21 52h145q49 0 76 -37l111 -155q38 -53 -20 -53h-82q-46 0 -76 29z" />
<glyph unicode="&#xcd;" horiz-adv-x="532" d="M76 55l305 1324q13 55 63 55h92q50 0 37 -55l-305 -1324q-13 -55 -63 -55h-92q-50 0 -37 55zM492 1593l155 155q37 37 86 37h169q77 0 7 -52l-221 -164q-40 -29 -86 -29h-106q-57 0 -4 53z" />
<glyph unicode="&#xce;" horiz-adv-x="532" d="M76 55l305 1324q13 55 63 55h92q50 0 37 -55l-305 -1324q-13 -55 -63 -55h-92q-50 0 -37 55zM152 1589q-8 32 38 51l248 104q43 18 68 18h70q25 0 60 -18l234 -122q35 -19 14 -51l-28 -41q-21 -32 -59 -13l-257 132h-2l-319 -132q-45 -19 -53 13z" />
<glyph unicode="&#xcf;" horiz-adv-x="532" d="M76 55l305 1324q13 55 63 55h92q50 0 37 -55l-305 -1324q-13 -55 -63 -55h-92q-50 0 -37 55zM236 1595l21 92q11 45 56 45h92q45 0 34 -45l-21 -92q-10 -45 -55 -45h-92q-45 0 -35 45zM630 1595l21 92q11 45 56 45h92q45 0 34 -45l-21 -92q-10 -45 -55 -45h-92 q-45 0 -35 45z" />
<glyph unicode="&#xd0;" horiz-adv-x="1446" d="M91 699l17 74q10 45 66 45h115l129 561q13 55 63 55h319q358 0 496 -175t138 -411q0 -340 -210 -594t-655 -254h-419q-50 0 -37 55l138 599h-115q-55 0 -45 45zM330 164h268q332 0 481.5 212t149.5 484q0 172 -81.5 292t-393.5 120h-168l-105 -454h321q55 0 44 -45 l-17 -74q-10 -45 -65 -45h-321z" />
<glyph unicode="&#xd1;" horiz-adv-x="1438" d="M76 55l305 1324q13 55 63 55h121q71 0 89 -50l388 -1060h4q9 46 17 80l224 975q13 55 63 55h92q50 0 37 -55l-305 -1324q-13 -55 -63 -55h-82q-70 0 -88 50l-413 1125h-4q-8 -44 -16 -80l-240 -1040q-13 -55 -63 -55h-92q-50 0 -37 55zM626 1620q28 65 85.5 108t146.5 43 q75 0 159 -49t128 -49q48 0 81 27t49 52q19 29 38 18l42 -25q23 -13 9 -45q-28 -65 -85.5 -108t-146.5 -43q-75 0 -159 49t-128 49q-48 0 -81 -27t-49 -52q-19 -29 -38 -18l-42 25q-23 13 -9 45z" />
<glyph unicode="&#xd2;" horiz-adv-x="1514" d="M110 580q0 400 214 642t554 242q305 0 461 -162.5t156 -447.5q0 -400 -214 -642t-554 -242q-305 0 -461 162.5t-156 447.5zM315 556q0 -205 106.5 -317.5t316.5 -112.5q220 0 386 183.5t166 568.5q0 205 -106.5 317.5t-316.5 112.5q-220 0 -386 -183.5t-166 -568.5z M685 1733q-56 52 21 52h145q49 0 76 -37l111 -155q38 -53 -20 -53h-82q-46 0 -76 29z" />
<glyph unicode="&#xd3;" horiz-adv-x="1514" d="M110 580q0 400 214 642t554 242q305 0 461 -162.5t156 -447.5q0 -400 -214 -642t-554 -242q-305 0 -461 162.5t-156 447.5zM315 556q0 -205 106.5 -317.5t316.5 -112.5q220 0 386 183.5t166 568.5q0 205 -106.5 317.5t-316.5 112.5q-220 0 -386 -183.5t-166 -568.5z M887 1593l155 155q37 37 86 37h169q77 0 7 -52l-221 -164q-40 -29 -86 -29h-106q-57 0 -4 53z" />
<glyph unicode="&#xd4;" horiz-adv-x="1514" d="M110 580q0 400 214 642t554 242q305 0 461 -162.5t156 -447.5q0 -400 -214 -642t-554 -242q-305 0 -461 162.5t-156 447.5zM315 556q0 -205 106.5 -317.5t316.5 -112.5q220 0 386 183.5t166 568.5q0 205 -106.5 317.5t-316.5 112.5q-220 0 -386 -183.5t-166 -568.5z M547 1589q-8 32 38 51l248 104q43 18 68 18h70q25 0 60 -18l234 -122q35 -19 14 -51l-28 -41q-21 -32 -59 -13l-257 132h-2l-319 -132q-45 -19 -53 13z" />
<glyph unicode="&#xd5;" horiz-adv-x="1514" d="M110 580q0 400 214 642t554 242q305 0 461 -162.5t156 -447.5q0 -400 -214 -642t-554 -242q-305 0 -461 162.5t-156 447.5zM315 556q0 -205 106.5 -317.5t316.5 -112.5q220 0 386 183.5t166 568.5q0 205 -106.5 317.5t-316.5 112.5q-220 0 -386 -183.5t-166 -568.5z M568 1620q28 65 85.5 108t146.5 43q75 0 159 -49t128 -49q48 0 81 27t49 52q19 29 38 18l42 -25q23 -13 9 -45q-28 -65 -85.5 -108t-146.5 -43q-75 0 -159 49t-128 49q-48 0 -81 -27t-49 -52q-19 -29 -38 -18l-42 25q-23 13 -9 45z" />
<glyph unicode="&#xd6;" horiz-adv-x="1514" d="M110 580q0 400 214 642t554 242q305 0 461 -162.5t156 -447.5q0 -400 -214 -642t-554 -242q-305 0 -461 162.5t-156 447.5zM315 556q0 -205 106.5 -317.5t316.5 -112.5q220 0 386 183.5t166 568.5q0 205 -106.5 317.5t-316.5 112.5q-220 0 -386 -183.5t-166 -568.5z M585 1595l21 92q11 45 56 45h92q45 0 34 -45l-21 -92q-10 -45 -55 -45h-92q-45 0 -35 45zM1063 1595l21 92q11 45 56 45h92q45 0 34 -45l-21 -92q-10 -45 -55 -45h-92q-45 0 -35 45z" />
<glyph unicode="&#xd7;" horiz-adv-x="1280" d="M297 347q-25 25 8 57l321 321l-321 321q-32 32 -8 56l36 36q25 25 56 -7l321 -321l323 322q32 32 56 7l36 -35q25 -25 -7 -57l-322 -322l322 -323q32 -32 7 -56l-36 -36q-25 -25 -56 7l-323 323l-321 -321q-32 -32 -56 -7z" />
<glyph unicode="&#xd8;" horiz-adv-x="1514" d="M48 60q-30 34 11 71l147 131q-66 133 -66 318q0 400 214 642t554 242q307 0 464 -165l133 118q41 36 71 2l40 -45q30 -34 -11 -71l-146 -130q66 -134 66 -319q0 -400 -214 -642t-554 -242q-308 0 -464 166l-134 -119q-41 -36 -71 -2zM345 556q0 -85 18 -154l869 772 q-107 134 -335 134q-220 0 -386 -183.5t-166 -568.5zM433 260q107 -134 335 -134q220 0 386 183.5t166 568.5q0 86 -19 155z" />
<glyph unicode="&#xd9;" horiz-adv-x="1402" d="M249 547l192 832q13 55 63 55h92q50 0 37 -55l-185 -802q-64 -280 -5 -365.5t240 -85.5q146 0 262.5 85.5t180.5 365.5l185 802q13 55 63 55h92q50 0 37 -55l-192 -832q-73 -317 -234 -447t-430 -130q-199 0 -335 130t-63 447zM725 1733q-56 52 21 52h145q49 0 76 -37 l111 -155q38 -53 -20 -53h-82q-46 0 -76 29z" />
<glyph unicode="&#xda;" horiz-adv-x="1402" d="M249 547l192 832q13 55 63 55h92q50 0 37 -55l-185 -802q-64 -280 -5 -365.5t240 -85.5q146 0 262.5 85.5t180.5 365.5l185 802q13 55 63 55h92q50 0 37 -55l-192 -832q-73 -317 -234 -447t-430 -130q-199 0 -335 130t-63 447zM927 1593l155 155q37 37 86 37h169 q77 0 7 -52l-221 -164q-40 -29 -86 -29h-106q-57 0 -4 53z" />
<glyph unicode="&#xdb;" horiz-adv-x="1402" d="M249 547l192 832q13 55 63 55h92q50 0 37 -55l-185 -802q-64 -280 -5 -365.5t240 -85.5q146 0 262.5 85.5t180.5 365.5l185 802q13 55 63 55h92q50 0 37 -55l-192 -832q-73 -317 -234 -447t-430 -130q-199 0 -335 130t-63 447zM587 1589q-8 32 38 51l248 104q43 18 68 18 h70q25 0 60 -18l234 -122q35 -19 14 -51l-28 -41q-21 -32 -59 -13l-257 132h-2l-319 -132q-45 -19 -53 13z" />
<glyph unicode="&#xdc;" horiz-adv-x="1402" d="M249 547l192 832q13 55 63 55h92q50 0 37 -55l-185 -802q-64 -280 -5 -365.5t240 -85.5q146 0 262.5 85.5t180.5 365.5l185 802q13 55 63 55h92q50 0 37 -55l-192 -832q-73 -317 -234 -447t-430 -130q-199 0 -335 130t-63 447zM628 1595l21 92q11 45 56 45h92 q45 0 34 -45l-21 -92q-10 -45 -55 -45h-92q-45 0 -35 45zM1106 1595l21 92q11 45 56 45h92q45 0 34 -45l-21 -92q-10 -45 -55 -45h-92q-45 0 -35 45z" />
<glyph unicode="&#xdd;" horiz-adv-x="1302" d="M277 1368q-27 66 42 66h93q44 0 61 -49l156 -437q14 -40 37.5 -109.5t37.5 -129.5h4q42 60 82.5 112t102.5 127l358 437q40 49 83 49h125q70 0 12 -66l-681 -778l-123 -535q-13 -55 -63 -55h-92q-50 0 -37 55l123 535zM877 1593l155 155q37 37 86 37h169q77 0 7 -52 l-221 -164q-40 -29 -86 -29h-106q-57 0 -4 53z" />
<glyph unicode="&#xde;" horiz-adv-x="1233" d="M74 47l308 1333q13 55 62 55h92q51 0 38 -55l-47 -204h198q284 0 383 -109t99 -259q0 -214 -165 -343t-491 -129h-218l-67 -289q-13 -55 -63 -55h-92q-50 0 -37 55zM370 500h236q187 0 291.5 78t104.5 210q0 122 -73.5 173t-243.5 51h-196z" />
<glyph unicode="&#xdf;" horiz-adv-x="1216" d="M-50 -355l345 1494q47 202 182.5 278t321.5 76q183 0 268 -83.5t85 -206.5q0 -137 -88 -229t-260 -187l-1 -3q163 -26 228 -132t65 -230q0 -177 -135 -308t-326 -131q-96 0 -152 13.5t-99 51.5q-22 19 1 54l38 58q22 33 64 -2q17 -14 59 -29.5t95 -15.5q101 0 185 86 t84 213q0 161 -75 211t-203 50q-12 0 -14 25l-10 114q-2 20 22 33l92 49q94 50 174 122.5t80 171.5q0 87 -40 131t-152 44q-102 0 -194.5 -55t-125.5 -198l-338 -1465q-10 -45 -55 -45h-86q-45 0 -35 45z" />
<glyph unicode="&#xe0;" horiz-adv-x="1099" d="M66 339q0 275 186.5 501.5t391.5 226.5q90 0 148 -37.5t86 -87.5h2l21 63q15 45 49 45h84q45 0 35 -45l-222 -960q-10 -45 -55 -45h-81q-44 0 -35 45l25 120h-2q-49 -65 -130.5 -123.5t-181.5 -58.5q-145 0 -233 87.5t-88 268.5zM252 332q0 -66 35.5 -142.5t145.5 -76.5 q90 0 199 119t139 248l67 290q0 90 -57.5 128.5t-142.5 38.5q-140 0 -263 -179.5t-123 -425.5zM506 1383q-38 52 22 52h101q54 0 75 -37l112 -195q30 -53 -19 -53h-64q-56 0 -77 29z" />
<glyph unicode="&#xe1;" horiz-adv-x="1099" d="M66 339q0 275 186.5 501.5t391.5 226.5q90 0 148 -37.5t86 -87.5h2l21 63q15 45 49 45h84q45 0 35 -45l-222 -960q-10 -45 -55 -45h-81q-44 0 -35 45l25 120h-2q-49 -65 -130.5 -123.5t-181.5 -58.5q-145 0 -233 87.5t-88 268.5zM252 332q0 -66 35.5 -142.5t145.5 -76.5 q90 0 199 119t139 248l67 290q0 90 -57.5 128.5t-142.5 38.5q-140 0 -263 -179.5t-123 -425.5zM624 1203l166 195q32 37 87 37h121q59 0 6 -52l-206 -204q-30 -29 -85 -29h-84q-50 0 -5 53z" />
<glyph unicode="&#xe2;" horiz-adv-x="1099" d="M66 339q0 275 186.5 501.5t391.5 226.5q90 0 148 -37.5t86 -87.5h2l21 63q15 45 49 45h84q45 0 35 -45l-222 -960q-10 -45 -55 -45h-81q-44 0 -35 45l25 120h-2q-49 -65 -130.5 -123.5t-181.5 -58.5q-145 0 -233 87.5t-88 268.5zM252 332q0 -66 35.5 -142.5t145.5 -76.5 q90 0 199 119t139 248l67 290q0 90 -57.5 128.5t-142.5 38.5q-140 0 -263 -179.5t-123 -425.5zM391 1190q-17 26 25 55l234 163q37 26 62 26h50q25 0 50 -26l174 -179q28 -29 -1 -55l-25 -23q-29 -27 -57 2l-172 179h-2l-256 -179q-40 -28 -57 -2z" />
<glyph unicode="&#xe3;" horiz-adv-x="1099" d="M66 339q0 275 186.5 501.5t391.5 226.5q90 0 148 -37.5t86 -87.5h2l21 63q15 45 49 45h84q45 0 35 -45l-222 -960q-10 -45 -55 -45h-81q-44 0 -35 45l25 120h-2q-49 -65 -130.5 -123.5t-181.5 -58.5q-145 0 -233 87.5t-88 268.5zM252 332q0 -66 35.5 -142.5t145.5 -76.5 q90 0 199 119t139 248l67 290q0 90 -57.5 128.5t-142.5 38.5q-140 0 -263 -179.5t-123 -425.5zM381 1219q21 71 71.5 116t130.5 45q68 0 138 -55t109 -55q43 0 64 22t37 60q13 30 37 20l39 -17q22 -10 12 -44q-21 -71 -71.5 -116t-130.5 -45q-68 0 -138 55t-109 55 q-43 0 -64 -22t-37 -60q-13 -30 -37 -20l-39 17q-22 10 -12 44z" />
<glyph unicode="&#xe4;" horiz-adv-x="1099" d="M66 339q0 275 186.5 501.5t391.5 226.5q90 0 148 -37.5t86 -87.5h2l21 63q15 45 49 45h84q45 0 35 -45l-222 -960q-10 -45 -55 -45h-81q-44 0 -35 45l25 120h-2q-49 -65 -130.5 -123.5t-181.5 -58.5q-145 0 -233 87.5t-88 268.5zM252 332q0 -66 35.5 -142.5t145.5 -76.5 q90 0 199 119t139 248l67 290q0 90 -57.5 128.5t-142.5 38.5q-140 0 -263 -179.5t-123 -425.5zM418 1285l20 86q10 45 55 45h86q45 0 35 -45l-20 -86q-11 -45 -56 -45h-86q-45 0 -34 45zM824 1285l20 86q10 45 55 45h86q45 0 35 -45l-20 -86q-11 -45 -56 -45h-86 q-45 0 -34 45z" />
<glyph unicode="&#xe5;" horiz-adv-x="1099" d="M66 339q0 275 186.5 501.5t391.5 226.5q90 0 148 -37.5t86 -87.5h2l21 63q15 45 49 45h84q45 0 35 -45l-222 -960q-10 -45 -55 -45h-81q-44 0 -35 45l25 120h-2q-49 -65 -130.5 -123.5t-181.5 -58.5q-145 0 -233 87.5t-88 268.5zM252 332q0 -66 35.5 -142.5t145.5 -76.5 q90 0 199 119t139 248l67 290q0 90 -57.5 128.5t-142.5 38.5q-140 0 -263 -179.5t-123 -425.5zM479 1313q0 75 52.5 127.5t127.5 52.5t127.5 -52.5t52.5 -127.5t-52.5 -127.5t-127.5 -52.5t-127.5 52.5t-52.5 127.5zM555 1313q0 -44 30 -74t74 -30t74 30t30 74t-30 74 t-74 30t-74 -30t-30 -74z" />
<glyph unicode="&#xe6;" horiz-adv-x="1698" d="M35 220q0 182 165.5 290t564.5 128l16 68q25 106 -10.5 168.5t-156.5 62.5q-92 0 -155 -24.5t-134 -92.5q-29 -28 -51 -3l-47 55q-24 28 15 60q88 72 196 103.5t192 31.5q106 0 180 -31.5t111 -112.5h2q39 40 133 92t236 52q154 0 240 -92.5t86 -196.5 q0 -142 -117.5 -212.5t-361.5 -120.5l-224 -46q-6 -38 -6 -40q0 -103 55 -174t173 -71q98 0 167.5 45t92.5 73q37 45 63 21l56 -51q23 -21 -6 -56q-31 -38 -121 -100.5t-276 -62.5q-117 0 -205.5 48t-132.5 151h-2q-94 -92 -204 -145.5t-206 -53.5q-187 0 -257.5 63.5 t-70.5 173.5zM217 242q0 -62 36.5 -93t124.5 -31q100 0 191.5 41.5t164.5 118.5q-25 100 5 229q-325 -21 -423.5 -95t-98.5 -170zM920 538l183 37q200 40 269.5 82.5t69.5 128.5q0 68 -44.5 109.5t-138.5 41.5q-107 0 -201 -92t-138 -307z" />
<glyph unicode="&#xe7;" horiz-adv-x="1026" d="M68 402q0 265 163.5 465t428.5 200q162 0 231 -56.5t100 -124.5q16 -36 -14 -52l-66 -35q-34 -18 -53 25q-14 32 -64 72.5t-147 40.5q-156 0 -274.5 -140t-118.5 -410q0 -122 58.5 -198t188.5 -76q103 0 169 53.5t94 95.5q23 35 53 14l63 -46q29 -21 5 -55 q-29 -40 -127 -116t-270 -76q-234 0 -327 133.5t-93 285.5zM215 -359l13 38q11 32 40 17q24 -12 86 -12q48 0 79 19t31 52q0 25 -24.5 40.5t-73.5 15.5h-28q-22 0 -18 25q7 42 18 55l89 109q18 22 45 22h69q32 0 14 -22l-78 -96l-1 -3q67 -13 90 -43t23 -89 q0 -82 -70 -133.5t-168 -51.5q-69 0 -125 21q-21 8 -11 36z" />
<glyph unicode="&#xe8;" horiz-adv-x="1078" d="M68 396q0 300 156.5 485.5t427.5 185.5q155 0 250.5 -88.5t95.5 -200.5q0 -148 -141.5 -218t-350.5 -112l-246 -49q-6 -38 -6 -40q0 -99 54 -172t189 -73q115 0 185 42t95 76q35 47 63 21l59 -51q19 -17 -6 -56q-23 -36 -124 -99.5t-296 -63.5q-213 0 -309 123.5 t-96 289.5zM265 538l205 40q140 27 246 74.5t106 133.5q0 68 -61.5 109.5t-141.5 41.5q-121 0 -215.5 -92t-138.5 -307zM514 1383q-38 52 22 52h101q54 0 75 -37l112 -195q30 -53 -19 -53h-64q-56 0 -77 29z" />
<glyph unicode="&#xe9;" horiz-adv-x="1078" d="M68 396q0 300 156.5 485.5t427.5 185.5q155 0 250.5 -88.5t95.5 -200.5q0 -148 -141.5 -218t-350.5 -112l-246 -49q-6 -38 -6 -40q0 -99 54 -172t189 -73q115 0 185 42t95 76q35 47 63 21l59 -51q19 -17 -6 -56q-23 -36 -124 -99.5t-296 -63.5q-213 0 -309 123.5 t-96 289.5zM265 538l205 40q140 27 246 74.5t106 133.5q0 68 -61.5 109.5t-141.5 41.5q-121 0 -215.5 -92t-138.5 -307zM632 1203l166 195q32 37 87 37h121q59 0 6 -52l-206 -204q-30 -29 -85 -29h-84q-50 0 -5 53z" />
<glyph unicode="&#xea;" horiz-adv-x="1078" d="M68 396q0 300 156.5 485.5t427.5 185.5q155 0 250.5 -88.5t95.5 -200.5q0 -148 -141.5 -218t-350.5 -112l-246 -49q-6 -38 -6 -40q0 -99 54 -172t189 -73q115 0 185 42t95 76q35 47 63 21l59 -51q19 -17 -6 -56q-23 -36 -124 -99.5t-296 -63.5q-213 0 -309 123.5 t-96 289.5zM265 538l205 40q140 27 246 74.5t106 133.5q0 68 -61.5 109.5t-141.5 41.5q-121 0 -215.5 -92t-138.5 -307zM399 1190q-17 26 25 55l234 163q37 26 62 26h50q25 0 50 -26l174 -179q28 -29 -1 -55l-25 -23q-29 -27 -57 2l-172 179h-2l-256 -179q-40 -28 -57 -2z " />
<glyph unicode="&#xeb;" horiz-adv-x="1078" d="M68 396q0 300 156.5 485.5t427.5 185.5q155 0 250.5 -88.5t95.5 -200.5q0 -148 -141.5 -218t-350.5 -112l-246 -49q-6 -38 -6 -40q0 -99 54 -172t189 -73q115 0 185 42t95 76q35 47 63 21l59 -51q19 -17 -6 -56q-23 -36 -124 -99.5t-296 -63.5q-213 0 -309 123.5 t-96 289.5zM265 538l205 40q140 27 246 74.5t106 133.5q0 68 -61.5 109.5t-141.5 41.5q-121 0 -215.5 -92t-138.5 -307zM426 1285l20 86q10 45 55 45h86q45 0 35 -45l-20 -86q-11 -45 -56 -45h-86q-45 0 -34 45zM832 1285l20 86q10 45 55 45h86q45 0 35 -45l-20 -86 q-11 -45 -56 -45h-86q-45 0 -34 45z" />
<glyph unicode="&#xec;" horiz-adv-x="460" d="M42 45l222 960q10 45 55 45h86q45 0 35 -45l-222 -960q-10 -45 -55 -45h-86q-45 0 -35 45zM218 1383q-38 52 22 52h101q54 0 75 -37l112 -195q30 -53 -19 -53h-64q-56 0 -77 29z" />
<glyph unicode="&#xed;" horiz-adv-x="460" d="M42 45l222 960q10 45 55 45h86q45 0 35 -45l-222 -960q-10 -45 -55 -45h-86q-45 0 -35 45zM336 1203l166 195q32 37 87 37h121q59 0 6 -52l-206 -204q-30 -29 -85 -29h-84q-50 0 -5 53z" />
<glyph unicode="&#xee;" horiz-adv-x="460" d="M42 45l222 960q10 45 55 45h86q45 0 35 -45l-222 -960q-10 -45 -55 -45h-86q-45 0 -35 45zM103 1190q-17 26 25 55l234 163q37 26 62 26h50q25 0 50 -26l174 -179q28 -29 -1 -55l-25 -23q-29 -27 -57 2l-172 179h-2l-256 -179q-40 -28 -57 -2z" />
<glyph unicode="&#xef;" horiz-adv-x="460" d="M42 45l222 960q10 45 55 45h86q45 0 35 -45l-222 -960q-10 -45 -55 -45h-86q-45 0 -35 45zM163 1285l20 86q10 45 55 45h86q45 0 35 -45l-20 -86q-11 -45 -56 -45h-86q-45 0 -34 45zM497 1285l20 86q10 45 55 45h86q45 0 35 -45l-20 -86q-11 -45 -56 -45h-86 q-45 0 -34 45z" />
<glyph unicode="&#xf0;" horiz-adv-x="1153" d="M68 402q0 252 168.5 450t413.5 198q97 0 172 -31.5t120 -115.5h4q-13 114 -75 206t-100 132l-174 -71q-42 -17 -55 16l-19 47q-13 32 29 49l112 46q-35 23 -74 42q-44 22 -20 55l36 49q22 30 62 10q83 -42 148 -94l159 64q42 17 55 -16l19 -47q13 -32 -29 -49l-108 -44 q55 -64 122.5 -202.5t67.5 -343.5q0 -360 -174.5 -564.5t-439.5 -204.5q-215 0 -317.5 116.5t-102.5 302.5zM254 387q0 -144 61 -209t186 -65q147 0 278 143t131 394q0 107 -61.5 188.5t-191.5 81.5q-156 0 -279.5 -137.5t-123.5 -395.5z" />
<glyph unicode="&#xf1;" horiz-adv-x="1128" d="M42 45l222 960q10 45 55 45h84q45 0 35 -45l-27 -120h4q59 73 153.5 127.5t214.5 54.5q170 0 232 -102.5t21 -280.5l-148 -639q-10 -45 -55 -45h-86q-45 0 -35 45l137 591q45 196 -3 248.5t-158 52.5q-120 0 -218.5 -116.5t-133.5 -266.5l-118 -509q-10 -45 -55 -45h-86 q-45 0 -35 45zM428 1219q21 71 71.5 116t130.5 45q68 0 138 -55t109 -55q43 0 64 22t37 60q13 30 37 20l39 -17q22 -10 12 -44q-21 -71 -71.5 -116t-130.5 -45q-68 0 -138 55t-109 55q-43 0 -64 -22t-37 -60q-13 -30 -37 -20l-39 17q-22 10 -12 44z" />
<glyph unicode="&#xf2;" horiz-adv-x="1148" d="M68 402q0 264 163.5 464.5t428.5 200.5q234 0 327 -134.5t93 -284.5q0 -264 -163.5 -464.5t-428.5 -200.5q-234 0 -327 134.5t-93 284.5zM254 387q0 -125 58.5 -199.5t188.5 -74.5q156 0 274.5 141.5t118.5 408.5q0 125 -58.5 199.5t-188.5 74.5q-156 0 -274.5 -141.5 t-118.5 -408.5zM522 1383q-38 52 22 52h101q54 0 75 -37l112 -195q30 -53 -19 -53h-64q-56 0 -77 29z" />
<glyph unicode="&#xf3;" horiz-adv-x="1148" d="M68 402q0 264 163.5 464.5t428.5 200.5q234 0 327 -134.5t93 -284.5q0 -264 -163.5 -464.5t-428.5 -200.5q-234 0 -327 134.5t-93 284.5zM254 387q0 -125 58.5 -199.5t188.5 -74.5q156 0 274.5 141.5t118.5 408.5q0 125 -58.5 199.5t-188.5 74.5q-156 0 -274.5 -141.5 t-118.5 -408.5zM640 1203l166 195q32 37 87 37h121q59 0 6 -52l-206 -204q-30 -29 -85 -29h-84q-50 0 -5 53z" />
<glyph unicode="&#xf4;" horiz-adv-x="1148" d="M68 402q0 264 163.5 464.5t428.5 200.5q234 0 327 -134.5t93 -284.5q0 -264 -163.5 -464.5t-428.5 -200.5q-234 0 -327 134.5t-93 284.5zM254 387q0 -125 58.5 -199.5t188.5 -74.5q156 0 274.5 141.5t118.5 408.5q0 125 -58.5 199.5t-188.5 74.5q-156 0 -274.5 -141.5 t-118.5 -408.5zM407 1190q-17 26 25 55l234 163q37 26 62 26h50q25 0 50 -26l174 -179q28 -29 -1 -55l-25 -23q-29 -27 -57 2l-172 179h-2l-256 -179q-40 -28 -57 -2z" />
<glyph unicode="&#xf5;" horiz-adv-x="1148" d="M68 402q0 264 163.5 464.5t428.5 200.5q234 0 327 -134.5t93 -284.5q0 -264 -163.5 -464.5t-428.5 -200.5q-234 0 -327 134.5t-93 284.5zM254 387q0 -125 58.5 -199.5t188.5 -74.5q156 0 274.5 141.5t118.5 408.5q0 125 -58.5 199.5t-188.5 74.5q-156 0 -274.5 -141.5 t-118.5 -408.5zM397 1219q21 71 71.5 116t130.5 45q68 0 138 -55t109 -55q43 0 64 22t37 60q13 30 37 20l39 -17q22 -10 12 -44q-21 -71 -71.5 -116t-130.5 -45q-68 0 -138 55t-109 55q-43 0 -64 -22t-37 -60q-13 -30 -37 -20l-39 17q-22 10 -12 44z" />
<glyph unicode="&#xf6;" horiz-adv-x="1148" d="M68 402q0 264 163.5 464.5t428.5 200.5q234 0 327 -134.5t93 -284.5q0 -264 -163.5 -464.5t-428.5 -200.5q-234 0 -327 134.5t-93 284.5zM254 387q0 -125 58.5 -199.5t188.5 -74.5q156 0 274.5 141.5t118.5 408.5q0 125 -58.5 199.5t-188.5 74.5q-156 0 -274.5 -141.5 t-118.5 -408.5zM451 1285l20 86q10 45 55 45h86q45 0 35 -45l-20 -86q-11 -45 -56 -45h-86q-45 0 -34 45zM857 1285l20 86q10 45 55 45h86q45 0 35 -45l-20 -86q-11 -45 -56 -45h-86q-45 0 -34 45z" />
<glyph unicode="&#xf7;" horiz-adv-x="1280" d="M127 700v50q0 35 45 35h1030q45 0 45 -35v-50q0 -35 -45 -35h-1030q-45 0 -45 35zM586 280v122q0 45 45 45h112q45 0 45 -45v-122q0 -45 -45 -45h-112q-45 0 -45 45zM586 1048v122q0 45 45 45h112q45 0 45 -45v-122q0 -45 -45 -45h-112q-45 0 -45 45z" />
<glyph unicode="&#xf8;" horiz-adv-x="1148" d="M28 75q-23 26 11 56l93 80q-41 92 -41 191q0 264 163.5 464.5t428.5 200.5q216 0 311 -114l75 64q34 29 58 2l39 -44q23 -26 -11 -56l-93 -80q41 -92 41 -191q0 -264 -163.5 -464.5t-428.5 -200.5q-216 0 -311 114l-75 -64q-34 -29 -58 -2zM277 387q0 -25 2 -49l591 508 q-60 91 -200 91q-156 0 -274.5 -141.5t-118.5 -408.5zM324 204q60 -91 200 -91q156 0 274.5 141.5t118.5 408.5q0 26 -2 49z" />
<glyph unicode="&#xf9;" horiz-adv-x="1120" d="M145 366l148 639q10 45 55 45h86q45 0 35 -45l-136 -591q-45 -197 3 -249t153 -52q147 0 230 116.5t118 266.5l118 509q10 45 55 45h86q45 0 35 -45l-222 -960q-10 -45 -55 -45h-84q-45 0 -35 45l28 120h-4q-59 -73 -154.5 -127.5t-210.5 -54.5q-160 0 -225 102.5 t-24 280.5zM547 1383q-38 52 22 52h101q54 0 75 -37l112 -195q30 -53 -19 -53h-64q-56 0 -77 29z" />
<glyph unicode="&#xfa;" horiz-adv-x="1120" d="M145 366l148 639q10 45 55 45h86q45 0 35 -45l-136 -591q-45 -197 3 -249t153 -52q147 0 230 116.5t118 266.5l118 509q10 45 55 45h86q45 0 35 -45l-222 -960q-10 -45 -55 -45h-84q-45 0 -35 45l28 120h-4q-59 -73 -154.5 -127.5t-210.5 -54.5q-160 0 -225 102.5 t-24 280.5zM665 1203l166 195q32 37 87 37h121q59 0 6 -52l-206 -204q-30 -29 -85 -29h-84q-50 0 -5 53z" />
<glyph unicode="&#xfb;" horiz-adv-x="1120" d="M145 366l148 639q10 45 55 45h86q45 0 35 -45l-136 -591q-45 -197 3 -249t153 -52q147 0 230 116.5t118 266.5l118 509q10 45 55 45h86q45 0 35 -45l-222 -960q-10 -45 -55 -45h-84q-45 0 -35 45l28 120h-4q-59 -73 -154.5 -127.5t-210.5 -54.5q-160 0 -225 102.5 t-24 280.5zM432 1190q-17 26 25 55l234 163q37 26 62 26h50q25 0 50 -26l174 -179q28 -29 -1 -55l-25 -23q-29 -27 -57 2l-172 179h-2l-256 -179q-40 -28 -57 -2z" />
<glyph unicode="&#xfc;" horiz-adv-x="1120" d="M145 366l148 639q10 45 55 45h86q45 0 35 -45l-136 -591q-45 -197 3 -249t153 -52q147 0 230 116.5t118 266.5l118 509q10 45 55 45h86q45 0 35 -45l-222 -960q-10 -45 -55 -45h-84q-45 0 -35 45l28 120h-4q-59 -73 -154.5 -127.5t-210.5 -54.5q-160 0 -225 102.5 t-24 280.5zM455 1285l20 86q10 45 55 45h86q45 0 35 -45l-20 -86q-11 -45 -56 -45h-86q-45 0 -34 45zM861 1285l20 86q10 45 55 45h86q45 0 35 -45l-20 -86q-11 -45 -56 -45h-86q-45 0 -34 45z" />
<glyph unicode="&#xfd;" horiz-adv-x="1128" d="M29 -306q-29 40 2 68l56 52q32 29 50 0q30 -48 87 -74.5t170 -26.5q121 0 206.5 68.5t122.5 228.5q23 102 37 155h-4q-59 -73 -150 -127.5t-218 -54.5q-170 0 -232 102.5t-21 280.5l148 639q10 45 55 45h86q45 0 35 -45l-136 -591q-45 -197 2.5 -249t157.5 -52 q106 0 211.5 113.5t141.5 269.5l117 509q10 45 55 45h86q45 0 35 -45l-234 -1014q-47 -205 -158 -306.5t-374 -101.5q-171 0 -236 33t-98 78zM671 1203l166 195q32 37 87 37h121q59 0 6 -52l-206 -204q-30 -29 -85 -29h-84q-50 0 -5 53z" />
<glyph unicode="&#xfe;" horiz-adv-x="1119" d="M-50 -355l412 1786q10 45 55 45h86q45 0 35 -45l-112 -485q-7 -29 -16 -61h2q44 79 137 130.5t173 51.5q190 0 264.5 -116.5t74.5 -279.5q0 -255 -161 -471.5t-379 -216.5q-111 0 -173 33.5t-113 101.5h-2q-4 -28 -12 -61l-95 -412q-10 -45 -55 -45h-86q-45 0 -35 45z M275 290q10 -100 65 -138.5t167 -38.5q152 0 260 169.5t108 395.5q0 104 -45 181.5t-158 77.5q-98 0 -199.5 -117.5t-132.5 -249.5z" />
<glyph unicode="&#xff;" horiz-adv-x="1128" d="M29 -306q-29 40 2 68l56 52q32 29 50 0q30 -48 87 -74.5t170 -26.5q121 0 206.5 68.5t122.5 228.5q23 102 37 155h-4q-59 -73 -150 -127.5t-218 -54.5q-170 0 -232 102.5t-21 280.5l148 639q10 45 55 45h86q45 0 35 -45l-136 -591q-45 -197 2.5 -249t157.5 -52 q106 0 211.5 113.5t141.5 269.5l117 509q10 45 55 45h86q45 0 35 -45l-234 -1014q-47 -205 -158 -306.5t-374 -101.5q-171 0 -236 33t-98 78zM461 1285l20 86q10 45 55 45h86q45 0 35 -45l-20 -86q-11 -45 -56 -45h-86q-45 0 -34 45zM867 1285l20 86q10 45 55 45h86 q45 0 35 -45l-20 -86q-11 -45 -56 -45h-86q-45 0 -34 45z" />
<glyph unicode="&#x178;" horiz-adv-x="1302" d="M277 1368q-27 66 42 66h93q44 0 61 -49l156 -437q14 -40 37.5 -109.5t37.5 -129.5h4q42 60 82.5 112t102.5 127l358 437q40 49 83 49h125q70 0 12 -66l-681 -778l-123 -535q-13 -55 -63 -55h-92q-50 0 -37 55l123 535zM578 1595l21 92q11 45 56 45h92q45 0 34 -45 l-21 -92q-10 -45 -55 -45h-92q-45 0 -35 45zM1056 1595l21 92q11 45 56 45h92q45 0 34 -45l-21 -92q-10 -45 -55 -45h-92q-45 0 -35 45z" />
<glyph unicode="&#x2c6;" horiz-adv-x="614" d="M181 1190q-17 26 25 55l234 163q37 26 62 26h50q25 0 50 -26l174 -179q28 -29 -1 -55l-25 -23q-29 -27 -57 2l-172 179h-2l-256 -179q-40 -28 -57 -2z" />
<glyph unicode="&#x2dc;" horiz-adv-x="614" d="M170 1219q21 71 71.5 116t130.5 45q68 0 138 -55t109 -55q43 0 64 22t37 60q13 30 37 20l39 -17q22 -10 12 -44q-21 -71 -71.5 -116t-130.5 -45q-68 0 -138 55t-109 55q-43 0 -64 -22t-37 -60q-13 -30 -37 -20l-39 17q-22 10 -12 44z" />
<glyph unicode="&#x2000;" horiz-adv-x="910" />
<glyph unicode="&#x2001;" horiz-adv-x="1820" />
<glyph unicode="&#x2002;" horiz-adv-x="910" />
<glyph unicode="&#x2003;" horiz-adv-x="1820" />
<glyph unicode="&#x2004;" horiz-adv-x="606" />
<glyph unicode="&#x2005;" horiz-adv-x="455" />
<glyph unicode="&#x2006;" horiz-adv-x="303" />
<glyph unicode="&#x2007;" horiz-adv-x="303" />
<glyph unicode="&#x2008;" horiz-adv-x="227" />
<glyph unicode="&#x2009;" horiz-adv-x="364" />
<glyph unicode="&#x200a;" horiz-adv-x="101" />
<glyph unicode="&#x2010;" horiz-adv-x="680" d="M64 518l16 70q8 35 53 35h478q45 0 37 -35l-16 -70q-8 -35 -53 -35h-478q-45 0 -37 35z" />
<glyph unicode="&#x2011;" horiz-adv-x="680" d="M64 518l16 70q8 35 53 35h478q45 0 37 -35l-16 -70q-8 -35 -53 -35h-478q-45 0 -37 35z" />
<glyph unicode="&#x2012;" horiz-adv-x="680" d="M64 518l16 70q8 35 53 35h478q45 0 37 -35l-16 -70q-8 -35 -53 -35h-478q-45 0 -37 35z" />
<glyph unicode="&#x2013;" horiz-adv-x="1032" d="M44 523v60q0 35 45 35h862q45 0 45 -35v-60q0 -35 -45 -35h-862q-45 0 -45 35z" />
<glyph unicode="&#x2014;" horiz-adv-x="2056" d="M44 523v60q0 35 45 35h1886q45 0 45 -35v-60q0 -35 -45 -35h-1886q-45 0 -45 35z" />
<glyph unicode="&#x2018;" horiz-adv-x="498" d="M246 1015l29 122q30 127 67.5 192t115.5 127q26 20 38 7l37 -40q14 -15 -13 -35q-35 -26 -74 -88.5t-52 -117.5h52q46 0 35 -45l-29 -122q-11 -45 -55 -45h-116q-46 0 -35 45z" />
<glyph unicode="&#x2019;" horiz-adv-x="498" d="M288 1016q-14 15 13 35q35 26 74 88.5t52 117.5h-52q-46 0 -35 45l29 122q11 45 55 45h116q46 0 35 -45l-29 -122q-30 -127 -67.5 -192t-115.5 -127q-26 -20 -38 -7z" />
<glyph unicode="&#x201a;" horiz-adv-x="498" d="M-2 -241q-14 15 13 35q35 26 74 88.5t52 117.5h-52q-46 0 -35 45l29 122q11 45 55 45h116q46 0 35 -45l-29 -122q-30 -127 -67.5 -192t-115.5 -127q-26 -20 -38 -7z" />
<glyph unicode="&#x201c;" horiz-adv-x="760" d="M212 1015l29 122q30 127 67.5 192t115.5 127q26 20 38 7l37 -40q14 -15 -13 -35q-35 -26 -74 -88.5t-52 -117.5h52q46 0 35 -45l-29 -122q-11 -45 -55 -45h-116q-46 0 -35 45zM542 1015l29 122q30 127 67.5 192t115.5 127q26 20 38 7l37 -40q14 -15 -13 -35 q-35 -26 -74 -88.5t-52 -117.5h52q46 0 35 -45l-29 -122q-11 -45 -55 -45h-116q-46 0 -35 45z" />
<glyph unicode="&#x201d;" horiz-adv-x="760" d="M254 1016q-14 15 13 35q35 26 74 88.5t52 117.5h-52q-46 0 -35 45l29 122q11 45 55 45h116q46 0 35 -45l-29 -122q-30 -127 -67.5 -192t-115.5 -127q-26 -20 -38 -7zM584 1016q-14 15 13 35q35 26 74 88.5t52 117.5h-52q-46 0 -35 45l29 122q11 45 55 45h116q46 0 35 -45 l-29 -122q-30 -127 -67.5 -192t-115.5 -127q-26 -20 -38 -7z" />
<glyph unicode="&#x201e;" horiz-adv-x="760" d="M-36 -241q-14 15 13 35q35 26 74 88.5t52 117.5h-52q-46 0 -35 45l29 122q11 45 55 45h116q46 0 35 -45l-29 -122q-30 -127 -67.5 -192t-115.5 -127q-26 -20 -38 -7zM294 -241q-14 15 13 35q35 26 74 88.5t52 117.5h-52q-46 0 -35 45l29 122q11 45 55 45h116q46 0 35 -45 l-29 -122q-30 -127 -67.5 -192t-115.5 -127q-26 -20 -38 -7z" />
<glyph unicode="&#x2022;" horiz-adv-x="1024" d="M342 694q0 87 61.5 148.5t148.5 61.5t148.5 -61.5t61.5 -148.5t-61.5 -148.5t-148.5 -61.5t-148.5 61.5t-61.5 148.5z" />
<glyph unicode="&#x2026;" horiz-adv-x="2048" d="M150 45l29 122q10 45 55 45h112q45 0 35 -45l-29 -122q-10 -45 -55 -45h-112q-45 0 -35 45zM823 45l29 122q10 45 55 45h112q45 0 35 -45l-29 -122q-10 -45 -55 -45h-112q-45 0 -35 45zM1496 45l29 122q10 45 55 45h112q45 0 35 -45l-29 -122q-10 -45 -55 -45h-112 q-45 0 -35 45z" />
<glyph unicode="&#x202f;" horiz-adv-x="364" />
<glyph unicode="&#x2039;" horiz-adv-x="682" d="M134 517q-14 23 11 46l411 380q28 26 45 8l45 -49q16 -17 -13 -44l-359 -334l205 -334q16 -26 -8 -44l-49 -36q-25 -18 -41 8z" />
<glyph unicode="&#x203a;" horiz-adv-x="682" d="M75 178q-16 17 13 44l359 334l-205 334q-16 26 8 44l49 36q25 18 41 -8l247 -399q14 -23 -11 -46l-411 -380q-28 -26 -45 -8z" />
<glyph unicode="&#x205f;" horiz-adv-x="455" />
<glyph unicode="&#x20ac;" d="M38 549l19 62q11 35 59 35h38q11 79 29 152h-71q-42 0 -31 35l20 62q11 35 59 35h64q30 132 196.5 327t442.5 195q78 0 168 -30t147 -115q39 -58 11 -80l-49 -38q-38 -29 -78 20q-37 45 -85.5 69t-137.5 24q-162 0 -279 -147t-131 -225h400q42 0 31 -35l-20 -62 q-11 -35 -59 -35h-400q-22 -74 -33 -152h437q42 0 31 -35l-19 -62q-11 -35 -59 -35h-402q-1 -25 -1 -50q0 -122 56.5 -233t194.5 -111q64 0 132.5 37.5t114.5 85.5q51 54 78 17l41 -56q28 -38 -14 -79q-57 -55 -143 -105t-234 -50q-193 0 -307.5 130.5t-114.5 315.5 q0 50 3 98h-73q-42 0 -31 35z" />
<glyph unicode="&#x2122;" horiz-adv-x="1598" d="M202 1360v52q0 22 29 22h516q29 0 29 -22v-52q0 -22 -29 -22h-198v-547q0 -29 -28 -29h-64q-28 0 -28 29v547h-198q-29 0 -29 22zM849 791v614q0 29 29 29h132q20 0 29 -25l147 -422q10 -28 18 -55t16 -59h2q8 32 16 59t18 55l147 422q9 25 29 25h132q29 0 29 -29v-614 q0 -29 -29 -29h-63q-28 0 -28 29v483q0 19 1 38h-1l-185 -511q-14 -39 -35 -39h-64q-21 0 -35 39l-185 511h-1q1 -19 1 -38v-483q0 -29 -28 -29h-63q-29 0 -29 29z" />
<glyph unicode="&#x25fc;" horiz-adv-x="1050" d="M0 0v1050h1050v-1050h-1050z" />
</font>
</defs>
</svg>
