<?xml version="1.0" standalone="no"?>
<!DOCTYPE svg PUBLIC "-//W3C//DTD SVG 1.1//EN" "http://www.w3.org/Graphics/SVG/1.1/DTD/svg11.dtd" >
<svg xmlns="http://www.w3.org/2000/svg">
<metadata></metadata>
<defs>
<font id="blogger_sansregular" horiz-adv-x="1024" >
<font-face units-per-em="2048" ascent="1556" descent="-492" />
<missing-glyph horiz-adv-x="614" />
<glyph unicode="&#xfb01;" horiz-adv-x="1058" d="M152 68v1032q0 186 87 282.5t230 102.5q19 1 44 -1t60 -9t58.5 -28t23.5 -54q0 -34 -22.5 -55t-54.5 -21q-15 0 -54.5 7t-70.5 7q-66 0 -104 -61.5t-38 -153.5v-127h213q31 0 52.5 -22t21.5 -54t-21.5 -53.5t-52.5 -21.5h-213v-770q0 -33 -21.5 -55.5t-58.5 -22.5t-58 22 t-21 56zM725 1368q0 41 28.5 69.5t69.5 28.5t70 -28.5t29 -69.5q0 -40 -29 -69t-70 -29t-69.5 29t-28.5 69zM743 63v904q0 33 23.5 56.5t56.5 23.5t56.5 -23.5t23.5 -56.5v-904q0 -34 -23 -56.5t-57 -22.5t-57 22.5t-23 56.5z" />
<glyph unicode="&#xfb02;" horiz-adv-x="1058" d="M152 68v1032q0 186 87 282.5t230 102.5q19 1 44 -1t60 -9t58.5 -28t23.5 -54q0 -34 -22.5 -55t-54.5 -21q-15 0 -54.5 7t-70.5 7q-66 0 -104 -61.5t-38 -153.5v-127h213q31 0 52.5 -22t21.5 -54t-21.5 -53.5t-52.5 -21.5h-213v-770q0 -33 -21.5 -55.5t-58.5 -22.5t-58 22 t-21 56zM743 193v1212q0 33 23.5 56.5t56.5 23.5q34 0 57 -23t23 -57v-1212q0 -65 29 -97q14 -28 14 -39q0 -31 -21.5 -52t-52.5 -21q-129 0 -129 209z" />
<glyph unicode="&#xfb03;" horiz-adv-x="1544" d="M152 68v1032q0 187 97.5 283t260.5 102q19 1 44 -1t60 -9t58.5 -28t23.5 -54q0 -34 -23 -55t-55 -21q-15 0 -54 7t-70 7q-87 0 -135 -61.5t-48 -153.5v-127h213q30 0 52 -22t22 -54t-22 -53.5t-52 -21.5h-213v-770q0 -34 -21 -56t-59 -22t-58.5 22t-20.5 56zM680 68v1032 q0 186 87 282.5t230 102.5q15 1 34.5 -1t47 -9t46 -28t18.5 -54q0 -34 -23 -55t-55 -21q-10 0 -37 7t-47 7q-66 0 -103.5 -61.5t-37.5 -153.5v-127h213q31 0 52 -22t21 -54t-21 -53.5t-52 -21.5h-213v-770q0 -33 -21.5 -55.5t-58.5 -22.5t-58.5 22.5t-21.5 55.5zM1212 1368 q0 41 29 69.5t70 28.5t69.5 -28.5t28.5 -69.5q0 -40 -28.5 -69t-69.5 -29t-70 29t-29 69zM1231 63v904q0 33 23.5 56.5t56.5 23.5t56.5 -23.5t23.5 -56.5v-904q0 -34 -23 -56.5t-57 -22.5t-57 22.5t-23 56.5z" />
<glyph unicode="&#xfb04;" horiz-adv-x="1607" d="M152 68v1032q0 187 97.5 283t260.5 102q19 1 44 -1t60 -9t58.5 -28t23.5 -54q0 -34 -23 -55t-55 -21q-15 0 -54 7t-70 7q-87 0 -135 -61.5t-48 -153.5v-127h213q31 0 52.5 -22t21.5 -54t-22 -53.5t-52 -21.5h-213v-770q0 -34 -21 -56t-59 -22t-58.5 22t-20.5 56zM700 68 v1032q0 186 87.5 282.5t230.5 102.5q19 1 44 -1t60 -9t58.5 -28t23.5 -54q0 -34 -23 -55t-55 -21q-15 0 -54.5 7t-70.5 7q-66 0 -103.5 -61.5t-37.5 -153.5v-127h213q31 0 52.5 -22t21.5 -54t-21.5 -53.5t-52.5 -21.5h-213v-770q0 -33 -21.5 -55.5t-58.5 -22.5t-58.5 22.5 t-21.5 55.5zM1292 193v1212q0 33 23.5 56.5t56.5 23.5q34 0 57 -23t23 -57v-1212q0 -37 5.5 -58t23.5 -39q14 -19 14 -39q0 -31 -21.5 -52t-52.5 -21q-129 0 -129 209z" />
<glyph horiz-adv-x="0" />
<glyph horiz-adv-x="682" />
<glyph unicode=" "  horiz-adv-x="614" />
<glyph unicode="&#x09;" horiz-adv-x="614" />
<glyph unicode="&#xa0;" horiz-adv-x="614" />
<glyph unicode="!" horiz-adv-x="464" d="M125 92q0 44 32.5 76.5t78.5 32.5q44 0 76 -32.5t32 -76.5q0 -46 -32 -79t-76 -33q-46 0 -78.5 33t-32.5 79zM150 1382q0 33 24 57.5t57 24.5t57.5 -24.5t24.5 -57.5l-20 -968q0 -26 -18.5 -46t-43.5 -20q-26 0 -43.5 19.5t-17.5 46.5z" />
<glyph unicode="&#x22;" horiz-adv-x="700" d="M115 993l59 498q6 29 34 47t62 14q36 -6 56.5 -31.5t13.5 -54.5l-115 -493q-4 -23 -23.5 -37.5t-41.5 -11.5q-23 4 -35.5 24.5t-9.5 44.5zM381 993l59 498q6 29 34.5 47t62.5 14q35 -6 55.5 -31.5t13.5 -54.5l-114 -493q-4 -23 -24 -37.5t-42 -11.5q-23 4 -35.5 24.5 t-9.5 44.5z" />
<glyph unicode="#" horiz-adv-x="1107" d="M86 541q0 33 24.5 56.5t55.5 23.5h102l47 208h-88q-34 0 -57 23t-23 57q0 33 24.5 56.5t55.5 23.5h123l92 412q15 57 76 57q28 -3 48.5 -25t19.5 -51q0 -10 -2 -16l-84 -377h219l92 412q15 57 76 57q29 -3 48.5 -25t18.5 -51q0 -10 -2 -16l-84 -377h72q31 0 55.5 -23.5 t24.5 -56.5q0 -34 -23 -57t-57 -23h-106l-48 -208h93q31 0 55 -23.5t24 -56.5q0 -34 -22.5 -57t-56.5 -23h-127l-93 -416q-15 -59 -75 -59q-30 3 -50 25t-20 52l4 19l84 379h-219l-92 -416q-15 -59 -76 -59q-29 3 -49.5 25t-20.5 52l5 19l83 379h-67q-34 0 -57 23t-23 57z M418 621h219l47 208h-219z" />
<glyph unicode="$" d="M100 193q0 31 22 55t54 24q20 0 59 -16.5t98.5 -34t127.5 -20.5v467q-47 16 -76.5 26.5t-71.5 29.5t-68.5 37.5t-56.5 47t-46.5 60t-28 75t-11.5 94.5q0 160 95.5 254.5t263.5 108.5v100q0 22 15.5 37.5t37.5 15.5t37.5 -15.5t15.5 -37.5v-100q51 -3 98 -11t95 -23 t77 -41.5t29 -61.5q0 -32 -22.5 -55t-59.5 -23q-26 0 -90.5 25t-126.5 30v-440q46 -15 76 -26.5t71.5 -30.5t68.5 -37.5t56.5 -47t46.5 -60.5t28.5 -75t11.5 -94q0 -161 -98.5 -262t-260.5 -123v-102q0 -22 -15.5 -38t-37.5 -16t-37.5 16t-15.5 38v98q-57 2 -116 11 t-116 26.5t-93 47t-36 67.5zM272 1051q0 -127 119 -185q20 -10 70 -30v403q-189 -26 -189 -188zM567 207q92 15 139.5 68t47.5 139q0 42 -10.5 75t-29.5 55t-36.5 34.5t-40.5 23.5q-57 25 -70 29v-424z" />
<glyph unicode="%" horiz-adv-x="1439" d="M113 1139q0 143 76 235t212 92q137 0 213 -92t76 -235t-76 -235.5t-213 -92.5q-135 0 -211.5 92.5t-76.5 235.5zM252 1143q0 -205 149 -205q150 0 150 205q0 94 -37.5 145t-112.5 51q-149 0 -149 -196zM305 90l8 16l691 1324q13 24 37 33t51 1q27 -9 40.5 -36t4.5 -54 q0 -7 -7 -14l-690 -1325q-13 -25 -37 -35t-51 -4q-28 10 -41.5 37.5t-5.5 56.5zM750 307q0 144 76 236t212 92q135 0 212 -92.5t77 -235.5t-76 -235t-213 -92q-136 0 -212 92t-76 235zM889 311q0 -205 149 -205q150 0 150 205q0 94 -37.5 145.5t-112.5 51.5t-112 -51 t-37 -146z" />
<glyph unicode="&#x26;" horiz-adv-x="1314" d="M96 369q0 79 25.5 147t73 121.5t95.5 91t113 76.5q-167 182 -167 336q0 144 102.5 231.5t245.5 87.5q135 0 233 -82t98 -184q0 -32 -23.5 -55t-53.5 -23q-27 0 -46.5 17.5t-27.5 44.5q-15 55 -62 96t-112 41q-80 0 -137.5 -49t-57.5 -129q0 -16 4.5 -34.5t10 -33 t18.5 -36.5t20.5 -33.5t26.5 -36t26 -32.5t29 -35t27 -32l379 -436q53 83 123 238q14 34 28.5 42.5t42.5 8.5q30 0 53 -23t23 -55q0 -57 -50 -152t-116 -186l160 -190q19 -22 19 -50q0 -33 -22.5 -57t-55.5 -24q-23 0 -37.5 10t-34.5 33l-131 155q-89 -91 -189.5 -144.5 t-228.5 -53.5q-187 0 -305.5 110.5t-118.5 278.5zM254 385q0 -106 71 -182t183 -76q99 0 177.5 45t152.5 127l-340 389q-51 -28 -89.5 -55.5t-76 -64.5t-58 -83.5t-20.5 -99.5z" />
<glyph unicode="'" horiz-adv-x="454" d="M115 993l59 498q6 29 34 47t62 14q36 -6 56.5 -31.5t13.5 -54.5l-115 -493q-4 -23 -23.5 -37.5t-41.5 -11.5q-23 4 -35.5 24.5t-9.5 44.5z" />
<glyph unicode="(" horiz-adv-x="565" d="M133 453q0 241 58 475.5t176 429.5q23 39 67 39q37 0 57.5 -25.5t20.5 -60.5q0 -20 -20 -56q-197 -351 -197 -802q0 -452 197 -803q20 -36 20 -56q0 -35 -20.5 -60.5t-57.5 -25.5q-44 0 -67 39q-118 195 -176 430t-58 476z" />
<glyph unicode=")" horiz-adv-x="563" d="M51 -406q0 18 21 56q196 349 196 803q0 453 -196 802q-21 38 -21 56q0 35 20.5 60.5t57.5 25.5q45 0 68 -39q118 -195 175.5 -429t57.5 -476t-57.5 -476.5t-175.5 -429.5q-23 -39 -68 -39q-37 0 -57.5 25.5t-20.5 60.5z" />
<glyph unicode="*" horiz-adv-x="1013" d="M117 1219q11 34 40 45t56 0q30 -11 109.5 -43t123.5 -47l-12 249q-2 30 17 53t55 23t55 -23t17 -53l-13 -249q44 15 124.5 47t109.5 43q27 11 56 0t40 -45q11 -32 -6 -57.5t-47 -35.5l-238 -65l154 -195q21 -22 19 -53t-32 -51q-33 -20 -59 -13.5t-43 31.5l-137 211 q-22 -33 -68 -105.5t-69 -105.5q-19 -24 -45 -30t-58 12q-28 19 -29.5 50.5t17.5 53.5l156 195l-240 65q-30 10 -46.5 35.5t-6.5 57.5z" />
<glyph unicode="+" d="M25 725q0 33 24 56.5t55 23.5h328v348q0 31 23.5 55.5t56.5 24.5q34 0 57 -23t23 -57v-348h328q31 0 55 -23.5t24 -56.5q0 -34 -22.5 -57t-56.5 -23h-328v-348q0 -34 -23 -57t-57 -23q-33 0 -56.5 24.5t-23.5 55.5v348h-328q-34 0 -56.5 23t-22.5 57z" />
<glyph unicode="," horiz-adv-x="471" d="M125 92q0 44 32.5 76.5t78.5 32.5q44 0 76 -32.5t32 -76.5q0 -65 -27.5 -146t-64.5 -135.5t-64 -54.5q-38 0 -38 35q0 36 32 94.5t43 94.5q-43 5 -71.5 36.5t-28.5 75.5z" />
<glyph unicode="-" horiz-adv-x="817" d="M78 604q0 31 22 53.5t54 22.5h510q30 0 51.5 -22.5t21.5 -53.5t-21 -52.5t-52 -21.5h-510q-32 0 -54 21.5t-22 52.5z" />
<glyph unicode="." horiz-adv-x="471" d="M125 92q0 44 32.5 76.5t78.5 32.5q44 0 76 -32.5t32 -76.5q0 -46 -32 -79t-76 -33q-46 0 -78.5 33t-32.5 79z" />
<glyph unicode="/" horiz-adv-x="573" d="M-53 2q0 4 4 16l526 1483q9 27 33 40.5t53 8.5q30 -6 48 -32t14 -56q0 -6 -4 -14l-527 -1485q-9 -27 -33.5 -41.5t-52.5 -9.5q-31 6 -48.5 32t-12.5 58z" />
<glyph unicode="0" d="M100 406v610q0 99 24.5 182.5t73.5 148.5t129 101.5t185 36.5t185 -36.5t129 -101.5t73.5 -148.5t24.5 -182.5v-610q0 -185 -109.5 -305.5t-302.5 -120.5t-302.5 120.5t-109.5 305.5zM262 406q0 -126 65.5 -200.5t184.5 -74.5t184.5 74.5t65.5 200.5v626q0 140 -61 221.5 t-189 81.5t-189 -81.5t-61 -221.5v-626z" />
<glyph unicode="1" d="M141 1120q0 48 37 72l404 258q22 14 49 14q37 0 62.5 -25.5t25.5 -62.5v-1313q0 -33 -24.5 -57t-57.5 -24t-57.5 24t-24.5 57v1190l-252 -161q-3 -2 -14.5 -9t-16 -10t-14.5 -8t-16 -7.5t-14 -4.5t-15 -2q-27 0 -49.5 21t-22.5 48z" />
<glyph unicode="2" d="M92 86q0 52 12 80q38 92 109 185.5t137.5 158.5t157 153.5t141.5 147.5q113 130 113 260q0 117 -66 190.5t-188 73.5q-109 0 -195 -39q-18 -8 -44 -24t-44.5 -24.5t-34.5 -8.5q-30 0 -53.5 21.5t-23.5 54.5q0 43 53 78q143 92 344 92q190 0 301 -111.5t111 -279.5 q0 -119 -38.5 -209.5t-109.5 -169.5q-49 -55 -130.5 -134.5t-139.5 -135.5t-120 -135t-97 -154h563q34 0 57 -23t23 -55t-23 -55t-57 -23h-674q-37 0 -60.5 24.5t-23.5 61.5z" />
<glyph unicode="3" d="M106 133q0 31 22 54.5t54 23.5q22 0 43 -12q56 -33 108.5 -51.5t123.5 -18.5q82 0 142.5 27.5t93.5 74t48 99t15 110.5q0 135 -76 200t-203 65q-51 0 -88 -13q-4 -1 -9.5 -4.5t-11.5 -5.5t-14 -2q-41 0 -61 42.5t8 82.5l367 477h-455q-34 0 -57 23t-23 57t23.5 59 t56.5 25h571q39 0 63.5 -25.5t24.5 -66.5q0 -34 -20 -60l-344 -444q183 -5 296.5 -110.5t113.5 -290.5q0 -65 -14.5 -129.5t-47.5 -126t-80 -108t-118 -75t-156 -28.5q-32 0 -74 3t-101 13t-106.5 25.5t-81 44t-33.5 65.5z" />
<glyph unicode="4" d="M72 393q0 24 16 56l393 985q9 21 28.5 34t41.5 13q30 0 55 -24.5t25 -57.5q0 -19 -4 -27l-367 -913h408v401q0 34 23 57t57 23q32 0 55.5 -23t23.5 -57v-401h88q32 0 54 -22.5t22 -53.5q0 -32 -22 -55t-54 -23h-88v-244q0 -34 -22.5 -56.5t-56.5 -22.5t-57 22.5t-23 56.5 v244h-512q-36 0 -60 26t-24 62z" />
<glyph unicode="5" d="M106 133q0 31 22 54.5t54 23.5q22 0 43 -12q35 -21 61.5 -34t73 -24.5t97.5 -11.5q66 0 118.5 18.5t86 49t55 73t30.5 87.5t9 96q0 148 -71.5 224.5t-186.5 76.5q-79 0 -150 -41q-15 -8 -37 -24.5t-38.5 -25t-34.5 -8.5q-35 0 -59 25.5t-23 62.5l20 613q1 41 29.5 65.5 t64.5 24.5h494q38 0 66 -19t28 -59q0 -38 -28 -57t-66 -19h-442l-17 -442q83 49 197 49q186 0 301 -118t115 -320q0 -71 -14.5 -138t-47 -129.5t-79.5 -109t-117.5 -74.5t-155.5 -28q-43 0 -99.5 6t-129 20t-121 46.5t-48.5 78.5z" />
<glyph unicode="6" d="M84 680q0 383 113 583.5t338 200.5q36 0 80.5 -4t101.5 -14.5t95 -35t38 -58.5q0 -29 -22 -52.5t-52 -23.5q-15 0 -45 10q-100 31 -170 31q-73 0 -128 -27t-89 -72.5t-55 -113.5t-29 -141t-8 -164q107 96 276 96q86 0 160 -28.5t130.5 -82.5t89 -139.5t32.5 -193.5 q0 -98 -26.5 -182t-78 -149t-134 -102.5t-187.5 -37.5q-98 0 -172.5 34t-123 94t-79 150t-43 192t-12.5 230zM248 575q0 -93 11.5 -165t40 -136.5t84.5 -99.5t138 -35q70 0 121 25t79.5 69.5t42 97.5t13.5 115q0 146 -68 219.5t-188 73.5q-83 0 -157.5 -31.5t-116.5 -82.5 v-50z" />
<glyph unicode="7" d="M102 1364q0 35 22.5 58.5t55.5 23.5h656q35 0 60.5 -24.5t25.5 -59.5q0 -24 -9 -45l-510 -1284q-19 -51 -73 -51q-32 0 -55.5 20t-26.5 51q0 21 6 39l481 1192h-555q-31 0 -54.5 24t-23.5 56z" />
<glyph unicode="8" d="M57 391q0 237 252 373q-200 122 -200 332q0 164 116 265t285 101q171 0 286 -102t115 -260q0 -200 -198 -324q252 -136 252 -377q0 -182 -127 -300.5t-326 -118.5q-197 0 -326 116t-129 295zM219 399q0 -116 84 -193t209 -77q127 0 209 78t82 194q0 118 -85.5 192.5 t-211.5 98.5q-126 -26 -206.5 -103t-80.5 -190zM268 1092q0 -99 71.5 -165.5t176.5 -86.5q103 23 170.5 90t67.5 162q0 98 -69.5 161.5t-172.5 63.5q-104 0 -174 -63t-70 -162z" />
<glyph unicode="9" d="M84 997q0 97 25 179.5t74.5 148t131 102.5t187.5 37q99 0 174.5 -33.5t125 -94t81 -151.5t44.5 -197t13 -240q0 -384 -111 -576t-340 -192q-37 0 -81.5 4t-101.5 14.5t-94.5 35t-37.5 58.5q0 29 22 52.5t52 23.5q15 0 45 -10q100 -31 170 -31q73 0 128 27t89 72.5 t55 113.5t29 141t8 164q-107 -96 -276 -96q-179 0 -295.5 115t-116.5 333zM246 995q0 -145 68.5 -217.5t189.5 -72.5q83 0 156.5 31.5t115.5 82.5v49q0 96 -15 173t-47 137.5t-87.5 93.5t-130.5 33q-66 0 -116 -26t-78.5 -70.5t-42 -98t-13.5 -115.5z" />
<glyph unicode=":" horiz-adv-x="471" d="M125 92q0 44 32.5 76.5t78.5 32.5q44 0 76 -32.5t32 -76.5q0 -46 -32 -79t-76 -33q-46 0 -78.5 33t-32.5 79zM125 706q0 44 32.5 76.5t78.5 32.5q44 0 76 -32.5t32 -76.5q0 -46 -32 -79t-76 -33q-46 0 -78.5 33t-32.5 79z" />
<glyph unicode=";" horiz-adv-x="471" d="M125 92q0 44 32.5 76.5t78.5 32.5q44 0 76 -32.5t32 -76.5q0 -65 -27.5 -146t-64.5 -135.5t-64 -54.5q-38 0 -38 35q0 36 32 94.5t43 94.5q-43 5 -71.5 36.5t-28.5 75.5zM125 707q0 44 32.5 76t78.5 32q44 0 76 -32t32 -76q0 -46 -32 -79.5t-76 -33.5q-46 0 -78.5 33.5 t-32.5 79.5z" />
<glyph unicode="&#x3c;" horiz-adv-x="1280" d="M139 721q0 12 2 22t7 19t8.5 14.5t14 13t15 10.5t18.5 11.5t19 11.5l811 420q41 13 74 -11.5t33 -66.5q0 -47 -58 -75l-733 -369l733 -369q26 -12 42 -32t16 -41q0 -43 -35 -70.5t-72 -7.5l-811 420q-4 3 -16 10t-16.5 9.5t-13.5 9t-13 10.5t-10 11.5t-8.5 14t-4.5 16 t-2 19.5z" />
<glyph unicode="=" d="M106 541q0 33 24.5 56.5t55.5 23.5h652q31 0 55.5 -23.5t24.5 -56.5q0 -34 -23 -57t-57 -23h-652q-34 0 -57 23t-23 57zM106 909q0 33 24.5 56.5t55.5 23.5h652q31 0 55.5 -23.5t24.5 -56.5q0 -34 -23 -57t-57 -23h-652q-34 0 -57 23t-23 57z" />
<glyph unicode="&#x3e;" horiz-adv-x="1280" d="M139 279q0 21 16 41t42 32l733 369l-733 369q-58 28 -58 75q0 43 35 70.5t72 7.5l811 -420q5 -3 19 -11.5t18.5 -11.5t15 -10.5t14 -13t8.5 -14.5t7 -19t2 -22t-1.5 -21.5t-7.5 -18.5t-9 -14.5t-14.5 -13.5t-14.5 -10t-18.5 -11t-18.5 -11l-811 -420q-37 -20 -72 7.5 t-35 70.5z" />
<glyph unicode="?" horiz-adv-x="946" d="M76 1315q0 43 53 78q143 92 344 92q190 0 301 -111.5t111 -279.5q0 -119 -38.5 -209.5t-109.5 -169.5q-21 -25 -61.5 -64t-70.5 -72.5t-46 -68.5q-12 -28 -12 -80q0 -33 -24.5 -57.5t-57.5 -24.5t-57.5 24.5t-24.5 57.5q0 52 12 80q20 56 53.5 104.5t89.5 111t74 85.5 q113 130 113 260q0 117 -66 190.5t-188 73.5q-109 0 -195 -39q-19 -8 -44 -24t-43.5 -24.5t-34.5 -8.5q-31 0 -54.5 21.5t-23.5 54.5zM356 92q0 44 32.5 76.5t78.5 32.5q44 0 76 -32.5t32 -76.5q0 -46 -32 -79t-76 -33q-46 0 -78.5 33t-32.5 79z" />
<glyph unicode="@" horiz-adv-x="1523" d="M131 641q0 195 71 342.5t214 232t342 84.5q152 0 274 -50.5t200 -138.5t119.5 -204t41.5 -250q0 -155 -59 -244t-189 -89q-127 0 -189 88q-104 -109 -225 -109q-127 0 -199.5 94.5t-72.5 243.5q0 155 80 246.5t227 91.5q73 0 125 -23.5t83 -69t47 -102t23 -133.5 q3 -36 7 -61t14.5 -55.5t30.5 -47t49 -16.5q88 0 88 172q0 148 -52.5 261.5t-161 181t-259.5 67.5q-224 0 -346.5 -141t-122.5 -375q0 -235 124 -375.5t355 -140.5q65 0 114.5 10.5t92 28t51.5 20.5q80 22 98 -45q10 -39 -12 -63.5t-65 -42.5q-56 -24 -140.5 -40t-167.5 -16 q-281 0 -445.5 183.5t-164.5 484.5zM618 635q0 -189 127 -189q81 0 160 76q-13 55 -20 133q-2 27 -3.5 39.5t-6.5 38t-13 39t-21 29.5t-34 23t-49 7q-140 0 -140 -196z" />
<glyph unicode="A" horiz-adv-x="1124" d="M51 61q0 19 4 31l400 1264q32 108 106 108q43 0 67.5 -27.5t41.5 -80.5l399 -1264q4 -12 4 -31q0 -36 -24.5 -58.5t-61.5 -22.5q-25 0 -49 17t-31 44l-88 285h-518l-86 -285q-9 -27 -32 -44t-46 -17q-36 0 -61 22.5t-25 58.5zM350 485h422l-211 695z" />
<glyph unicode="B" horiz-adv-x="1110" d="M150 98v1248q0 41 29 69.5t69 28.5h346q96 0 174 -31.5t126 -84t73.5 -118.5t25.5 -139q0 -123 -68.5 -199t-195.5 -129q52 -16 85.5 -29t79 -40.5t72.5 -60t46.5 -85t19.5 -118.5q0 -177 -121.5 -293.5t-324.5 -116.5h-338q-41 0 -69.5 29t-28.5 69zM313 160h250 q149 0 227 67t78 181q0 124 -87 193t-226 69h-242v-510zM313 829h236q70 0 132 25.5t105 82.5t43 136q0 92 -58.5 151.5t-186.5 59.5h-271v-455z" />
<glyph unicode="C" horiz-adv-x="987" d="M92 504v438q0 244 115.5 383t345.5 139q141 0 251.5 -53t110.5 -123q0 -30 -20.5 -50.5t-52.5 -20.5q-10 0 -19.5 3t-15 6t-18.5 11.5t-21 13.5q-91 64 -205 64q-166 0 -236.5 -95.5t-70.5 -277.5v-438q0 -182 70.5 -277.5t236.5 -95.5q114 0 205 64q10 6 22 13.5t18 11 t15 6.5t19 3q32 0 52.5 -20.5t20.5 -50.5q0 -71 -110.5 -123.5t-251.5 -52.5q-230 0 -345.5 139t-115.5 383z" />
<glyph unicode="D" horiz-adv-x="1134" d="M150 98v1250q0 40 29 69t69 29h231q122 0 218.5 -28.5t160 -76.5t105 -115.5t59.5 -142t18 -159.5v-383q0 -88 -17.5 -164.5t-59.5 -147t-105 -120.5t-160 -79.5t-219 -29.5h-231q-40 0 -69 29t-29 69zM313 160h201q98 0 170 29.5t113 82.5t60.5 120t19.5 149v383 q0 79 -20 142.5t-61.5 114t-113 78t-168.5 27.5h-201v-1126z" />
<glyph unicode="E" horiz-adv-x="970" d="M150 96v1252q0 37 28 66.5t68 29.5h555q34 0 58 -24t24 -58q0 -33 -24 -55.5t-58 -22.5h-488v-479h449q31 0 55.5 -23.5t24.5 -56.5q0 -34 -23 -57t-57 -23h-449v-485h508q32 0 57 -22.5t25 -53.5q0 -35 -24 -59.5t-58 -24.5h-542q-129 0 -129 96z" />
<glyph unicode="F" horiz-adv-x="970" d="M150 61v1287q0 37 28 66.5t68 29.5h555q34 0 58 -24t24 -58q0 -33 -24 -55.5t-58 -22.5h-488v-479h449q31 0 55.5 -23.5t24.5 -56.5q0 -34 -23 -57t-57 -23h-449v-584q0 -33 -24.5 -57t-57.5 -24t-57 24t-24 57z" />
<glyph unicode="G" horiz-adv-x="1064" d="M92 504v438q0 244 115.5 383t345.5 139q141 0 251.5 -52.5t110.5 -123.5q0 -30 -20.5 -50.5t-52.5 -20.5q-10 0 -19.5 3t-15 6t-18.5 11.5t-21 13.5q-91 64 -205 64q-166 0 -236.5 -95.5t-70.5 -277.5v-438q0 -182 70.5 -277.5t236.5 -95.5q133 0 232 76v440h-199 q-31 0 -54.5 23t-23.5 55t23.5 55t54.5 23h244q52 0 84 -23.5t32 -70.5v-490q0 -59 -37 -106.5t-97 -75t-129 -41.5t-140 -14q-230 0 -345.5 139t-115.5 383z" />
<glyph unicode="H" horiz-adv-x="1187" d="M150 63v1319q0 33 24 57.5t57 24.5t57.5 -24.5t24.5 -57.5v-579h559v579q0 32 25 57t57 25t57 -25t25 -57v-1319q0 -34 -24 -58.5t-58 -24.5q-32 0 -57 25t-25 58v580h-559v-580q0 -34 -24 -58.5t-58 -24.5t-57.5 24.5t-23.5 58.5z" />
<glyph unicode="I" horiz-adv-x="464" d="M150 61v1321q0 33 24 57.5t57 24.5t57.5 -24.5t24.5 -57.5v-1321q0 -33 -24.5 -57t-57.5 -24t-57 24t-24 57z" />
<glyph unicode="J" horiz-adv-x="788" d="M51 72q0 36 23 58t49 22q7 0 48 -7.5t77 -7.5q69 0 114.5 21.5t69.5 66.5t33.5 100.5t9.5 135.5v921q0 34 23.5 58t58.5 24q32 0 57 -25t25 -57v-921q0 -117 -20.5 -202t-67.5 -149.5t-128 -97t-198 -32.5q-174 0 -174 92z" />
<glyph unicode="K" horiz-adv-x="1019" d="M150 63v1319q0 33 24 57.5t57 24.5t57.5 -24.5t24.5 -57.5v-596l518 639q11 16 32 27.5t42 11.5q27 0 51 -22q21 -19 21 -51v-9q-2 -28 -19 -51l-440 -540l477 -685q11 -19 11 -38q0 -35 -18 -61.5t-58 -26.5q-45 0 -70 38l-444 646l-103 -125v-476q0 -34 -24 -58.5 t-58 -24.5t-57.5 24.5t-23.5 58.5z" />
<glyph unicode="L" horiz-adv-x="917" d="M150 92v1290q0 33 24 57.5t57 24.5t57.5 -24.5t24.5 -57.5v-1224h506q31 0 54.5 -23t23.5 -55q0 -34 -23 -57t-55 -23h-577q-37 0 -64.5 27t-27.5 65z" />
<glyph unicode="M" horiz-adv-x="1431" d="M141 59v1319q0 37 24.5 61.5t61.5 24.5q61 0 88 -53l400 -856l399 858q28 51 86 51q36 0 61 -25t25 -61v-1319q0 -32 -24 -55.5t-56 -23.5q-34 0 -59 23.5t-25 55.5v998l-329 -705q-24 -49 -80 -49q-54 0 -78 49l-330 705v-998q0 -32 -25.5 -55.5t-60.5 -23.5 q-32 0 -55 23.5t-23 55.5z" />
<glyph unicode="N" horiz-adv-x="1228" d="M150 63v1311q0 38 25 64t63 26q27 0 50.5 -13t35.5 -36l589 -1089v1054q0 34 25 59t59 25q33 0 56.5 -25t23.5 -59v-1310q0 -37 -25.5 -63.5t-64.5 -26.5q-25 0 -48.5 13t-35.5 34l-590 1091v-1055q0 -34 -25 -58.5t-59 -24.5q-33 0 -56 24.5t-23 58.5z" />
<glyph unicode="O" horiz-adv-x="1128" d="M92 504v438q0 110 26.5 202t81.5 165t147.5 114t215.5 41t215.5 -41t147.5 -114t81.5 -165t26.5 -202v-438q0 -149 -51.5 -265.5t-159.5 -187.5t-260 -71t-260 71t-159.5 187.5t-51.5 265.5zM256 504q0 -168 77 -266.5t230 -98.5t230 98.5t77 266.5v438q0 363 -307 363 t-307 -363v-438z" />
<glyph unicode="P" horiz-adv-x="1085" d="M150 66v1280q0 40 29 69t69 29h301q123 0 214.5 -37.5t144 -103t77.5 -145t25 -173.5q0 -216 -123.5 -334.5t-337.5 -118.5h-236v-466q0 -34 -24.5 -60t-57.5 -26q-32 0 -56.5 25.5t-24.5 60.5zM313 692h236q297 0 297 295q0 297 -297 297h-236v-592z" />
<glyph unicode="Q" horiz-adv-x="1128" d="M92 504v438q0 110 26.5 202t81.5 165t147.5 114t215.5 41t215.5 -41t147.5 -114t81.5 -165t26.5 -202v-438q0 -206 -99.5 -347.5t-285.5 -168.5q3 -109 43.5 -156t118.5 -47q11 0 32.5 1t26.5 1q36 0 58 -20.5t22 -55.5q0 -18 -5 -30.5t-17.5 -20.5t-24.5 -12.5t-35 -6.5 t-38.5 -2.5t-45.5 -0.5q-133 0 -210.5 94t-86.5 254q-190 24 -292.5 167t-102.5 351zM256 504q0 -168 77 -266.5t230 -98.5t230 98.5t77 266.5v438q0 363 -307 363t-307 -363v-438z" />
<glyph unicode="R" horiz-adv-x="1177" d="M150 66v1280q0 40 28 69t66 29h356q122 0 212 -35t139.5 -95t72.5 -129.5t23 -150.5q0 -160 -84.5 -259.5t-233.5 -129.5l328 -539q10 -20 10 -47q0 -30 -30 -53.5t-58 -23.5q-47 0 -68 38l-362 615h-236v-569q0 -34 -25 -60t-59 -26q-32 0 -55.5 25.5t-23.5 60.5z M313 793h291q136 0 207.5 61.5t71.5 179.5q0 250 -291 250h-279v-491z" />
<glyph unicode="S" horiz-adv-x="995" d="M84 131q0 31 22 55.5t52 24.5q21 0 64.5 -18t107 -36t133.5 -18q135 0 204.5 65.5t69.5 186.5q0 89 -32.5 134.5t-83.5 72.5q-40 21 -106.5 45t-120 41t-113.5 49.5t-100.5 72t-67.5 106t-27 153.5q0 185 111.5 292t302.5 107q46 0 99 -6t113 -20t99 -43.5t39 -69.5 q0 -32 -22.5 -55t-59.5 -23q-24 0 -59.5 14.5t-86 29t-110.5 14.5q-52 0 -95.5 -11.5t-81 -36.5t-58.5 -71.5t-21 -110.5q0 -48 11 -84.5t31.5 -60t37 -36t39.5 -24.5q40 -21 107 -45t120 -41t113 -49.5t100 -71.5t67 -105t27 -152q0 -198 -125 -312t-323 -114 q-54 0 -115 8.5t-122 25t-100.5 47.5t-39.5 70z" />
<glyph unicode="T" horiz-adv-x="989" d="M51 1364q0 28 25 54t57 26h721q33 0 58.5 -23.5t25.5 -56.5q0 -32 -25 -56t-59 -24h-279v-1223q0 -33 -24 -57t-57 -24q-34 0 -58 24t-24 57v1223h-279q-35 0 -58.5 23.5t-23.5 56.5z" />
<glyph unicode="U" horiz-adv-x="1171" d="M133 471v907q0 37 24.5 61.5t59.5 24.5q32 0 56 -25.5t24 -60.5v-907q0 -153 73 -242.5t216 -89.5q142 0 214 90t72 242v907q0 34 23.5 60t56.5 26q36 0 61 -26t25 -60v-907q0 -218 -121 -354.5t-331 -136.5q-213 0 -333 136.5t-120 354.5z" />
<glyph unicode="V" horiz-adv-x="1083" d="M31 1382q0 36 25 59t61 23q23 0 46 -17t32 -44l346 -1139l346 1139q7 27 31 44t49 17q37 0 61.5 -23t24.5 -59q0 -18 -4 -30l-400 -1264q-17 -53 -41 -80.5t-67 -27.5q-75 0 -107 108l-399 1264q-4 12 -4 30z" />
<glyph unicode="W" horiz-adv-x="1589" d="M31 1384q0 32 28.5 52t63.5 20q26 0 46.5 -15t27.5 -44l254 -1092l237 1041q15 63 36.5 90.5t70.5 27.5q46 0 68.5 -29t35.5 -89l238 -1041l254 1092q19 59 69 59q37 0 68 -19.5t31 -54.5q0 -2 -1 -5t-2 -8t-2 -9l-305 -1266q-12 -50 -38.5 -82t-69.5 -32t-71 33.5 t-40 82.5l-235 1030l-238 -1032q-30 -114 -108 -114q-42 0 -71 32.5t-40 81.5l-305 1268z" />
<glyph unicode="X" d="M31 63q0 26 12 46l373 643l-342 587q-11 22 -11 45q0 31 23 55.5t53 24.5q50 0 88 -71l285 -510l285 510q41 71 90 71q30 0 52 -24.5t22 -57.5q0 -21 -11 -43l-342 -587l373 -643q12 -20 12 -46q0 -32 -23 -57.5t-52 -25.5q-47 0 -80 59l-326 582l-326 -582 q-31 -59 -77 -59q-31 0 -54.5 25.5t-23.5 57.5z" />
<glyph unicode="Y" horiz-adv-x="974" d="M31 1380q0 33 25.5 58.5t58.5 25.5q46 0 63 -32l309 -674l310 674q17 32 63 32q33 0 58.5 -25.5t25.5 -58.5q0 -19 -8 -39l-365 -778v-497q0 -34 -24.5 -60t-59.5 -26t-59.5 25.5t-24.5 60.5v501l-364 774q-8 20 -8 39z" />
<glyph unicode="Z" horiz-adv-x="991" d="M59 90q0 29 21 66l631 1124h-568q-34 0 -57 23.5t-23 58.5q0 33 23.5 57.5t56.5 24.5h695q38 0 63 -25.5t25 -62.5q0 -26 -21 -64l-635 -1128h578q33 0 57.5 -23.5t24.5 -56.5q0 -35 -24 -59.5t-58 -24.5h-703q-36 0 -61 26.5t-25 63.5z" />
<glyph unicode="[" horiz-adv-x="602" d="M158 -170v1733q0 40 29.5 58.5t76.5 18.5h209q29 0 52.5 -22.5t23.5 -52.5q0 -41 -30 -59.5t-73 -18.5h-127v-1581h127q45 0 74 -18t29 -58q0 -41 -31 -59.5t-74 -18.5h-208q-31 0 -54.5 23.5t-23.5 54.5z" />
<glyph unicode="\" horiz-adv-x="573" d="M-53 1462q-4 31 14 56.5t47 31.5q29 5 53 -8.5t33 -40.5l527 -1483q4 -12 4 -16q4 -32 -13.5 -58t-48.5 -32q-28 -5 -52.5 9.5t-33.5 41.5l-526 1485q-4 8 -4 14z" />
<glyph unicode="]" horiz-adv-x="602" d="M49 -170q0 41 30.5 58.5t74.5 17.5h127v1581h-127q-44 0 -74.5 18t-30.5 60q0 39 31.5 57t75.5 18h209q29 0 53 -24t24 -53v-1733q0 -32 -22.5 -55t-54.5 -23h-209q-44 0 -75.5 18.5t-31.5 59.5z" />
<glyph unicode="^" horiz-adv-x="667" d="M4 1094q3 34 39 77l227 279q24 31 62 31q37 0 61 -31l228 -279q35 -41 38 -77q0 -25 -16.5 -40.5t-44.5 -15.5q-15 0 -30 8t-21 19l-215 266l-215 -266q-6 -11 -21 -19t-30 -8q-28 0 -45 15.5t-17 40.5z" />
<glyph unicode="_" horiz-adv-x="1228" d="M-70 -410q0 33 24.5 56.5t55.5 23.5h1209q31 0 55 -23.5t24 -56.5q0 -34 -22.5 -56.5t-56.5 -22.5h-1209q-34 0 -57 22.5t-23 56.5z" />
<glyph unicode="`" horiz-adv-x="403" d="M55 1423q0 28 20.5 48t43.5 20q13 0 24 -4.5t16 -8t18 -16.5l18 -18l159 -166q11 -14 11 -31q0 -31 -20.5 -51t-47.5 -20q-30 0 -66 36l-165 177q-11 14 -11 34z" />
<glyph unicode="a" horiz-adv-x="987" d="M92 293v8q0 303 361 303q105 0 206 -29v117q0 112 -54 165.5t-165 53.5q-49 0 -82 -10.5t-73 -32.5q-1 0 -7.5 -3t-13 -5.5t-16 -5t-17.5 -2.5q-27 0 -41 20.5t-16 47.5v7q0 29 21 53q24 26 66.5 41.5t93.5 23.5t106 8q188 0 273 -103t85 -311v-451q0 -61 37 -61 q3 0 7.5 1t8.5 1q28 0 44 -21t16 -49q0 -35 -27 -52t-65 -17q-50 0 -90 27t-64 75q-117 -108 -280 -108q-154 0 -234 83.5t-80 225.5zM250 291q0 -164 180 -164q123 0 229 90v221q-105 31 -208 31q-116 0 -158.5 -45t-42.5 -125v-8z" />
<glyph unicode="b" horiz-adv-x="993" d="M152 307v1100q0 32 21 55t58 23t58.5 -23t21.5 -55v-438q120 84 273 84q165 0 241 -87t76 -233v-385q0 -161 -97 -262.5t-278 -101.5q-173 0 -273.5 91.5t-100.5 231.5zM311 307q0 -83 57.5 -129.5t157.5 -46.5q108 0 161.5 56.5t53.5 160.5v385q0 180 -196 180 q-142 0 -234 -102v-504z" />
<glyph unicode="c" horiz-adv-x="804" d="M92 360v310q0 168 92 272.5t275 104.5q40 0 85.5 -6.5t92 -20t76.5 -39t30 -59.5q0 -28 -20 -49t-49 -21q-15 0 -33 6q-31 16 -50 24t-50.5 15.5t-65.5 7.5q-117 0 -170 -59.5t-53 -175.5v-310q0 -116 53 -175.5t170 -59.5q34 0 65.5 7.5t50.5 15.5t50 24q18 6 33 6 q29 0 49 -20.5t20 -48.5q0 -34 -30 -59.5t-76.5 -39t-92 -20t-85.5 -6.5q-183 0 -275 104t-92 272z" />
<glyph unicode="d" horiz-adv-x="999" d="M92 371v260q0 95 17.5 168t56 129.5t106 86t162.5 29.5q116 0 228 -38v401q0 34 21 56t58 22t58.5 -22.5t21.5 -55.5v-1174q0 -44 11.5 -71.5t41.5 -50.5q15 -23 15 -41q0 -31 -22 -51.5t-50 -20.5q-66 0 -108 65q-158 -79 -291 -79q-157 0 -241.5 105t-84.5 282z M252 371q0 -244 199 -244q103 0 215 59q-4 16 -4 47v629q-48 20 -107 31.5t-100 11.5q-111 0 -157 -64.5t-46 -209.5v-260z" />
<glyph unicode="e" horiz-adv-x="890" d="M92 324v383q0 153 98.5 249.5t276.5 96.5q167 0 253.5 -89t86.5 -245q0 -303 -346 -303q-101 0 -209 18v-121q0 -88 57.5 -138t165.5 -50q58 0 102.5 13.5t110.5 43.5q12 6 29 6q30 0 50.5 -21.5t20.5 -49.5q0 -35 -35.5 -62.5t-89.5 -42t-107 -21.5t-99 -7 q-169 0 -267 95.5t-98 244.5zM252 565q106 -14 215 -14q56 0 94 14t56 39.5t25 52.5t7 62q0 188 -186 188q-99 0 -155 -49.5t-56 -136.5v-156z" />
<glyph unicode="f" horiz-adv-x="673" d="M152 68v1032q0 187 97.5 283t260.5 102h13q14 0 31 -1q25 -2 60 -9t58.5 -28t23.5 -54q0 -34 -23 -55t-55 -21q-15 0 -54 7t-70 7q-87 0 -135 -61.5t-48 -153.5v-127h213q31 0 52.5 -22t21.5 -54t-21.5 -53.5t-52.5 -21.5h-213v-770q0 -33 -21.5 -55.5t-58.5 -22.5 t-58 22t-21 56z" />
<glyph unicode="g" horiz-adv-x="1009" d="M92 -182q0 139 109 245q-62 62 -62 158q0 98 78 168q-111 105 -111 289q0 167 94.5 271t272.5 104q147 0 268 -70q31 58 78 88.5t86 30.5q32 0 54 -20.5t22 -51.5q0 -27 -14 -41q-7 -6 -22 -21t-20 -19.5t-16.5 -16.5t-15 -17t-11 -15.5t-10 -17.5t-7 -18t-5.5 -21.5 t-2.5 -23.5t-1.5 -28v-127q0 -163 -96.5 -266t-274.5 -103q-91 0 -161 27q-25 -49 -25 -95q0 -48 34 -69t77 -21h86q183 0 296 -76.5t113 -224.5q0 -153 -117.5 -243.5t-302.5 -90.5q-176 0 -284.5 84.5t-108.5 231.5zM252 -160q0 -93 59.5 -141.5t177.5 -48.5 q115 0 185.5 46.5t70.5 135.5q0 81 -60.5 119.5t-184.5 38.5h-86q-47 0 -92 10q-70 -61 -70 -160zM266 674q0 -109 54 -170.5t165 -61.5q106 0 158.5 56.5t52.5 160.5v129q0 24 4 60q-99 61 -206 61q-113 0 -170.5 -60t-57.5 -175z" />
<glyph unicode="h" horiz-adv-x="1038" d="M152 63v1354q0 32 22 56t55 24q34 0 57 -23t23 -57v-450q114 86 256 86q159 0 239.5 -92t80.5 -248v-650q0 -33 -23.5 -56t-56.5 -23q-34 0 -57 22.5t-23 56.5v648q0 96 -42.5 144t-135.5 48q-67 0 -131.5 -30t-106.5 -87v-723q0 -34 -22 -56.5t-56 -22.5t-56.5 22.5 t-22.5 56.5z" />
<glyph unicode="i" horiz-adv-x="501" d="M152 1368q0 41 28.5 69.5t69.5 28.5t69.5 -28.5t28.5 -69.5q0 -40 -28.5 -69t-69.5 -29t-69.5 29t-28.5 69zM170 63v904q0 33 23.5 56.5t56.5 23.5t56.5 -23.5t23.5 -56.5v-904q0 -34 -23 -56.5t-57 -22.5t-57 22.5t-23 56.5z" />
<glyph unicode="j" horiz-adv-x="501" d="M-66 -362q-3 11 -3 21q0 23 15 39q21 22 50 28q88 20 131 73.5t43 161.5v1006q0 33 23.5 56.5t56.5 23.5t56.5 -23.5t23.5 -56.5v-998q0 -162 -75.5 -262.5t-213.5 -120.5q-16 -2 -39 -2q-25 0 -43.5 14.5t-24.5 39.5zM152 1368q0 41 28.5 69.5t69.5 28.5t69.5 -28.5 t28.5 -69.5q0 -40 -28.5 -69t-69.5 -29t-69.5 29t-28.5 69z" />
<glyph unicode="k" horiz-adv-x="899" d="M152 63v1342q0 34 22.5 57t56.5 23t57 -23t23 -57v-764l371 385q15 18 49 18q32 0 54 -21t22 -52q0 -32 -21 -53l-301 -308l346 -512q13 -20 13 -47q-1 -30 -23 -48.5t-53 -18.5q-43 0 -66 39l-317 483l-74 -76v-367q0 -34 -23 -56.5t-57 -22.5t-56.5 22.5t-22.5 56.5z " />
<glyph unicode="l" horiz-adv-x="466" d="M152 193v1212q0 33 23 56.5t56 23.5q34 0 57 -23t23 -57v-1212q0 -37 5.5 -58t23.5 -39q14 -19 14 -39q0 -31 -21 -52t-52 -21q-129 0 -129 209z" />
<glyph unicode="m" horiz-adv-x="1593" d="M106 944q0 31 22 51.5t54 20.5q49 0 82 -55q145 92 299 92q159 0 238 -105q137 105 297 105q163 0 252.5 -94.5t89.5 -253.5v-642q0 -34 -21 -55.5t-59 -21.5t-59 21.5t-21 55.5v637q0 91 -48 148t-138 57q-64 0 -126 -30.5t-100 -77.5q11 -53 11 -92v-642 q0 -34 -21 -55.5t-59 -21.5t-59 21.5t-21 55.5v594q0 60 -6.5 101t-24 76.5t-52 53t-87.5 17.5q-64 0 -128 -23.5t-110 -58.5q6 -37 6 -63v-697q0 -34 -20.5 -55.5t-58.5 -21.5t-59 21.5t-21 55.5v697q0 40 -4 66.5t-7 35t-13 23t-13 18.5q-1 1 -4 6.5t-5 9.5t-4 11t-2 14z " />
<glyph unicode="n" horiz-adv-x="1042" d="M106 944q0 31 22 51.5t54 20.5q47 0 86 -60q133 93 293 93q159 0 242.5 -104.5t83.5 -282.5v-599q0 -33 -21.5 -55t-58.5 -22t-58.5 22t-21.5 55v599q0 118 -48 180.5t-140 62.5q-114 0 -228 -86q6 -35 6 -59v-697q0 -34 -20.5 -55.5t-58.5 -21.5t-59 21.5t-21 55.5v697 q0 40 -4 66.5t-7 35t-13 23t-13 18.5q-1 1 -4 6.5t-5 9.5t-4 11t-2 14z" />
<glyph unicode="o" horiz-adv-x="950" d="M92 348v342q0 160 101 262.5t282 102.5t282 -102.5t101 -262.5v-342q0 -160 -100.5 -262t-282.5 -102t-282.5 102t-100.5 262zM252 348q0 -103 57 -160t166 -57t166 57t57 160v344q0 101 -57 158t-166 57t-166 -57t-57 -158v-344z" />
<glyph unicode="p" horiz-adv-x="978" d="M111 940q0 31 21.5 51.5t49.5 20.5q46 0 80 -49q169 90 299 90q157 0 241.5 -105t84.5 -282v-267q0 -95 -17.5 -168t-56 -129.5t-106 -86t-162.5 -29.5q-113 0 -228 39v-387q0 -34 -21 -56t-58 -22t-58.5 22.5t-21.5 55.5v1118q0 94 -33 143q-14 21 -14 41zM307 840 q10 -52 10 -84v-588q92 -43 207 -43q111 0 157 64.5t46 209.5v267q0 243 -199 243q-109 0 -221 -69z" />
<glyph unicode="q" horiz-adv-x="993" d="M92 358v324q0 164 97 267.5t278 103.5q173 0 274 -93.5t101 -236.5v-1085q0 -34 -21 -56t-59 -22t-59 22t-21 56v423q-118 -75 -262 -75q-328 0 -328 372zM252 358q0 -233 201 -233q142 0 229 94v504q0 86 -57.5 134t-157.5 48q-108 0 -161.5 -58t-53.5 -165v-324z" />
<glyph unicode="r" horiz-adv-x="690" d="M111 940q0 31 21.5 51.5t51.5 20.5q48 0 82 -56q64 40 142.5 64t138.5 24q106 0 106 -77q0 -37 -23.5 -60.5t-56.5 -21.5h-28q-33 1 -56 -1q-31 -2 -79.5 -19.5t-96.5 -53.5q4 -40 4 -55v-693q0 -34 -22.5 -56.5t-56.5 -22.5t-57 22.5t-23 56.5v693q0 94 -33 143 q-14 21 -14 41z" />
<glyph unicode="s" horiz-adv-x="831" d="M96 102q0 29 20.5 51.5t55.5 22.5q9 0 21 -4q116 -47 204 -47q89 0 139 37t50 114q0 51 -20 79t-56 48q-26 14 -74 31.5t-88 31.5t-86 39.5t-78 56t-53.5 81.5t-21.5 115q0 135 86 215t245 80q43 0 88 -6t88 -19t70 -36t27 -54q0 -30 -21 -52t-53 -22q-17 0 -37 10 q-80 37 -156 37q-182 0 -182 -143q0 -47 21.5 -75.5t74.5 -55.5q29 -15 92 -37t105 -42t88.5 -54.5t71 -89.5t24.5 -131q0 -140 -88.5 -219.5t-255.5 -79.5q-44 0 -91.5 5.5t-97 18t-81 37t-31.5 57.5z" />
<glyph unicode="t" horiz-adv-x="657" d="M152 416v856q0 34 21 56t58 22t58.5 -22.5t21.5 -55.5v-283h213q31 0 52.5 -22t21.5 -54t-21.5 -53.5t-52.5 -21.5h-213v-408q0 -86 5.5 -135.5t23.5 -87t51 -52t88 -14.5q6 0 19.5 1t19.5 1q107 0 107 -73q0 -47 -31.5 -62.5t-85.5 -15.5q-106 0 -176.5 25.5 t-109.5 81.5t-54.5 130.5t-15.5 186.5z" />
<glyph unicode="u" horiz-adv-x="1042" d="M152 371v598q0 34 21 56t58 22t58.5 -22.5t21.5 -55.5v-598q0 -118 48.5 -181t140.5 -63q117 0 225 68q-4 40 -4 57v717q0 34 21 56t59 22t59 -22t21 -56v-717q0 -40 4 -66.5t8 -35.5t13 -22t12 -19q14 -28 14 -41q0 -30 -22 -51t-54 -21q-50 0 -88 61q-129 -73 -291 -73 q-159 0 -242 104.5t-83 282.5z" />
<glyph unicode="v" horiz-adv-x="880" d="M55 952q-4 11 -4 21q1 23 19 44q26 30 63 30q53 0 72 -54l239 -772l236 772q7 23 28 38.5t44 15.5q37 0 61 -31q17 -22 17 -48q0 -11 -3 -22l-278 -866q-17 -51 -41.5 -73.5t-63.5 -22.5q-40 0 -63 21.5t-41 72.5z" />
<glyph unicode="w" horiz-adv-x="1341" d="M51 971q0 30 23.5 53t56.5 23q26 0 46.5 -15.5t27.5 -42.5l192 -753q119 467 185 739q8 32 32 52t60 20q34 0 57 -20t31 -52q23 -96 186 -739l191 753q6 25 26.5 41.5t46.5 16.5q31 0 54.5 -23.5t23.5 -56.5q0 -2 -1 -7.5t-1 -7.5l-235 -876q-14 -48 -37 -70t-66 -22 q-33 0 -59 18t-35 51l-184 719l-183 -719q-20 -69 -96 -69t-102 92l-238 882q-2 4 -2 13z" />
<glyph unicode="x" horiz-adv-x="882" d="M51 63q0 20 10 35l287 426l-268 406q-12 15 -12 35q0 33 23 57.5t56 24.5q21 0 40 -12.5t28 -24.5t23 -33l206 -318l215 334q17 28 33.5 41t42.5 13q29 0 53.5 -22.5t24.5 -53.5q0 -24 -10 -39l-268 -404l286 -426q10 -15 10 -34q0 -35 -22.5 -59.5t-58.5 -24.5 q-26 0 -42 12t-36 43l-232 356l-241 -370q-25 -41 -66 -41q-34 0 -58 22t-24 57z" />
<glyph unicode="y" horiz-adv-x="843" d="M33 973q0 32 23 53t57 21q52 0 71 -54l256 -776l224 776q9 26 29 40t44 14q32 0 56 -23t24 -57q0 -9 -4 -25l-250 -813q-25 -81 -41.5 -131t-42 -114t-48 -102.5t-55.5 -80t-68.5 -63.5t-83 -37.5t-103.5 -16.5q-35 0 -58.5 22t-23.5 56q0 29 21 52t55 24 q95 4 147.5 62.5t99.5 203.5l-325 940q-4 6 -4 29z" />
<glyph unicode="z" horiz-adv-x="786" d="M31 86q0 29 14 51l508 750h-428q-31 0 -52.5 21.5t-21.5 52.5q0 32 21.5 52.5t52.5 20.5h543q35 0 59.5 -22.5t24.5 -59.5q0 -28 -19 -57l-506 -748h453q32 0 54 -21t22 -52t-22 -52.5t-54 -21.5h-567q-33 0 -57.5 25t-24.5 61z" />
<glyph unicode="{" horiz-adv-x="854" d="M63 494q0 36 21.5 54.5t58.5 18.5q78 0 117 45t45 140q3 48 11 181.5t12 196.5q7 116 95.5 184t225.5 68q25 0 43.5 -3t37.5 -11.5t29.5 -27t10.5 -46.5q0 -33 -15 -48.5t-34 -14.5t-37 2q-32 4 -55 4q-57 0 -100 -35.5t-46 -95.5l-16 -342q-9 -199 -148 -270 q139 -71 148 -271l16 -342q3 -60 45.5 -95.5t98.5 -35.5q25 0 57 4q18 1 37 2t34 -14.5t15 -48.5q0 -28 -10.5 -46.5t-29.5 -27t-37.5 -11.5t-43.5 -3q-137 0 -225.5 68t-95.5 184l-23 379q-6 95 -45 139.5t-117 44.5q-36 0 -58 19t-22 55z" />
<glyph unicode="|" horiz-adv-x="464" d="M158 -418v1899q0 30 21.5 51.5t51.5 21.5q31 0 52.5 -22t21.5 -51v-1899q0 -30 -22 -52t-52 -22t-51.5 22t-21.5 52z" />
<glyph unicode="}" horiz-adv-x="854" d="M84 -307q0 33 15 48.5t34 14.5t37 -2q32 -4 57 -4q56 0 98.5 35.5t45.5 95.5l16 342q10 202 145 271q-136 69 -145 270l-16 342q-3 60 -46 95.5t-100 35.5q-23 0 -55 -4q-18 -1 -37 -2t-34 14.5t-15 48.5q0 28 10.5 46.5t29.5 27t37.5 11.5t43.5 3q137 0 225.5 -68 t95.5 -184q4 -63 12 -196.5t11 -181.5q6 -95 45 -140t117 -45q37 0 58.5 -18.5t21.5 -54.5t-22 -55t-58 -19q-78 0 -117 -44.5t-45 -139.5l-23 -379q-7 -116 -95.5 -184t-225.5 -68q-25 0 -43.5 3t-37.5 11.5t-29.5 27t-10.5 46.5z" />
<glyph unicode="~" horiz-adv-x="929" d="M125 651q0 66 61 113t142 47q56 0 133.5 -38.5t111.5 -41.5q31 0 55 10t36.5 22t30 23.5t36.5 14.5q30 0 52 -23.5t22 -56.5q0 -60 -65 -102.5t-138 -47.5q-58 0 -137 38.5t-109 41.5q-30 0 -54.5 -10.5t-37.5 -23t-30 -23t-35 -10.5q-28 0 -49 18.5t-25 48.5z" />
<glyph unicode="&#xa1;" horiz-adv-x="464" d="M125 932q0 46 32.5 79t78.5 33q44 0 76 -33t32 -79q0 -44 -32 -76.5t-76 -32.5q-46 0 -78.5 32.5t-32.5 76.5zM150 -358l20 968q0 27 17.5 46.5t43.5 19.5q25 0 43.5 -20t18.5 -46l20 -968q0 -33 -24.5 -57.5t-57.5 -24.5t-57 24.5t-24 57.5z" />
<glyph unicode="&#xa2;" d="M147 422v207q0 154 78 254.5t234 117.5v91q0 22 15 37.5t38 15.5t38 -15.5t15 -37.5v-88q40 -3 78.5 -11.5t75 -22.5t58.5 -37.5t22 -51.5t-20.5 -49t-49.5 -21q-15 0 -33 6q-80 39 -131 45v-676q46 5 131 47q21 7 33 7q29 0 49.5 -21t20.5 -49q0 -29 -22 -52.5 t-58.5 -37.5t-75 -22t-78.5 -11v-104q0 -22 -15.5 -38t-37.5 -16t-37.5 16t-15.5 38v104q-156 17 -234 118t-78 257zM307 422q0 -97 36 -154t116 -75v663q-152 -32 -152 -227v-207z" />
<glyph unicode="&#xa5;" horiz-adv-x="974" d="M31 1380q0 33 25.5 58.5t58.5 25.5q46 0 63 -32l309 -674l310 674q17 32 63 32q33 0 58.5 -25.5t25.5 -58.5q0 -19 -8 -39l-277 -585h154q31 0 55.5 -22t24.5 -54t-23 -54t-57 -22h-223l-19 -41v-74h242q32 0 56 -22t24 -53q0 -32 -23 -54t-57 -22h-242v-272 q0 -34 -24.5 -60t-59.5 -26t-59.5 25.5t-24.5 60.5v272h-241q-34 0 -57 22t-23 54q0 31 24 53t56 22h241v78l-18 37h-223q-34 0 -57 22t-23 54t24.5 54t55.5 22h151l-274 585q-8 20 -8 39z" />
<glyph unicode="&#xa8;" horiz-adv-x="825" d="M147 1309q0 39 28 67.5t67 28.5q41 0 69.5 -28t28.5 -68q0 -42 -28.5 -71.5t-69.5 -29.5q-39 0 -67 30.5t-28 70.5zM492 1309q0 38 29 67t69 29t68 -28t28 -68q0 -41 -28 -71t-68 -30q-39 0 -68.5 30.5t-29.5 70.5z" />
<glyph unicode="&#xa9;" horiz-adv-x="1515" d="M131 641q0 195 71 342.5t214 232t342 84.5t341.5 -84.5t213.5 -232t71 -342.5t-71 -342.5t-213.5 -232t-341.5 -84.5t-342 84.5t-214 232t-71 342.5zM254 641q0 -242 132.5 -389.5t371.5 -147.5t371.5 147.5t132.5 389.5t-132.5 389.5t-371.5 147.5t-371.5 -147.5 t-132.5 -389.5zM483 580v125q0 134 73 217.5t220 83.5q46 0 94.5 -8t91 -32.5t42.5 -60.5q0 -22 -16.5 -38.5t-39.5 -16.5q-6 0 -26 4q-66 39 -131 39q-181 0 -181 -188v-125q0 -93 43.5 -141t137.5 -48q10 0 20.5 1t18 2t18 4t15.5 4.5t16 6t13.5 6t15 7t14.5 6.5 q15 6 26 6q23 0 39.5 -17t16.5 -40q0 -27 -24 -47t-61.5 -30.5t-73.5 -15.5t-69 -5q-147 0 -220 83t-73 218z" />
<glyph unicode="&#xab;" horiz-adv-x="882" d="M84 524l311 469q17 28 33.5 41t42.5 13q29 0 53.5 -22.5t24.5 -53.5q0 -24 -10 -39l-269 -404l287 -426q10 -15 10 -34q0 -35 -23 -59.5t-59 -24.5q-26 0 -41.5 12t-35.5 43zM412 524l233 353q17 27 33.5 40t42.5 13q29 0 53.5 -22.5t24.5 -53.5q0 -22 -11 -39l-190 -291 l190 -291q11 -16 11 -38q0 -31 -24.5 -53.5t-53.5 -22.5q-26 0 -42.5 13t-33.5 40z" />
<glyph unicode="&#xad;" horiz-adv-x="817" d="M78 604q0 31 22 53.5t54 22.5h510q30 0 51.5 -22.5t21.5 -53.5t-21 -52.5t-52 -21.5h-510q-32 0 -54 21.5t-22 52.5z" />
<glyph unicode="&#xae;" horiz-adv-x="1433" d="M131 866q0 183 66 321t200 218t320 80t320 -80t200 -218t66 -321q0 -177 -66 -310.5t-200 -210.5t-320 -77t-320 77t-200 210.5t-66 310.5zM254 866q0 -215 121 -345t342 -130t342 130t121 345q0 224 -121 360t-342 136t-342 -136t-121 -360zM496 606v522q0 28 20.5 49 t46.5 21h158q115 0 169 -59t54 -144q0 -128 -106 -178l131 -199q6 -18 6 -24q0 -16 -22.5 -27.5t-43.5 -11.5q-36 0 -53 20l-141 222h-97v-191q0 -20 -19 -35.5t-44 -15.5q-24 0 -41.5 15t-17.5 36zM618 915h105q98 0 98 80q0 82 -104 82h-99v-162z" />
<glyph unicode="&#xaf;" horiz-adv-x="825" d="M82 1305q0 31 22 53t54 22h510q31 0 52 -22t21 -53t-21 -52.5t-52 -21.5h-510q-32 0 -54 21.5t-22 52.5z" />
<glyph unicode="&#xb0;" horiz-adv-x="802" d="M113 1180q0 125 76 205.5t212 80.5t212.5 -80.5t76.5 -205.5t-76.5 -206t-212.5 -81q-135 0 -211.5 81t-76.5 206zM252 1184q0 -164 149 -164q150 0 150 164q0 155 -150 155q-149 0 -149 -155z" />
<glyph unicode="&#xb1;" d="M25 80q0 33 24 56.5t55 23.5h816q31 0 55 -23.5t24 -56.5q0 -34 -22.5 -57t-56.5 -23h-816q-34 0 -56.5 23t-22.5 57zM25 786q0 33 24 56.5t55 23.5h328v348q0 31 23.5 55.5t56.5 24.5q34 0 57 -23t23 -57v-348h328q31 0 55 -23.5t24 -56.5q0 -34 -22.5 -56.5 t-56.5 -22.5h-328v-349q0 -34 -23 -56.5t-57 -22.5q-33 0 -56.5 24t-23.5 55v349h-328q-34 0 -56.5 22.5t-22.5 56.5z" />
<glyph unicode="&#xb2;" horiz-adv-x="512" d="M33 846q0 23 10 43q18 43 51 88t58 71t71 70q8 9 42.5 44.5t45.5 49.5q54 50 54 117q0 55 -29.5 88t-85.5 33q-38 0 -90 -18l-27 -13q-23 -14 -39 -14q-18 0 -34.5 12.5t-16.5 30.5q0 23 12 35q95 61 195 61q98 0 154.5 -57.5t56.5 -145.5q0 -110 -70 -194 q-11 -14 -65 -68l-21 -20q-106 -98 -145 -166h260q18 0 31.5 -15t13.5 -36q0 -19 -13.5 -31t-31.5 -12h-332q-25 0 -40 12.5t-15 34.5z" />
<glyph unicode="&#xb3;" horiz-adv-x="512" d="M41 868q0 22 14 37t35 15q5 0 31 -13q50 -28 106 -28q70 0 101.5 41.5t31.5 99.5q0 63 -34.5 93t-92.5 30q-22 0 -34 -6l-6 -4q-3 -3 -17 -3q-27 0 -39.5 25.5t4.5 48.5l168 221h-203q-23 0 -38 12.5t-15 32.5q0 24 15 40t38 16h281q23 0 36 -16t13 -44t-6 -34l-160 -205 q82 -6 135.5 -61.5t53.5 -143.5q0 -56 -20.5 -107t-70.5 -89t-122 -38q-22 0 -50.5 3t-66.5 10.5t-63 25t-25 41.5z" />
<glyph unicode="&#xb4;" horiz-adv-x="565" d="M158 1247q0 19 10 31l160 166l18 18t17 16t16 8.5t24 4.5q23 0 43.5 -20t20.5 -48q0 -21 -10 -34l-166 -177q-16 -14 -23 -20t-18.5 -11t-24.5 -5q-28 0 -47.5 19.5t-19.5 51.5z" />
<glyph unicode="&#xb7;" horiz-adv-x="522" d="M145 561q0 44 32.5 76.5t76.5 32.5q46 0 78.5 -32.5t32.5 -76.5q0 -46 -32.5 -78t-78.5 -32q-44 0 -76.5 32.5t-32.5 77.5z" />
<glyph unicode="&#xb8;" horiz-adv-x="614" d="M119 -336q5 10 11.5 15t17.5 5t20 -2t27.5 -6.5t31.5 -7.5q66 -12 104 16.5t38 67.5q0 68 -123 74q-49 3 -65.5 16t-10.5 49l27 150h100l-21 -123q226 -3 226 -180q0 -83 -75 -136t-210 -34q-51 6 -83.5 34.5t-14.5 61.5z" />
<glyph unicode="&#xb9;" horiz-adv-x="512" d="M57 1354q0 25 27 45l199 125q15 10 28 10q22 0 36.5 -15.5t14.5 -39.5v-645q0 -18 -14.5 -32t-34.5 -14q-23 0 -38 14t-15 32v569l-106 -74q-29 -18 -48 -18q-20 0 -34.5 13t-14.5 30z" />
<glyph unicode="&#xba;" horiz-adv-x="786" d="M102 1004v163q0 131 75.5 214t215.5 83t215.5 -83t75.5 -214v-163q0 -131 -75.5 -213t-215.5 -82t-215.5 82t-75.5 213zM240 999q0 -163 153 -163q154 0 154 163v160q0 87 -36 131.5t-118 44.5t-117.5 -44.5t-35.5 -131.5v-160z" />
<glyph unicode="&#xbb;" horiz-adv-x="882" d="M84 195q0 23 10 38l191 291l-191 291q-10 15 -10 39q0 31 24.5 53.5t53.5 22.5q26 0 42.5 -13t33.5 -40l233 -353l-233 -352q-17 -27 -33.5 -40t-42.5 -13q-29 0 -53.5 22.5t-24.5 53.5zM315 68q0 18 11 34l286 426l-268 404q-10 15 -10 39q0 31 24.5 53.5t53.5 22.5 q26 0 42 -13t33 -41l312 -469l-324 -485q-20 -31 -36 -43t-42 -12q-36 0 -59 24.5t-23 59.5z" />
<glyph unicode="&#xbf;" horiz-adv-x="946" d="M76 -70q0 -168 111 -279.5t300 -111.5q201 0 344 92q54 35 54 78q0 33 -23.5 54.5t-54.5 21.5q-16 0 -34.5 -8.5t-44.5 -24.5t-44 -24q-86 -39 -195 -39q-122 0 -187.5 73.5t-65.5 190.5q0 131 112 260q18 23 74 85.5t89.5 111t53.5 104.5q13 30 13 80q0 33 -24.5 57.5 t-57.5 24.5t-57.5 -24.5t-24.5 -57.5q0 -50 -13 -80q-16 -35 -46 -68.5t-70.5 -72.5t-61.5 -64q-71 -79 -109 -169t-38 -210zM385 932q0 46 32.5 79t76.5 33q46 0 78 -33t32 -79q0 -44 -32 -76.5t-78 -32.5q-44 0 -76.5 32.5t-32.5 76.5z" />
<glyph unicode="&#xc0;" horiz-adv-x="1124" d="M51 61q0 19 4 31l400 1264q32 108 106 108q43 0 67.5 -27.5t41.5 -80.5l399 -1264q4 -12 4 -31q0 -36 -24.5 -58.5t-61.5 -22.5q-25 0 -49 17t-31 44l-88 285h-518l-86 -285q-9 -27 -32 -44t-46 -17q-36 0 -61 22.5t-25 58.5zM325 1833q0 28 20.5 48t43.5 20 q13 0 24 -4.5t16 -8t18 -16.5l18 -18l159 -166q11 -14 11 -31q0 -31 -20.5 -51t-47.5 -20q-30 0 -66 36l-165 177q-11 14 -11 34zM350 485h422l-211 695z" />
<glyph unicode="&#xc1;" horiz-adv-x="1124" d="M51 61q0 -36 25 -58.5t61 -22.5q23 0 46 17t32 44l86 285h518l88 -285q7 -27 31 -44t49 -17q37 0 61.5 22.5t24.5 58.5q0 19 -4 31l-399 1264q-17 53 -41.5 80.5t-67.5 27.5q-74 0 -106 -108l-400 -1264q-4 -12 -4 -31zM350 485l211 695l211 -695h-422zM496 1657 q0 19 10 31l160 165q7 6 18.5 18t16.5 16.5t16 9t24 4.5q23 0 43.5 -20t20.5 -48q0 -23 -10 -35l-166 -176q-13 -12 -17.5 -16t-14 -10.5t-17 -8.5t-17.5 -2q-28 0 -47.5 20t-19.5 52z" />
<glyph unicode="&#xc2;" horiz-adv-x="1124" d="M51 61q0 19 4 31l400 1264q32 108 106 108q43 0 67.5 -27.5t41.5 -80.5l399 -1264q4 -12 4 -31q0 -36 -24.5 -58.5t-61.5 -22.5q-25 0 -49 17t-31 44l-88 285h-518l-86 -285q-9 -27 -32 -44t-46 -17q-36 0 -61 22.5t-25 58.5zM318 1629q0 28 37 61l161 137q26 17 45 17 q21 0 46 -17l161 -137q37 -33 37 -61q0 -21 -16 -37.5t-37 -16.5q-27 0 -37 13l-154 125l-153 -125q-10 -13 -39 -13q-20 0 -35.5 16.5t-15.5 37.5zM350 485h422l-211 695z" />
<glyph unicode="&#xc3;" horiz-adv-x="1124" d="M51 61q0 -36 25 -58.5t61 -22.5q23 0 46 17t32 44l86 285h518l88 -285q7 -27 31 -44t49 -17q37 0 61.5 22.5t24.5 58.5q0 19 -4 31l-399 1264q-17 53 -41.5 80.5t-67.5 27.5q-74 0 -106 -108l-400 -1264q-4 -12 -4 -31zM279 1681q0 56 50 95t117 39q47 0 112 -31.5 t93 -34.5q44 0 78 27.5t53 29.5q25 0 43.5 -19t18.5 -46q0 -51 -53.5 -86.5t-114.5 -38.5q-49 0 -115 31.5t-90 33.5q-42 0 -77 -27.5t-54 -27.5q-24 0 -41 15.5t-20 39.5zM350 485l211 695l211 -695h-422z" />
<glyph unicode="&#xc4;" horiz-adv-x="1124" d="M51 61q0 19 4 31l400 1264q32 108 106 108q43 0 67.5 -27.5t41.5 -80.5l399 -1264q4 -12 4 -31q0 -36 -24.5 -58.5t-61.5 -22.5q-25 0 -49 17t-31 44l-88 285h-518l-86 -285q-9 -27 -32 -44t-46 -17q-36 0 -61 22.5t-25 58.5zM292 1719q0 39 28 67.5t67 28.5 q41 0 69.5 -28t28.5 -68q0 -42 -28.5 -71.5t-69.5 -29.5q-39 0 -67 30.5t-28 70.5zM350 485h422l-211 695zM637 1719q0 38 29 67t69 29t68 -28t28 -68q0 -41 -28 -71t-68 -30q-39 0 -68.5 30.5t-29.5 70.5z" />
<glyph unicode="&#xc5;" horiz-adv-x="1124" d="M51 61q0 19 4 31l381 1204q-47 31 -73.5 80.5t-26.5 108.5q0 93 66 159t161 66q94 0 159.5 -65.5t65.5 -159.5q0 -58 -27 -107.5t-73 -81.5l381 -1204q4 -12 4 -31q0 -36 -24.5 -58.5t-61.5 -22.5q-25 0 -49 17t-31 44l-88 285h-518l-86 -285q-9 -27 -32 -44t-46 -17 q-36 0 -61 22.5t-25 58.5zM350 485h422l-211 695zM440 1485q0 -51 36 -87t87 -36t87 35.5t36 87.5q0 51 -36 88t-87 37t-87 -37t-36 -88z" />
<glyph unicode="&#xc6;" horiz-adv-x="1478" d="M51 61q0 19 4 31l396 1243q32 109 106 109h752q34 0 58 -24t24 -58q0 -33 -24 -55.5t-58 -22.5h-426v-479h387q31 0 55.5 -23.5t24.5 -56.5q0 -34 -23 -57t-57 -23h-387v-485h446q32 0 57 -22.5t25 -53.5q0 -35 -24 -59.5t-58 -24.5h-481q-129 0 -129 96v230h-418 l-86 -285q-7 -26 -31 -43.5t-47 -17.5q-37 0 -61.5 22.5t-24.5 58.5zM350 485h369v799h-103q-26 0 -26 -20z" />
<glyph unicode="&#xc7;" horiz-adv-x="987" d="M92 504v438q0 244 115.5 383t345.5 139q141 0 251.5 -52.5t110.5 -123.5q0 -30 -20.5 -50.5t-52.5 -20.5q-10 0 -19.5 3t-15 6t-18.5 11.5t-21 13.5q-91 64 -205 64q-166 0 -236.5 -95.5t-70.5 -277.5v-438q0 -182 70.5 -277.5t236.5 -95.5q114 0 205 64q10 6 22 13.5 t18 11t15 6.5t19 3q32 0 52.5 -20.5t20.5 -50.5q0 -71 -110.5 -123.5t-251.5 -52.5h-18l-11 -64q226 -3 226 -180q0 -83 -75 -136t-210 -34q-51 6 -83.5 34.5t-14.5 61.5q5 10 11.5 15t17.5 5t20 -2t27.5 -6.5t31.5 -7.5q66 -12 103.5 16.5t37.5 67.5q0 68 -122 74 q-49 3 -65.5 16t-10.5 49l18 101q-173 33 -258.5 166.5t-85.5 345.5z" />
<glyph unicode="&#xc8;" horiz-adv-x="970" d="M150 96v1252q0 37 28 66.5t68 29.5h555q34 0 58 -24t24 -58q0 -33 -24 -55.5t-58 -22.5h-488v-479h449q31 0 55.5 -23.5t24.5 -56.5q0 -34 -23 -57t-57 -23h-449v-485h508q32 0 57 -22.5t25 -53.5q0 -35 -24 -59.5t-58 -24.5h-542q-129 0 -129 96zM329 1833q0 28 20.5 48 t43.5 20q13 0 24 -4.5t16 -8t18 -16.5l18 -18l159 -166q11 -14 11 -31q0 -31 -20.5 -51t-47.5 -20q-30 0 -66 36l-165 177q-11 14 -11 34z" />
<glyph unicode="&#xc9;" horiz-adv-x="970" d="M150 96v1252q0 37 28 66.5t68 29.5h555q34 0 58 -24t24 -58q0 -33 -24 -55.5t-58 -22.5h-488v-479h449q31 0 55.5 -23.5t24.5 -56.5q0 -34 -23 -57t-57 -23h-449v-485h508q32 0 57 -22.5t25 -53.5q0 -35 -24 -59.5t-58 -24.5h-542q-129 0 -129 96zM414 1657q0 19 10 31 l160 165q7 6 18.5 18t16.5 16.5t16 9t24 4.5q23 0 43.5 -20t20.5 -48q0 -23 -10 -35l-166 -176q-13 -12 -17.5 -16t-14 -10.5t-17 -8.5t-17.5 -2q-28 0 -47.5 20t-19.5 52z" />
<glyph unicode="&#xca;" horiz-adv-x="970" d="M150 96v1252q0 37 28 66.5t68 29.5h555q34 0 58 -24t24 -58q0 -33 -24 -55.5t-58 -22.5h-488v-479h449q31 0 55.5 -23.5t24.5 -56.5q0 -34 -23 -57t-57 -23h-449v-485h508q32 0 57 -22.5t25 -53.5q0 -35 -24 -59.5t-58 -24.5h-542q-129 0 -129 96zM291 1629q0 28 37 61 l161 137q25 17 45 17t46 -17l161 -137q37 -33 37 -61q0 -21 -16 -37.5t-37 -16.5q-27 0 -37 13l-154 125l-153 -125q-10 -13 -39 -13q-20 0 -35.5 16.5t-15.5 37.5z" />
<glyph unicode="&#xcb;" horiz-adv-x="970" d="M150 96v1252q0 37 28 66.5t68 29.5h555q34 0 58 -24t24 -58q0 -33 -24 -55.5t-58 -22.5h-488v-479h449q31 0 55.5 -23.5t24.5 -56.5q0 -34 -23 -57t-57 -23h-449v-485h508q32 0 57 -22.5t25 -53.5q0 -35 -24 -59.5t-58 -24.5h-542q-129 0 -129 96zM264 1718q0 39 27.5 68 t66.5 29q41 0 70 -28.5t29 -68.5q0 -41 -29 -70.5t-70 -29.5q-39 0 -66.5 30t-27.5 70zM608 1718q0 38 29.5 67.5t69.5 29.5t68 -28.5t28 -68.5q0 -41 -28 -70.5t-68 -29.5t-69.5 30t-29.5 70z" />
<glyph unicode="&#xcc;" horiz-adv-x="464" d="M22 1833q0 28 20.5 48t43.5 20q13 0 24 -4.5t16 -8t18 -16.5l18 -18l159 -166q11 -14 11 -31q0 -31 -20.5 -51t-47.5 -20q-30 0 -66 36l-165 177q-11 14 -11 34zM150 61v1321q0 33 24 57.5t57 24.5t57.5 -24.5t24.5 -57.5v-1321q0 -33 -24.5 -57t-57.5 -24t-57 24t-24 57 z" />
<glyph unicode="&#xcd;" horiz-adv-x="464" d="M133 1657q0 19 10 31l160 165q6 6 18 18.5t17.5 16.5t16.5 8.5t24 4.5q23 0 43 -20t20 -48q0 -23 -10 -35l-166 -176q-33 -30 -47 -35q-8 -2 -18 -2q-28 0 -48 20t-20 52zM150 61v1321q0 33 24 57.5t57 24.5t57.5 -24.5t24.5 -57.5v-1321q0 -33 -24.5 -57t-57.5 -24 t-57 24t-24 57z" />
<glyph unicode="&#xce;" horiz-adv-x="464" d="M-10 1629q0 28 37 61l161 137q26 17 45 17q21 0 46 -17l161 -137q37 -33 37 -61q0 -21 -16 -37.5t-37 -16.5q-27 0 -37 13l-154 125l-153 -125q-10 -13 -39 -13q-20 0 -35.5 16.5t-15.5 37.5zM150 61v1321q0 33 24 57.5t57 24.5t57.5 -24.5t24.5 -57.5v-1321 q0 -33 -24.5 -57t-57.5 -24t-57 24t-24 57z" />
<glyph unicode="&#xcf;" horiz-adv-x="464" d="M-37 1718q0 39 27.5 68t66.5 29q41 0 70 -28.5t29 -68.5q0 -41 -29 -70.5t-70 -29.5q-39 0 -66.5 30t-27.5 70zM150 61v1321q0 33 24 57.5t57 24.5t57.5 -24.5t24.5 -57.5v-1321q0 -33 -24.5 -57t-57.5 -24t-57 24t-24 57zM307 1718q0 38 29.5 67.5t69.5 29.5t68 -28.5 t28 -68.5q0 -41 -28 -70.5t-68 -29.5t-69.5 30t-29.5 70z" />
<glyph unicode="&#xd0;" horiz-adv-x="1175" d="M35 723q0 31 22 53.5t54 22.5h79v549q0 40 29.5 69t69.5 29h231q122 0 218.5 -28.5t160 -76.5t105 -115.5t59.5 -142t18 -159.5v-383q0 -88 -17.5 -164.5t-59.5 -147t-105 -120.5t-160 -79.5t-219 -29.5h-231q-40 0 -69.5 29t-29.5 69v551h-79q-32 0 -54 21.5t-22 52.5z M354 160h201q98 0 170 29.5t113 82.5t60.5 120t19.5 149v383q0 79 -20 142.5t-61.5 114t-113 78t-168.5 27.5h-201v-487h267q30 0 51.5 -22.5t21.5 -53.5t-21 -52.5t-52 -21.5h-267v-489z" />
<glyph unicode="&#xd1;" horiz-adv-x="1228" d="M150 63v1311q0 38 25 64t63 26q27 0 50.5 -13t35.5 -36l589 -1089v1054q0 34 25 59t59 25q33 0 56.5 -25t23.5 -59v-1310q0 -37 -25.5 -63.5t-64.5 -26.5q-25 0 -48.5 13t-35.5 34l-590 1091v-1055q0 -34 -25 -58.5t-59 -24.5q-33 0 -56 24.5t-23 58.5zM332 1682 q0 56 50.5 94.5t117.5 38.5q47 0 111.5 -31.5t92.5 -34.5q44 0 78.5 28t53.5 30q25 0 43 -19t18 -47q0 -51 -53.5 -86.5t-114.5 -38.5q-49 0 -115 32t-90 34q-42 0 -77 -27.5t-54 -27.5q-24 0 -41 15.5t-20 39.5z" />
<glyph unicode="&#xd2;" horiz-adv-x="1128" d="M92 504v438q0 110 26.5 202t81.5 165t147.5 114t215.5 41t215.5 -41t147.5 -114t81.5 -165t26.5 -202v-438q0 -149 -51.5 -265.5t-159.5 -187.5t-260 -71t-260 71t-159.5 187.5t-51.5 265.5zM256 504q0 -168 77 -266.5t230 -98.5t230 98.5t77 266.5v438q0 363 -307 363 t-307 -363v-438zM366 1833q0 28 20.5 48t43.5 20q13 0 24 -4.5t16 -8t18 -16.5l18 -18l159 -166q11 -14 11 -31q0 -31 -20.5 -51t-47.5 -20q-30 0 -66 36l-165 177q-11 14 -11 34z" />
<glyph unicode="&#xd3;" horiz-adv-x="1128" d="M92 504v438q0 110 26.5 202t81.5 165t147.5 114t215.5 41t215.5 -41t147.5 -114t81.5 -165t26.5 -202v-438q0 -149 -51.5 -265.5t-159.5 -187.5t-260 -71t-260 71t-159.5 187.5t-51.5 265.5zM256 504q0 -168 77 -266.5t230 -98.5t230 98.5t77 266.5v438q0 363 -307 363 t-307 -363v-438zM469 1657q0 19 10 31l160 165q6 6 18 18.5t17.5 16.5t16.5 8.5t24 4.5q23 0 43 -20t20 -48q0 -23 -10 -35l-166 -176q-33 -30 -47 -35q-8 -2 -18 -2q-28 0 -48 20t-20 52z" />
<glyph unicode="&#xd4;" horiz-adv-x="1128" d="M92 504v438q0 110 26.5 202t81.5 165t147.5 114t215.5 41t215.5 -41t147.5 -114t81.5 -165t26.5 -202v-438q0 -149 -51.5 -265.5t-159.5 -187.5t-260 -71t-260 71t-159.5 187.5t-51.5 265.5zM256 504q0 -168 77 -266.5t230 -98.5t230 98.5t77 266.5v438q0 363 -307 363 t-307 -363v-438zM320 1629q0 28 37 61l161 137q26 17 45 17q21 0 46 -17l161 -137q37 -33 37 -61q0 -21 -16 -37.5t-37 -16.5q-27 0 -37 13l-154 125l-153 -125q-10 -13 -39 -13q-20 0 -35.5 16.5t-15.5 37.5z" />
<glyph unicode="&#xd5;" horiz-adv-x="1128" d="M92 504v438q0 110 26.5 202t81.5 165t147.5 114t215.5 41t215.5 -41t147.5 -114t81.5 -165t26.5 -202v-438q0 -149 -51.5 -265.5t-159.5 -187.5t-260 -71t-260 71t-159.5 187.5t-51.5 265.5zM256 504q0 -168 77 -266.5t230 -98.5t230 98.5t77 266.5v438q0 363 -307 363 t-307 -363v-438zM281 1681q0 56 50.5 95t117.5 39q47 0 111.5 -31.5t92.5 -34.5q44 0 78 27.5t53 29.5q25 0 43.5 -19t18.5 -46q0 -51 -53.5 -86.5t-114.5 -38.5q-49 0 -115 31.5t-90 33.5q-42 0 -77 -27.5t-54 -27.5q-24 0 -41 15.5t-20 39.5z" />
<glyph unicode="&#xd6;" horiz-adv-x="1128" d="M92 504v438q0 110 26.5 202t81.5 165t147.5 114t215.5 41t215.5 -41t147.5 -114t81.5 -165t26.5 -202v-438q0 -149 -51.5 -265.5t-159.5 -187.5t-260 -71t-260 71t-159.5 187.5t-51.5 265.5zM256 504q0 -168 77 -266.5t230 -98.5t230 98.5t77 266.5v438q0 363 -307 363 t-307 -363v-438zM294 1719q0 39 28 67.5t67 28.5q41 0 69.5 -28t28.5 -68q0 -42 -28.5 -71.5t-69.5 -29.5q-39 0 -67 30.5t-28 70.5zM639 1719q0 38 29 67t69 29t68 -28t28 -68q0 -41 -28 -71t-68 -30q-39 0 -68.5 30.5t-29.5 70.5z" />
<glyph unicode="&#xd7;" d="M129 422q0 32 25 57l245 246l-245 246q-24 22 -24 55t24 57q23 25 55 25t57 -25l246 -245l246 245q25 25 57 25t55 -25q24 -24 24 -57t-24 -55l-245 -246l245 -246q25 -25 25 -57t-25 -55q-24 -24 -57 -24t-55 24l-246 245l-246 -245q-22 -24 -55 -24t-57 24 q-25 23 -25 55z" />
<glyph unicode="&#xd8;" horiz-adv-x="1128" d="M41.5 39.5q-3.5 21.5 9.5 40.5l101 143q-60 126 -60 281v438q0 110 26.5 202t81.5 165t147.5 114t215.5 41q233 0 355 -145l73 104q12 19 34.5 23t41.5 -8q18 -12 21.5 -33.5t-9.5 -40.5l-100 -143q55 -119 55 -279v-438q0 -149 -51.5 -265.5t-159.5 -187.5t-260 -71 q-222 0 -350 147l-74 -107q-12 -18 -34.5 -22t-41.5 8q-18 12 -21.5 33.5zM256 504q0 -73 10 -117l553 791q-75 127 -256 127q-307 0 -307 -363v-438zM311 266q78 -127 252 -127q153 0 230 98.5t77 266.5v438q0 53 -10 111z" />
<glyph unicode="&#xd9;" horiz-adv-x="1171" d="M133 471v907q0 37 24.5 61.5t59.5 24.5q32 0 56 -25.5t24 -60.5v-907q0 -153 73 -242.5t216 -89.5q142 0 214 90t72 242v907q0 34 23.5 60t56.5 26q36 0 61 -26t25 -60v-907q0 -218 -121 -354.5t-331 -136.5q-213 0 -333 136.5t-120 354.5zM360 1833q0 28 20.5 48 t43.5 20q13 0 24 -4.5t16 -8t18 -16.5l18 -18l159 -166q11 -14 11 -31q0 -31 -20.5 -51t-47.5 -20q-30 0 -66 36l-165 177q-11 14 -11 34z" />
<glyph unicode="&#xda;" horiz-adv-x="1171" d="M133 471v907q0 37 24.5 61.5t59.5 24.5q32 0 56 -25.5t24 -60.5v-907q0 -153 73 -242.5t216 -89.5q142 0 214 90t72 242v907q0 34 23.5 60t56.5 26q36 0 61 -26t25 -60v-907q0 -218 -121 -354.5t-331 -136.5q-213 0 -333 136.5t-120 354.5zM504 1657q0 19 10 31l160 165 q6 6 18 18.5t17.5 16.5t16.5 8.5t24 4.5q23 0 43 -20t20 -48q0 -23 -10 -35l-166 -176q-13 -12 -17.5 -16t-14 -10.5t-17 -8.5t-17.5 -2q-28 0 -47.5 20t-19.5 52z" />
<glyph unicode="&#xdb;" horiz-adv-x="1171" d="M133 471v907q0 37 24.5 61.5t59.5 24.5q32 0 56 -25.5t24 -60.5v-907q0 -153 73 -242.5t216 -89.5q142 0 214 90t72 242v907q0 34 23.5 60t56.5 26q36 0 61 -26t25 -60v-907q0 -218 -121 -354.5t-331 -136.5q-213 0 -333 136.5t-120 354.5zM342 1629q0 28 37 61l161 137 q26 17 45 17q21 0 46 -17l161 -137q37 -33 37 -61q0 -21 -16 -37.5t-37 -16.5q-27 0 -37 13l-154 125l-153 -125q-10 -13 -39 -13q-20 0 -35.5 16.5t-15.5 37.5z" />
<glyph unicode="&#xdc;" horiz-adv-x="1171" d="M133 471v907q0 37 24.5 61.5t59.5 24.5q32 0 56 -25.5t24 -60.5v-907q0 -153 73 -242.5t216 -89.5q142 0 214 90t72 242v907q0 34 23.5 60t56.5 26q36 0 61 -26t25 -60v-907q0 -218 -121 -354.5t-331 -136.5q-213 0 -333 136.5t-120 354.5zM315 1718q0 39 28 68t67 29 q41 0 69.5 -28.5t28.5 -68.5q0 -41 -28.5 -70.5t-69.5 -29.5q-39 0 -67 30t-28 70zM659 1718q0 38 29.5 67.5t69.5 29.5t68 -28.5t28 -68.5q0 -41 -28 -70.5t-68 -29.5t-69.5 30t-29.5 70z" />
<glyph unicode="&#xdd;" horiz-adv-x="974" d="M31 1380q0 33 25.5 58.5t58.5 25.5q46 0 63 -32l309 -674l310 674q17 32 63 32q33 0 58.5 -25.5t25.5 -58.5q0 -19 -8 -39l-365 -778v-497q0 -34 -24.5 -60t-59.5 -26t-59.5 25.5t-24.5 60.5v501l-364 774q-8 20 -8 39zM334 1657q0 19 10 31l160 166l18 18t17 16t16 8.5 t24 4.5q23 0 43.5 -20t20.5 -48q0 -21 -10 -34l-166 -177q-16 -14 -23 -20t-18.5 -11t-24.5 -5q-28 0 -47.5 19.5t-19.5 51.5z" />
<glyph unicode="&#xde;" horiz-adv-x="1085" d="M150 61v1321q0 33 24 57.5t57 24.5t57.5 -24.5t24.5 -57.5v-182h236q123 0 214.5 -37.5t144 -103.5t77.5 -146t25 -174q0 -215 -123.5 -333.5t-337.5 -118.5h-236v-226q0 -33 -24.5 -57t-57.5 -24t-57 24t-24 57zM313 446h236q297 0 297 295q0 299 -297 299h-236v-594z " />
<glyph unicode="&#xdf;" horiz-adv-x="1114" d="M150 -53v1065q0 217 104.5 339t296.5 122q166 0 270.5 -90t104.5 -250q0 -106 -48 -179t-130 -110q-12 -5 -34 -13t-38 -14.5t-32 -14.5t-23.5 -17t-4.5 -19q2 -7 8.5 -12.5t19 -11t25 -9.5t36 -11.5t43.5 -14.5q303 -111 303 -373q0 -160 -95 -251t-270 -91 q-24 0 -46.5 1t-65 6t-73 14t-54 28t-23.5 45q0 29 20 51.5t62 22.5q22 0 84 -11.5t94 -11.5q81 0 144 48.5t63 144.5q0 55 -23 102.5t-61.5 80.5t-77.5 54.5t-82 36.5q-9 3 -30.5 10t-33 10.5t-31 11.5t-31 15t-25.5 18t-21 23t-12.5 28.5t-5.5 35.5q0 85 75 123 q14 7 53.5 23.5t65.5 31t56.5 38.5t46.5 60.5t16 83.5q0 99 -63.5 154t-167.5 55q-119 0 -174.5 -75t-55.5 -232v-1071q0 -33 -23.5 -56.5t-56.5 -23.5t-56 23.5t-23 56.5z" />
<glyph unicode="&#xe0;" horiz-adv-x="987" d="M92 293v8q0 303 361 303q105 0 206 -29v117q0 112 -54 165.5t-165 53.5q-49 0 -82 -10.5t-73 -32.5q-1 0 -7.5 -3t-13 -5.5t-16 -5t-17.5 -2.5q-27 0 -41 20.5t-16 47.5q-3 34 21 60.5t66.5 41.5t93.5 23t106 8q188 0 273 -103t85 -311v-451q0 -61 37 -61q3 0 7.5 1 t8.5 1q28 0 44 -21t16 -49q0 -35 -27 -52t-65 -17q-50 0 -90 27t-64 75q-117 -108 -280 -108q-154 0 -234 83.5t-80 225.5zM250 291q0 -164 180 -164q123 0 229 90v221q-105 31 -208 31q-116 0 -158.5 -45t-42.5 -125v-8zM297 1423q0 28 20.5 48t43.5 20q13 0 24 -4.5t16 -8 t18 -16.5l18 -18l159 -166q11 -14 11 -31q0 -31 -20.5 -51t-47.5 -20q-30 0 -66 36l-165 177q-11 14 -11 34z" />
<glyph unicode="&#xe1;" horiz-adv-x="987" d="M92 293q0 -142 80 -225.5t234 -83.5q163 0 280 108q24 -48 64 -75t90 -27q38 0 65 17t27 52q0 28 -16 49t-44 21q-4 0 -8.5 -1t-7.5 -1q-37 0 -37 61v451q0 208 -85 311t-273 103q-55 0 -106 -8t-93.5 -23t-66.5 -41.5t-21 -60.5q2 -27 16 -47.5t41 -20.5q8 0 17.5 2.5 t16 5t13 5.5t7.5 3q40 22 73 32.5t82 10.5q111 0 165 -53.5t54 -165.5v-117q-102 29 -206 29q-361 0 -361 -303v-8zM250 291v8q0 80 42.5 125t158.5 45q103 0 208 -31v-221q-106 -90 -229 -90q-180 0 -180 164zM399 1247q0 17 11 31l159 166l15 15t14 13.5t12.5 9.5t15.5 7 t19 2q23 0 43.5 -20t20.5 -48q0 -20 -11 -34l-166 -177q-16 -15 -22.5 -20.5t-18 -10.5t-24.5 -5q-29 0 -48.5 20t-19.5 51z" />
<glyph unicode="&#xe2;" horiz-adv-x="987" d="M92 293v8q0 303 361 303q105 0 206 -29v117q0 112 -54 165.5t-165 53.5q-49 0 -82 -10.5t-73 -32.5q-1 0 -7.5 -3t-13 -5.5t-16 -5t-17.5 -2.5q-27 0 -41 20.5t-16 47.5q-3 34 21 60.5t66.5 41.5t93.5 23t106 8q188 0 273 -103t85 -311v-451q0 -61 37 -61q3 0 7.5 1 t8.5 1q28 0 44 -21t16 -49q0 -35 -27 -52t-65 -17q-50 0 -90 27t-64 75q-117 -108 -280 -108q-154 0 -234 83.5t-80 225.5zM250 291q0 -164 180 -164q123 0 229 90v221q-105 31 -208 31q-116 0 -158.5 -45t-42.5 -125v-8zM250 1219q0 28 37 61l161 137q26 17 45 17 q21 0 46 -17l161 -137q37 -33 37 -61q0 -21 -16 -37.5t-37 -16.5q-27 0 -37 13l-154 125l-153 -125q-10 -13 -39 -13q-20 0 -35.5 16.5t-15.5 37.5z" />
<glyph unicode="&#xe3;" horiz-adv-x="987" d="M92 293q0 -142 80 -225.5t234 -83.5q163 0 280 108q24 -48 64 -75t90 -27q38 0 65 17t27 52q0 28 -16 49t-44 21q-4 0 -8.5 -1t-7.5 -1q-37 0 -37 61v451q0 208 -85 311t-273 103q-55 0 -106 -8t-93.5 -23t-66.5 -41.5t-21 -60.5q2 -27 16 -47.5t41 -20.5q8 0 17.5 2.5 t16 5t13 5.5t7.5 3q40 22 73 32.5t82 10.5q111 0 165 -53.5t54 -165.5v-117q-102 29 -206 29q-361 0 -361 -303v-8zM211 1272q0 56 50.5 94.5t117.5 38.5q47 0 112 -31.5t93 -34.5q44 0 78 28t53 30q25 0 43 -19t18 -47q0 -51 -53.5 -86.5t-114.5 -38.5q-49 0 -115 32 t-90 34q-42 0 -77 -27.5t-54 -27.5q-24 0 -41 15.5t-20 39.5zM250 291v8q0 80 42.5 125t158.5 45q103 0 208 -31v-221q-106 -90 -229 -90q-180 0 -180 164z" />
<glyph unicode="&#xe4;" horiz-adv-x="987" d="M92 293v8q0 303 361 303q105 0 206 -29v117q0 112 -54 165.5t-165 53.5q-49 0 -82 -10.5t-73 -32.5q-1 0 -7.5 -3t-13 -5.5t-16 -5t-17.5 -2.5q-27 0 -41 20.5t-16 47.5q-3 34 21 60.5t66.5 41.5t93.5 23t106 8q188 0 273 -103t85 -311v-451q0 -61 37 -61q3 0 7.5 1 t8.5 1q28 0 44 -21t16 -49q0 -35 -27 -52t-65 -17q-50 0 -90 27t-64 75q-117 -108 -280 -108q-154 0 -234 83.5t-80 225.5zM223 1309q0 39 28 67.5t67 28.5q41 0 69.5 -28t28.5 -68q0 -42 -28.5 -71.5t-69.5 -29.5q-39 0 -67 30.5t-28 70.5zM250 291q0 -164 180 -164 q123 0 229 90v221q-105 31 -208 31q-116 0 -158.5 -45t-42.5 -125v-8zM568 1309q0 38 29 67t69 29t68 -28t28 -68q0 -41 -28 -71t-68 -30q-39 0 -68.5 30.5t-29.5 70.5z" />
<glyph unicode="&#xe5;" horiz-adv-x="987" d="M92 293q0 -142 80 -225.5t234 -83.5q163 0 280 108q24 -48 64 -75t90 -27q38 0 65 17t27 52q0 28 -16 49t-44 21q-4 0 -8.5 -1t-7.5 -1q-37 0 -37 61v451q0 208 -85 311t-273 103q-55 0 -106 -8t-93.5 -23t-66.5 -41.5t-21 -60.5q2 -27 16 -47.5t41 -20.5q8 0 17.5 2.5 t16 5t13 5.5t7.5 3q40 22 73 32.5t82 10.5q111 0 165 -53.5t54 -165.5v-117q-102 29 -206 29q-361 0 -361 -303v-8zM250 291v8q0 80 42.5 125t158.5 45q103 0 208 -31v-221q-106 -90 -229 -90q-180 0 -180 164zM291 1319q0 85 59.5 144t145.5 59q85 0 143.5 -59t58.5 -144 t-58.5 -144t-143.5 -59q-86 0 -145.5 59t-59.5 144zM385 1319q0 -46 32.5 -78.5t78.5 -32.5t78 32.5t32 78.5t-32.5 79.5t-77.5 33.5q-46 0 -78.5 -33.5t-32.5 -79.5z" />
<glyph unicode="&#xe6;" horiz-adv-x="1458" d="M92 293v8q0 303 361 303q105 0 206 -29v117q0 112 -54 165.5t-165 53.5q-49 0 -82 -10.5t-73 -32.5q-1 0 -7.5 -3t-13 -5.5t-16 -5t-17.5 -2.5q-27 0 -41 20.5t-16 47.5q-3 34 21 60.5t66.5 41.5t93.5 23t106 8q207 0 278 -168q38 78 115 123t188 45q160 0 246 -89.5 t86 -244.5q0 -303 -346 -303q-101 0 -209 18v-121q0 -88 57.5 -138t165.5 -50q58 0 102.5 13.5t110.5 43.5q18 6 29 6q30 0 51 -21.5t21 -49.5q0 -35 -36 -62.5t-89.5 -42t-105.5 -21.5t-95 -7q-197 0 -282 145q-142 -145 -342 -145q-154 0 -234 83.5t-80 225.5zM250 291 q0 -164 180 -164q123 0 229 90v221q-105 31 -208 31q-116 0 -158.5 -45t-42.5 -125v-8zM819 565q133 -14 215 -14q105 0 144 46.5t39 121.5q0 188 -187 188q-99 0 -155 -49.5t-56 -136.5v-156z" />
<glyph unicode="&#xe7;" horiz-adv-x="804" d="M92 360v310q0 168 92 272.5t275 104.5q40 0 85.5 -6.5t92 -20t76.5 -39t30 -59.5q0 -28 -20 -49t-49 -21q-15 0 -33 6q-31 16 -50 24t-50.5 15.5t-65.5 7.5q-117 0 -170 -59.5t-53 -175.5v-310q0 -116 53 -175.5t170 -59.5q34 0 65.5 7.5t50.5 15.5t50 24q18 6 33 6 q29 0 49 -20.5t20 -48.5q0 -33 -28 -58.5t-72.5 -39t-88 -20t-85.5 -7.5l-10 -66q225 -3 225 -180q0 -83 -75 -136t-210 -34q-51 6 -83.5 34.5t-14.5 61.5q5 10 12 15t18 5t19.5 -2t27.5 -6.5t32 -7.5q66 -12 103.5 16.5t37.5 67.5q0 68 -123 74q-49 3 -65.5 16t-10.5 49 l17 101q-139 24 -208 123t-69 245z" />
<glyph unicode="&#xe8;" horiz-adv-x="890" d="M92 324v383q0 153 98.5 249.5t276.5 96.5q167 0 253.5 -89t86.5 -245q0 -303 -346 -303q-101 0 -209 18v-121q0 -88 57.5 -138t165.5 -50q58 0 102.5 13.5t110.5 43.5q12 6 29 6q30 0 50.5 -21.5t20.5 -49.5q0 -35 -35.5 -62.5t-89.5 -42t-107 -21.5t-99 -7 q-169 0 -267 95.5t-98 244.5zM209 1423q0 28 20.5 48t43.5 20q13 0 24 -4.5t16 -8t18 -16.5l18 -18l159 -166q11 -14 11 -31q0 -31 -20.5 -51t-47.5 -20q-30 0 -66 36l-165 177q-11 14 -11 34zM252 565q106 -14 215 -14q56 0 94 14t56 39.5t25 52.5t7 62q0 188 -186 188 q-99 0 -155 -49.5t-56 -136.5v-156z" />
<glyph unicode="&#xe9;" horiz-adv-x="890" d="M92 324q0 -149 98 -244.5t267 -95.5q46 0 99 7t107 21.5t89.5 42t35.5 62.5q0 28 -20.5 49.5t-50.5 21.5q-17 0 -29 -6q-44 -20 -69.5 -30t-64 -18.5t-79.5 -8.5q-108 0 -165.5 50t-57.5 138v121q108 -18 209 -18q346 0 346 303q0 156 -86.5 245t-253.5 89 q-178 0 -276.5 -96.5t-98.5 -249.5v-383zM252 565v156q0 87 56 136.5t155 49.5q186 0 186 -188q0 -35 -7 -62t-25 -52.5t-56 -39.5t-94 -14q-109 0 -215 14zM367 1247q0 19 10 31l160 166l18 18t17 16t16 8.5t24 4.5q23 0 43.5 -20t20.5 -48q0 -21 -10 -34l-166 -177 q-16 -14 -23 -20t-18.5 -11t-24.5 -5q-28 0 -47.5 19.5t-19.5 51.5z" />
<glyph unicode="&#xea;" horiz-adv-x="890" d="M92 324v383q0 153 98.5 249.5t276.5 96.5q167 0 253.5 -89t86.5 -245q0 -303 -346 -303q-101 0 -209 18v-121q0 -88 57.5 -138t165.5 -50q58 0 102.5 13.5t110.5 43.5q12 6 29 6q30 0 50.5 -21.5t20.5 -49.5q0 -35 -35.5 -62.5t-89.5 -42t-107 -21.5t-99 -7 q-169 0 -267 95.5t-98 244.5zM201 1219q0 28 37 61l161 137q25 17 45 17q21 0 46 -17l161 -137q37 -33 37 -61q0 -21 -16 -37.5t-37 -16.5q-27 0 -37 13l-154 125l-153 -125q-10 -13 -39 -13q-20 0 -35.5 16.5t-15.5 37.5zM252 565q106 -14 215 -14q56 0 94 14t56 39.5 t25 52.5t7 62q0 188 -186 188q-99 0 -155 -49.5t-56 -136.5v-156z" />
<glyph unicode="&#xeb;" horiz-adv-x="890" d="M92 324q0 -149 98 -244.5t267 -95.5q46 0 99 7t107 21.5t89.5 42t35.5 62.5q0 28 -20.5 49.5t-50.5 21.5q-17 0 -29 -6q-44 -20 -69.5 -30t-64 -18.5t-79.5 -8.5q-108 0 -165.5 50t-57.5 138v121q108 -18 209 -18q346 0 346 303q0 156 -86.5 245t-253.5 89 q-178 0 -276.5 -96.5t-98.5 -249.5v-383zM176 1309q0 39 27.5 67.5t66.5 28.5q41 0 70 -28t29 -68q0 -41 -29 -71t-70 -30q-39 0 -66.5 30.5t-27.5 70.5zM252 565v156q0 87 56 136.5t155 49.5q186 0 186 -188q0 -35 -7 -62t-25 -52.5t-56 -39.5t-94 -14q-109 0 -215 14z M520 1309q0 38 29 67t69 29t68.5 -28t28.5 -68q0 -41 -28.5 -71t-68.5 -30q-39 0 -68.5 30.5t-29.5 70.5z" />
<glyph unicode="&#xec;" horiz-adv-x="501" d="M30 1423q0 28 20.5 48t43.5 20q13 0 24 -4.5t16 -8t18 -16.5l18 -18l159 -166q11 -14 11 -31q0 -31 -20.5 -51t-47.5 -20q-30 0 -66 36l-165 177q-11 14 -11 34zM170 63v904q0 33 23.5 56.5t56.5 23.5t56.5 -23.5t23.5 -56.5v-904q0 -34 -23 -56.5t-57 -22.5t-57 22.5 t-23 56.5z" />
<glyph unicode="&#xed;" horiz-adv-x="501" d="M168 1247q0 19 10 31l160 166l15 15t14 13.5t12.5 9.5t15.5 7t19 2q23 0 43 -20t20 -48q0 -21 -10 -34l-166 -177q-16 -15 -22.5 -20.5t-18 -10.5t-24.5 -5q-28 0 -48 20t-20 51zM170 63v904q0 33 23.5 56.5t56.5 23.5t56.5 -23.5t23.5 -56.5v-904q0 -34 -23 -56.5 t-57 -22.5t-57 22.5t-23 56.5z" />
<glyph unicode="&#xee;" horiz-adv-x="501" d="M8 1219q0 28 37 61l161 137q26 17 45 17q21 0 46 -17l161 -137q37 -33 37 -61q0 -21 -16 -37.5t-37 -16.5q-27 0 -37 13l-154 125l-153 -125q-10 -13 -39 -13q-20 0 -35.5 16.5t-15.5 37.5zM170 63v904q0 33 23.5 56.5t56.5 23.5t56.5 -23.5t23.5 -56.5v-904 q0 -34 -23 -56.5t-57 -22.5t-57 22.5t-23 56.5z" />
<glyph unicode="&#xef;" horiz-adv-x="501" d="M-18 1309q0 39 27.5 67.5t66.5 28.5q41 0 69.5 -28t28.5 -68q0 -42 -28.5 -71.5t-69.5 -29.5q-39 0 -66.5 30.5t-27.5 70.5zM170 63v904q0 33 23.5 56.5t56.5 23.5t56.5 -23.5t23.5 -56.5v-904q0 -34 -23 -56.5t-57 -22.5t-57 22.5t-23 56.5zM326 1309q0 38 29 67t69 29 t68 -28t28 -68q0 -41 -28 -71t-68 -30q-39 0 -68.5 30.5t-29.5 70.5z" />
<glyph unicode="&#xf0;" d="M84 432q0 130 42 233.5t130 166.5t209 63q73 0 157.5 -22.5t149.5 -73.5q0 205 -43 323l-133 -71q-29 -15 -47 -15q-22 0 -40 21t-15 47q3 34 30 49l146 78q-28 32 -67 51t-66.5 24.5t-73.5 10.5q-13 1 -21 3t-18.5 8.5t-14.5 21t-3 36.5q3 36 26 51t86 15 q178 0 285 -149l108 59q21 12 47 12q22 -1 35 -13t15 -24l2 -12q1 0 2 -1t2 -5t0 -10q-3 -34 -31 -49l-123 -66q80 -199 80 -528q0 -163 -19 -283.5t-52.5 -197t-86.5 -123t-113.5 -64.5t-140.5 -18q-222 0 -333 124t-111 328zM244 442q0 -142 66 -226.5t208 -84.5 q145 0 201.5 102.5t56.5 341.5v58q-48 50 -135.5 82.5t-161.5 32.5q-110 0 -172.5 -81.5t-62.5 -224.5z" />
<glyph unicode="&#xf1;" horiz-adv-x="1042" d="M106 944q0 31 22 51.5t54 20.5q47 0 86 -60q133 93 293 93q159 0 242.5 -104.5t83.5 -282.5v-599q0 -33 -21.5 -55t-58.5 -22t-58.5 22t-21.5 55v599q0 118 -48 180.5t-140 62.5q-114 0 -228 -86q6 -35 6 -59v-697q0 -34 -20.5 -55.5t-58.5 -21.5t-59 21.5t-21 55.5v697 q0 40 -4 66.5t-7 35t-13 23t-13 18.5q-1 1 -4 6.5t-5 9.5t-4 11t-2 14zM215 1272q0 56 50.5 94.5t117.5 38.5q47 0 111.5 -31.5t92.5 -34.5q44 0 78.5 28t53.5 30q25 0 43 -19t18 -47q0 -51 -53.5 -86.5t-114.5 -38.5q-49 0 -115 32t-90 34q-42 0 -77 -27.5t-54 -27.5 q-24 0 -41 15.5t-20 39.5z" />
<glyph unicode="&#xf2;" horiz-adv-x="950" d="M92 348v342q0 160 101 262.5t282 102.5t282 -102.5t101 -262.5v-342q0 -160 -100.5 -262t-282.5 -102t-282.5 102t-100.5 262zM252 348q0 -103 57 -160t166 -57t166 57t57 160v344q0 101 -57 158t-166 57t-166 -57t-57 -158v-344zM264 1423q0 28 20.5 48t43.5 20 q13 0 24 -4.5t16 -8t18 -16.5l18 -18l159 -166q11 -14 11 -31q0 -31 -20.5 -51t-47.5 -20q-30 0 -66 36l-165 177q-11 14 -11 34z" />
<glyph unicode="&#xf3;" horiz-adv-x="950" d="M92 348v342q0 160 101 262.5t282 102.5t282 -102.5t101 -262.5v-342q0 -160 -100.5 -262t-282.5 -102t-282.5 102t-100.5 262zM252 348q0 -103 57 -160t166 -57t166 57t57 160v344q0 101 -57 158t-166 57t-166 -57t-57 -158v-344zM319 1247q0 17 11 31l159 166l15 15 t14 13.5t12.5 9.5t15.5 7t19 2q23 0 43.5 -20t20.5 -48q0 -20 -11 -34l-165 -177q-16 -14 -23 -20t-18.5 -11t-24.5 -5q-29 0 -48.5 20t-19.5 51z" />
<glyph unicode="&#xf4;" horiz-adv-x="950" d="M92 348v342q0 160 101 262.5t282 102.5t282 -102.5t101 -262.5v-342q0 -160 -100.5 -262t-282.5 -102t-282.5 102t-100.5 262zM232 1219q0 28 37 61l161 137q26 17 45 17q21 0 46 -17l161 -137q37 -33 37 -61q0 -21 -16 -37.5t-37 -16.5q-27 0 -37 13l-154 125l-153 -125 q-10 -13 -39 -13q-20 0 -35.5 16.5t-15.5 37.5zM252 348q0 -103 57 -160t166 -57t166 57t57 160v344q0 101 -57 158t-166 57t-166 -57t-57 -158v-344z" />
<glyph unicode="&#xf5;" horiz-adv-x="950" d="M92 348v342q0 160 101 262.5t282 102.5t282 -102.5t101 -262.5v-342q0 -160 -100.5 -262t-282.5 -102t-282.5 102t-100.5 262zM193 1272q0 56 50 94.5t117 38.5q47 0 112 -31.5t93 -34.5q44 0 78 28t53 30q25 0 43.5 -19.5t18.5 -46.5q0 -51 -53.5 -86.5t-114.5 -38.5 q-49 0 -115 32t-90 34q-42 0 -77 -27.5t-54 -27.5q-24 0 -41 15.5t-20 39.5zM252 348q0 -103 57 -160t166 -57t166 57t57 160v344q0 101 -57 158t-166 57t-166 -57t-57 -158v-344z" />
<glyph unicode="&#xf6;" horiz-adv-x="950" d="M92 348v342q0 160 101 262.5t282 102.5t282 -102.5t101 -262.5v-342q0 -160 -100.5 -262t-282.5 -102t-282.5 102t-100.5 262zM204 1309q0 39 28 67.5t67 28.5q41 0 69.5 -28t28.5 -68q0 -42 -28.5 -71.5t-69.5 -29.5q-39 0 -67 30.5t-28 70.5zM252 348q0 -103 57 -160 t166 -57t166 57t57 160v344q0 101 -57 158t-166 57t-166 -57t-57 -158v-344zM549 1309q0 38 29 67t69 29t68 -28t28 -68q0 -41 -28 -71t-68 -30q-39 0 -68.5 30.5t-29.5 70.5z" />
<glyph unicode="&#xf8;" horiz-adv-x="950" d="M73.5 2.5q-3.5 21.5 8.5 40.5l68 96q-58 85 -58 209v342q0 160 101 262.5t282 102.5q157 0 258 -82l55 80q12 18 33.5 21.5t40.5 -9.5q20 -13 23.5 -34.5t-8.5 -39.5l-72 -100q53 -86 53 -201v-342q0 -160 -100.5 -262t-282.5 -102q-151 0 -252 75l-53 -77 q-12 -17 -34.5 -21t-39.5 8q-19 12 -22.5 33.5zM252 348q0 -23 4 -55l387 553q-58 61 -168 61q-109 0 -166 -57t-57 -158v-344zM311 184q56 -53 164 -53q109 0 166 57t57 160v344q0 27 -2 41z" />
<glyph unicode="&#xf9;" horiz-adv-x="1042" d="M152 371v598q0 34 21 56t58 22t58.5 -22.5t21.5 -55.5v-598q0 -118 48.5 -181t140.5 -63q117 0 225 68q-4 40 -4 57v717q0 34 21 56t59 22t59 -22t21 -56v-717q0 -40 4 -66.5t8 -35.5t13 -22t12 -19q14 -28 14 -41q0 -30 -22 -51t-54 -21q-50 0 -88 61q-129 -73 -291 -73 q-159 0 -242 104.5t-83 282.5zM282 1423q0 28 20.5 48t43.5 20q13 0 24 -4.5t16 -8t18 -16.5l18 -18l159 -166q11 -14 11 -31q0 -31 -20.5 -51t-47.5 -20q-30 0 -66 36l-165 177q-11 14 -11 34z" />
<glyph unicode="&#xfa;" horiz-adv-x="1042" d="M152 371v598q0 34 21 56t58 22t58.5 -22.5t21.5 -55.5v-598q0 -118 48.5 -181t140.5 -63q117 0 225 68q-4 40 -4 57v717q0 34 21 56t59 22t59 -22t21 -56v-717q0 -40 4 -66.5t8 -35.5t13 -22t12 -19q14 -28 14 -41q0 -30 -22 -51t-54 -21q-50 0 -88 61q-129 -73 -291 -73 q-159 0 -242 104.5t-83 282.5zM434 1247q0 19 10 31l160 166l15 15t14 13.5t12.5 9.5t15.5 7t19 2q23 0 43 -20t20 -48q0 -21 -10 -34l-166 -177q-16 -15 -22.5 -20.5t-18 -10.5t-24.5 -5q-28 0 -48 20t-20 51z" />
<glyph unicode="&#xfb;" horiz-adv-x="1042" d="M152 371v598q0 34 21 56t58 22t58.5 -22.5t21.5 -55.5v-598q0 -118 48.5 -181t140.5 -63q117 0 225 68q-4 40 -4 57v717q0 34 21 56t59 22t59 -22t21 -56v-717q0 -40 4 -66.5t8 -35.5t13 -22t12 -19q14 -28 14 -41q0 -30 -22 -51t-54 -21q-50 0 -88 61q-129 -73 -291 -73 q-159 0 -242 104.5t-83 282.5zM277 1219q0 28 37 61l161 137q26 17 45 17q20 0 46 -17l161 -137q37 -33 37 -61q0 -21 -16 -37.5t-37 -16.5q-27 0 -37 13l-154 125l-153 -125q-10 -13 -39 -13q-20 0 -35.5 16.5t-15.5 37.5z" />
<glyph unicode="&#xfc;" horiz-adv-x="1042" d="M152 371v598q0 34 21 56t58 22t58.5 -22.5t21.5 -55.5v-598q0 -118 48.5 -181t140.5 -63q117 0 225 68q-4 40 -4 57v717q0 34 21 56t59 22t59 -22t21 -56v-717q0 -40 4 -66.5t8 -35.5t13 -22t12 -19q14 -28 14 -41q0 -30 -22 -51t-54 -21q-50 0 -88 61q-129 -73 -291 -73 q-159 0 -242 104.5t-83 282.5zM252 1309q0 39 27.5 67.5t66.5 28.5q41 0 69.5 -28t28.5 -68q0 -42 -28.5 -71.5t-69.5 -29.5q-39 0 -66.5 30.5t-27.5 70.5zM596 1309q0 38 29 67t69 29t68.5 -28t28.5 -68q0 -41 -28.5 -71t-68.5 -30q-39 0 -68.5 30.5t-29.5 70.5z" />
<glyph unicode="&#xfd;" horiz-adv-x="843" d="M33 973q0 32 23 53t57 21q52 0 71 -54l256 -776l224 776q9 26 29 40t44 14q32 0 56 -23t24 -57q0 -9 -4 -25l-250 -813q-25 -81 -41.5 -131t-42 -114t-48 -102.5t-55.5 -80t-68.5 -63.5t-83 -37.5t-103.5 -16.5q-35 0 -58.5 22t-23.5 56q0 29 21 52t55 24 q95 4 147.5 62.5t99.5 203.5l-325 940q-4 6 -4 29zM365 1247q0 19 10 31l160 166l18 18t17 16t16 8.5t24 4.5q23 0 43.5 -20t20.5 -48q0 -21 -10 -34l-166 -177q-16 -14 -23 -20t-18.5 -11t-24.5 -5q-28 0 -47.5 19.5t-19.5 51.5z" />
<glyph unicode="&#xfe;" horiz-adv-x="993" d="M152 -367v1774q0 32 21 55t58 23t58.5 -23t21.5 -55v-438q120 84 273 84q165 0 241 -87t76 -233v-385q0 -146 -76 -232.5t-241 -86.5q-153 0 -273 84v-480q0 -32 -21.5 -54.5t-58.5 -22.5t-58 22.5t-21 54.5zM311 270q92 -102 234 -102q196 0 196 180v385q0 180 -196 180 q-142 0 -234 -102v-541z" />
<glyph unicode="&#xff;" horiz-adv-x="843" d="M33 973q0 32 23 53t57 21q52 0 71 -54l256 -776l224 776q9 26 29 40t44 14q32 0 56 -23t24 -57q0 -9 -4 -25l-250 -813q-25 -81 -41.5 -131t-42 -114t-48 -102.5t-55.5 -80t-68.5 -63.5t-83 -37.5t-103.5 -16.5q-35 0 -58.5 22t-23.5 56q0 29 21 52t55 24 q95 4 147.5 62.5t99.5 203.5l-325 940q-4 6 -4 29zM152 1309q0 39 27.5 67.5t66.5 28.5q41 0 69.5 -28t28.5 -68q0 -42 -28.5 -71.5t-69.5 -29.5q-39 0 -66.5 30.5t-27.5 70.5zM496 1309q0 38 29 67t69 29t68 -28t28 -68q0 -41 -28 -71t-68 -30q-39 0 -68.5 30.5t-29.5 70.5 z" />
<glyph unicode="&#x152;" horiz-adv-x="1548" d="M92 463v520q0 102 24.5 187t74 152t134.5 104.5t197 37.5q167 0 266 -102q6 33 33 57.5t64 24.5h493q34 0 58 -24t24 -58q0 -33 -24 -55.5t-58 -22.5h-426v-479h387q31 0 55.5 -23.5t24.5 -56.5q0 -34 -23 -57t-57 -23h-387v-485h447q32 0 57 -22.5t25 -53.5 q0 -35 -24 -59.5t-58 -24.5h-481q-127 0 -130 92q-106 -112 -266 -112q-138 0 -237 66t-146 173.5t-47 243.5zM256 463q0 -149 67 -236.5t199 -87.5t199 87.5t67 236.5v520q0 322 -266 322t-266 -322v-520z" />
<glyph unicode="&#x153;" horiz-adv-x="1497" d="M92 348v342q0 157 101 261t274 104q222 0 309 -174q38 81 115.5 126.5t189.5 45.5q159 0 245.5 -89.5t86.5 -244.5q0 -303 -346 -303q-101 0 -209 18v-121q0 -88 57.5 -138t165.5 -50q58 0 102.5 13.5t110.5 43.5q12 6 29 6q30 0 51 -21.5t21 -49.5q0 -35 -36 -62.5 t-89.5 -42t-105.5 -21.5t-95 -7q-107 0 -182 45.5t-113 124.5q-39 -80 -117.5 -125t-189.5 -45q-173 0 -274 103.5t-101 260.5zM252 348q0 -103 57 -160t166 -57t166 57t57 160v344q0 101 -57 158t-166 57t-166 -57t-57 -158v-344zM858 565q133 -14 215 -14q56 0 94 14 t56 39.5t25 52.5t7 62q0 188 -186 188q-99 0 -155 -49.5t-56 -136.5v-156z" />
<glyph unicode="&#x178;" horiz-adv-x="974" d="M31 1380q0 33 25.5 58.5t58.5 25.5q46 0 63 -32l309 -674l310 674q17 32 63 32q33 0 58.5 -25.5t25.5 -58.5q0 -19 -8 -39l-365 -778v-497q0 -34 -24.5 -60t-59.5 -26t-59.5 25.5t-24.5 60.5v501l-364 774q-8 20 -8 39zM217 1719q0 39 28 67.5t67 28.5q41 0 69.5 -28 t28.5 -68q0 -42 -28.5 -71.5t-69.5 -29.5q-39 0 -67 30.5t-28 70.5zM562 1719q0 38 29 67t69 29t68 -28t28 -68q0 -41 -28 -71t-68 -30q-39 0 -68.5 30.5t-29.5 70.5z" />
<glyph unicode="&#x2c6;" horiz-adv-x="811" d="M160 1219q0 28 37 61l161 137q25 17 45 17q21 0 46 -17l161 -137q37 -33 37 -61q0 -21 -16 -37.5t-37 -16.5q-27 0 -37 13l-154 125l-153 -125q-10 -13 -39 -13q-20 0 -35.5 16.5t-15.5 37.5z" />
<glyph unicode="&#x2dc;" horiz-adv-x="768" d="M117 1272q0 56 50.5 94.5t117.5 38.5q47 0 111.5 -31.5t92.5 -34.5q44 0 78.5 28t53.5 30q25 0 43 -19t18 -47q0 -51 -53.5 -86.5t-114.5 -38.5q-49 0 -115 32t-90 34q-42 0 -77 -27.5t-54 -27.5q-24 0 -41 15.5t-20 39.5z" />
<glyph unicode="&#x2000;" horiz-adv-x="950" />
<glyph unicode="&#x2001;" horiz-adv-x="1901" />
<glyph unicode="&#x2002;" horiz-adv-x="950" />
<glyph unicode="&#x2003;" horiz-adv-x="1901" />
<glyph unicode="&#x2004;" horiz-adv-x="633" />
<glyph unicode="&#x2005;" horiz-adv-x="475" />
<glyph unicode="&#x2006;" horiz-adv-x="316" />
<glyph unicode="&#x2007;" horiz-adv-x="316" />
<glyph unicode="&#x2008;" horiz-adv-x="237" />
<glyph unicode="&#x2009;" horiz-adv-x="380" />
<glyph unicode="&#x200a;" horiz-adv-x="105" />
<glyph unicode="&#x2010;" horiz-adv-x="817" d="M78 604q0 31 22 53.5t54 22.5h510q30 0 51.5 -22.5t21.5 -53.5t-21 -52.5t-52 -21.5h-510q-32 0 -54 21.5t-22 52.5z" />
<glyph unicode="&#x2011;" horiz-adv-x="817" d="M78 604q0 31 22 53.5t54 22.5h510q30 0 51.5 -22.5t21.5 -53.5t-21 -52.5t-52 -21.5h-510q-32 0 -54 21.5t-22 52.5z" />
<glyph unicode="&#x2012;" horiz-adv-x="817" d="M78 604q0 31 22 53.5t54 22.5h510q30 0 51.5 -22.5t21.5 -53.5t-21 -52.5t-52 -21.5h-510q-32 0 -54 21.5t-22 52.5z" />
<glyph unicode="&#x2013;" horiz-adv-x="882" d="M78 588q0 31 22 53.5t54 22.5h573q32 0 54 -22.5t22 -53.5t-22.5 -52.5t-53.5 -21.5h-573q-32 0 -54 21.5t-22 52.5z" />
<glyph unicode="&#x2014;" horiz-adv-x="1085" d="M78 588q0 31 22 53.5t54 22.5h778q32 0 54 -22.5t22 -53.5t-22.5 -52.5t-53.5 -21.5h-778q-32 0 -54 21.5t-22 52.5z" />
<glyph unicode="&#x2018;" horiz-adv-x="471" d="M125 1149q0 65 27.5 146t64.5 135.5t64 54.5q38 0 38 -35q0 -36 -32 -93.5t-43 -94.5q43 -5 71.5 -37t28.5 -76t-32.5 -76.5t-78.5 -32.5q-44 0 -76 32.5t-32 76.5z" />
<glyph unicode="&#x2019;" horiz-adv-x="471" d="M125 1376q0 44 32.5 76.5t78.5 32.5q44 0 76 -32.5t32 -76.5q0 -65 -27.5 -146t-64.5 -135.5t-64 -54.5q-38 0 -38 35q0 36 32 94.5t43 94.5q-43 5 -71.5 36.5t-28.5 75.5z" />
<glyph unicode="&#x201a;" horiz-adv-x="471" d="M125 92q0 44 32.5 76.5t78.5 32.5q44 0 76 -32.5t32 -76.5q0 -65 -27.5 -146t-64.5 -135.5t-64 -54.5q-38 0 -38 35q0 36 32 94.5t43 94.5q-43 5 -71.5 36.5t-28.5 75.5z" />
<glyph unicode="&#x201c;" horiz-adv-x="755" d="M125 1149q0 65 27.5 146t64.5 135.5t64 54.5q38 0 38 -35q0 -36 -32 -93.5t-43 -94.5q43 -5 71.5 -37t28.5 -76t-32.5 -76.5t-78.5 -32.5q-44 0 -76 32.5t-32 76.5zM412 1149q0 65 27.5 146t64.5 135.5t63 54.5q39 0 39 -35q0 -36 -32.5 -93.5t-43.5 -94.5q43 -5 72 -37 t29 -76t-32.5 -76.5t-78.5 -32.5q-44 0 -76 32.5t-32 76.5z" />
<glyph unicode="&#x201d;" horiz-adv-x="755" d="M125 1376q0 44 32.5 76.5t78.5 32.5q44 0 76 -32.5t32 -76.5q0 -65 -28 -146t-65 -135.5t-63 -54.5q-38 0 -38 35q0 36 32 94.5t43 94.5q-43 5 -71.5 36.5t-28.5 75.5zM412 1376q0 44 32 76.5t78 32.5q44 0 76.5 -32.5t32.5 -76.5q0 -65 -27.5 -146t-64.5 -135.5 t-64 -54.5q-39 0 -39 35q0 36 32.5 94t43.5 95q-43 5 -71.5 36.5t-28.5 75.5z" />
<glyph unicode="&#x201e;" horiz-adv-x="755" d="M125 92q0 46 32.5 77.5t78.5 31.5q44 0 76 -32.5t32 -76.5q0 -65 -28 -146t-65 -135.5t-63 -54.5q-38 0 -38 35q0 37 32.5 95t42.5 94q-43 3 -71.5 35.5t-28.5 76.5zM412 92q0 46 32 77.5t78 31.5q44 0 76.5 -32.5t32.5 -76.5q0 -65 -27.5 -146t-64.5 -135.5t-64 -54.5 q-39 0 -39 35q0 37 32.5 95t43.5 94q-43 3 -71.5 35.5t-28.5 76.5z" />
<glyph unicode="&#x2022;" horiz-adv-x="620" d="M152 561q0 65 46.5 111.5t110.5 46.5q66 0 113 -46.5t47 -111.5q0 -66 -47 -113t-113 -47q-65 0 -111 47t-46 113z" />
<glyph unicode="&#x2026;" horiz-adv-x="1193" d="M125 90q0 46 32 78.5t76 32.5q46 0 78.5 -32.5t32.5 -78.5q0 -44 -33 -77t-78 -33q-44 0 -76 33t-32 77zM485 90q0 45 33 78t78 33q46 0 78.5 -32.5t32.5 -78.5q0 -44 -32.5 -77t-78.5 -33q-44 0 -77.5 33t-33.5 77zM850 90q0 46 32 78.5t76 32.5q46 0 78.5 -32.5 t32.5 -78.5q0 -44 -32.5 -77t-78.5 -33q-44 0 -76 33t-32 77z" />
<glyph unicode="&#x202f;" horiz-adv-x="380" />
<glyph unicode="&#x2039;" horiz-adv-x="651" d="M84 524l311 469q17 28 33.5 41t42.5 13q29 0 53.5 -22.5t24.5 -53.5q0 -24 -10 -39l-269 -404l287 -426q10 -15 10 -34q0 -35 -23 -59.5t-59 -24.5q-26 0 -41.5 12t-35.5 43z" />
<glyph unicode="&#x203a;" horiz-adv-x="651" d="M84 68q0 19 10 34l287 426l-268 404q-11 17 -11 39q0 31 24.5 53.5t53.5 22.5q26 0 42.5 -13t33.5 -41l311 -469l-323 -485q-20 -31 -36 -43t-42 -12q-36 0 -59 24.5t-23 59.5z" />
<glyph unicode="&#x205f;" horiz-adv-x="475" />
<glyph unicode="&#x20ac;" d="M20 588q0 32 24.5 54t55.5 22h95v114h-95q-34 0 -57 22t-23 54t24.5 54t55.5 22h95v74q0 216 100 338t299 122q141 0 251.5 -52.5t110.5 -123.5q0 -30 -20.5 -50.5t-52.5 -20.5q-10 0 -19 3t-15 6.5t-18 11t-22 13.5q-91 64 -205 64q-133 0 -189.5 -79t-56.5 -232v-74 h373q31 0 55.5 -22t24.5 -54t-23 -54t-57 -22h-373v-114h291q31 0 55.5 -22t24.5 -54t-23 -54t-57 -22h-291v-70q0 -153 56.5 -232t189.5 -79q114 0 205 64q10 6 22 13.5t18 11t15 6.5t19 3q32 0 52.5 -20.5t20.5 -50.5q0 -71 -110.5 -123.5t-251.5 -52.5q-199 0 -299 122 t-100 338v70h-95q-34 0 -57 22t-23 54z" />
<glyph unicode="&#x2122;" horiz-adv-x="1583" d="M20 1391q0 25 18 42t44 17h510q25 0 42 -17t17 -42q0 -26 -17 -43t-42 -17h-195v-700q0 -25 -17.5 -42.5t-43.5 -17.5t-44 17.5t-18 42.5v700h-192q-26 0 -44 17t-18 43zM758 629v768q0 28 17.5 45.5t45.5 17.5q43 0 62 -37l239 -493l242 493q16 37 61 37q25 0 44.5 -19 t19.5 -44v-768q0 -23 -18 -40.5t-41 -17.5q-25 0 -42.5 17.5t-17.5 40.5v549l-188 -387q-18 -37 -60 -37q-43 0 -59 37l-189 387v-549q0 -23 -18 -40.5t-41 -17.5q-24 0 -40.5 17t-16.5 41z" />
<glyph unicode="&#x25fc;" horiz-adv-x="1044" d="M0 0v1044h1044v-1044h-1044z" />
</font>
</defs>
</svg>
