<?xml version="1.0" standalone="no"?>
<!DOCTYPE svg PUBLIC "-//W3C//DTD SVG 1.1//EN" "http://www.w3.org/Graphics/SVG/1.1/DTD/svg11.dtd" >
<svg xmlns="http://www.w3.org/2000/svg" xmlns:xlink="http://www.w3.org/1999/xlink" version="1.1">
<metadata></metadata>
<defs>
<font id="mic_32_new_rgbold" horiz-adv-x="1261" >
<font-face units-per-em="2048" ascent="1556" descent="-492" />
<missing-glyph horiz-adv-x="450" />
<glyph unicode="&#xfb01;" horiz-adv-x="1284" d="M33 877v194h139v117q0 82 32.5 148t86 106.5t119 62t135.5 21.5q101 0 217 -37l-57 -236q-84 25 -142 25q-51 0 -75.5 -24t-24.5 -66v-117h229l-45 -194h-184v-877h-291v877h-139zM838 1374q0 68 49.5 114t116.5 46t116 -46t49 -114q0 -66 -49 -114t-116 -48 q-68 0 -117 47.5t-49 114.5zM858 0v1071h293v-1071h-293z" />
<glyph unicode="&#xfb02;" horiz-adv-x="1284" d="M33 877v194h139v117q0 82 32.5 148t86 106.5t119 62t135.5 21.5q101 0 217 -37l-57 -236q-84 25 -142 25q-51 0 -75.5 -24t-24.5 -66v-117h229l-45 -194h-184v-877h-291v877h-139zM858 0v1485l293 41v-1526h-293z" />
<glyph unicode="&#xfb03;" horiz-adv-x="2000" d="M33 877v194h139v117q0 82 32.5 148t86 106.5t119 62t135.5 21.5q101 0 217 -37l-57 -236q-84 25 -142 25q-51 0 -75.5 -24t-24.5 -66v-117h426v117q0 82 32.5 148t86 106.5t119 62t135.5 21.5q101 0 217 -37l-58 -236q-84 25 -141 25q-51 0 -75.5 -24t-24.5 -66v-117h229 l-45 -194h-184v-877h-291v877h-426v-877h-291v877h-139zM1554 1352q0 68 49.5 113.5t116.5 45.5t116.5 -45.5t49.5 -113.5q0 -66 -49 -114t-117 -48t-117 47.5t-49 114.5zM1575 0v1071h293v-1071h-293z" />
<glyph unicode="&#xfb04;" horiz-adv-x="2000" d="M33 877v194h139v117q0 82 32.5 148t86 106.5t119 62t135.5 21.5q101 0 217 -37l-57 -236q-84 25 -142 25q-51 0 -75.5 -24t-24.5 -66v-117h426v117q0 82 32.5 148t86 106.5t119 62t135.5 21.5q101 0 217 -37l-58 -236q-84 25 -141 25q-51 0 -75.5 -24t-24.5 -66v-117h229 l-45 -194h-184v-877h-291v877h-426v-877h-291v877h-139zM1575 0v1485l293 41v-1526h-293z" />
<glyph horiz-adv-x="0" />
<glyph horiz-adv-x="682" />
<glyph unicode=" "  horiz-adv-x="450" />
<glyph unicode="&#x09;" horiz-adv-x="450" />
<glyph unicode="&#xa0;" horiz-adv-x="450" />
<glyph unicode="!" horiz-adv-x="563" d="M111 156q0 72 51 120t119 48q70 0 121 -48.5t51 -119.5q0 -70 -50.5 -121t-121.5 -51q-68 0 -119 50.5t-51 121.5zM131 1364l301 41l-14 -965h-273z" />
<glyph unicode="&#x22;" horiz-adv-x="868" d="M131 1499h242l-19 -528h-200zM496 1499h241l-18 -528h-203z" />
<glyph unicode="#" horiz-adv-x="1206" d="M72 371v252h170l20 208h-143v252h170l37 369h254l-37 -369h192l37 369h254l-37 -369h144v-252h-170l-21 -208h141v-252h-168l-36 -371h-254l37 371h-193l-37 -371h-254l37 371h-143zM496 623h192l21 208h-193z" />
<glyph unicode="$" horiz-adv-x="1060" d="M49 59l57 250q217 -80 396 -80q78 0 124 43t46 113q0 50 -32.5 87t-84 61t-114 47.5t-125 54.5t-114 72.5t-84 111.5t-32.5 162q0 147 95.5 247t250.5 130v239h207v-233q127 -12 307 -80l-78 -240q-179 70 -303 70q-97 0 -136.5 -33t-39.5 -96q0 -46 32.5 -80t84 -56.5 t114 -44.5t125 -54t114 -75t84 -117t32.5 -171q0 -161 -96 -263.5t-250 -135.5v-242h-207v229q-180 12 -373 84z" />
<glyph unicode="%" horiz-adv-x="1843" d="M102 936v137q0 152 93.5 245t236.5 93q144 0 237 -93t93 -245v-137q0 -152 -92.5 -243t-237.5 -91q-144 0 -237 91.5t-93 242.5zM315 940q0 -77 31 -114.5t86 -37.5q57 0 90 38t33 114v129q0 75 -33 112.5t-90 37.5q-54 0 -85.5 -37.5t-31.5 -112.5v-129zM487 0l650 1384 h213l-645 -1384h-218zM1079 311v135q0 153 92.5 245.5t237.5 92.5t238.5 -92.5t93.5 -245.5v-135q0 -152 -93.5 -245t-238.5 -93q-144 0 -237 93t-93 245zM1290 315q0 -75 32 -112t87 -37t88 37t33 112v127q0 77 -33 115.5t-88 38.5q-54 0 -86.5 -39t-32.5 -115v-127z" />
<glyph unicode="&#x26;" horiz-adv-x="1159" d="M90 399q0 99 41 180t117 136q-137 103 -137 289q0 180 128 293.5t336 113.5q131 0 328 -74l-86 -233q-130 55 -233 55q-92 0 -135 -44t-43 -111q0 -70 39.5 -120t121.5 -50h109v-232h-117q-81 0 -127.5 -61.5t-46.5 -141.5q0 -76 48 -125t132 -49q86 0 133 48.5t47 125.5 v435h375v-232h-96v-203q0 -184 -124.5 -305t-334.5 -121q-211 0 -343 122t-132 304z" />
<glyph unicode="'" horiz-adv-x="503" d="M131 1499h242l-19 -526h-200z" />
<glyph unicode="(" horiz-adv-x="684" d="M143 -23v1215q0 226 123.5 343.5t390.5 117.5v-246q-134 0 -183.5 -51.5t-49.5 -167.5v-1206q0 -116 49.5 -168t183.5 -52v-245q-267 0 -390.5 117t-123.5 343z" />
<glyph unicode=")" horiz-adv-x="684" d="M27 -238q134 0 183.5 52t49.5 168v1206q0 116 -49.5 167.5t-183.5 51.5v246q267 0 390.5 -117.5t123.5 -343.5v-1215q0 -226 -123.5 -343t-390.5 -117v245z" />
<glyph unicode="*" horiz-adv-x="1028" d="M111 1006l188 96l-188 96l118 205l177 -115l-11 211h238l-12 -211l176 115l121 -205l-189 -96l189 -96l-121 -205l-176 112l12 -208h-238l11 208l-177 -112z" />
<glyph unicode="+" horiz-adv-x="1169" d="M111 446v242h354v352h242v-352h352v-242h-352v-352h-242v352h-354z" />
<glyph unicode="," horiz-adv-x="555" d="M84 -250l98 559h269l-168 -594z" />
<glyph unicode="-" horiz-adv-x="1021" d="M143 432v242h736v-242h-736z" />
<glyph unicode="." horiz-adv-x="561" d="M111 152q0 71 50.5 119t119.5 48t119.5 -48t50.5 -119t-50.5 -123t-119.5 -52t-119.5 52t-50.5 123z" />
<glyph unicode="/" horiz-adv-x="813" d="M88 -129l381 1628h256l-383 -1628h-254z" />
<glyph unicode="0" horiz-adv-x="1224" d="M102 541v305q0 141 39.5 251t109.5 177.5t161.5 102t199.5 34.5q107 0 198.5 -34.5t161.5 -102t110 -177.5t40 -251v-305q0 -142 -40.5 -252.5t-111.5 -178t-161.5 -102.5t-196.5 -35q-85 0 -160.5 21.5t-139.5 67t-110.5 111.5t-73 160t-26.5 208zM393 541 q0 -168 59 -244t160 -76t160 76t59 244v305q0 317 -219 317t-219 -317v-305z" />
<glyph unicode="1" horiz-adv-x="829" d="M82 1075v250l598 86v-1411h-291v1122z" />
<glyph unicode="2" horiz-adv-x="1073" d="M74 0v160q0 82 21 154t56 126.5t80.5 103t96 87t101 74t96 69t80.5 66.5t56 72t21 81q0 76 -47 123t-135 47q-132 0 -307 -86l-101 221q212 113 422 113q202 0 333.5 -116t131.5 -302q0 -79 -32.5 -151t-84.5 -127.5t-114.5 -107t-125 -96.5t-114.5 -87.5t-84.5 -90 t-32.5 -93.5h586v-240h-903z" />
<glyph unicode="3" horiz-adv-x="1060" d="M35 51l71 232q176 -62 318 -62q108 0 177 57t69 150q0 78 -47.5 128t-157.5 50h-176l-43 223l336 316h-498l-37 239h842l18 -239l-334 -316q158 -5 276 -118.5t118 -282.5q0 -138 -76 -243.5t-197 -158.5t-264 -53q-174 0 -395 78z" />
<glyph unicode="4" horiz-adv-x="1159" d="M86 498l268 886h271l-256 -872h260v424l278 47v-471h191v-240h-191v-270l-278 -20v290h-508z" />
<glyph unicode="5" horiz-adv-x="1075" d="M53 43l58 242q214 -64 348 -64q98 0 166.5 62t68.5 174q0 198 -262 198h-299l25 729h792l-43 -239h-491l-13 -254h56q244 0 388 -109t144 -323q0 -96 -30.5 -177t-82 -137t-119.5 -95.5t-141.5 -58t-148.5 -18.5q-190 0 -416 70z" />
<glyph unicode="6" horiz-adv-x="1169" d="M102 446v443q0 107 33.5 201t96.5 166t161.5 113.5t220.5 41.5q155 0 347 -61l-64 -240q-152 53 -283 53q-94 0 -156.5 -66.5t-62.5 -172.5v-47q104 81 238 81q202 0 326 -131.5t124 -363.5q0 -152 -68.5 -265.5t-178.5 -169t-244 -55.5q-133 0 -243 54.5t-178.5 163.5 t-68.5 255zM393 444q0 -94 52 -158.5t145 -64.5q94 0 145 68.5t51 173.5q0 274 -196 274q-112 0 -197 -82v-211z" />
<glyph unicode="7" horiz-adv-x="1060" d="M37 1384h954v-237q-194 -233 -267 -489.5t-73 -657.5h-301q0 723 328 1145h-617z" />
<glyph unicode="8" horiz-adv-x="1189" d="M94 377q0 115 58.5 193t162.5 137q-180 124 -180 319q0 75 31.5 144t89 123t145.5 86t193 32q116 0 220.5 -45.5t173.5 -135.5t69 -204q0 -94 -50 -163t-139 -126q106 -63 167 -148.5t61 -213.5q0 -94 -47.5 -172.5t-122 -127.5t-161.5 -75.5t-171 -26.5 q-71 0 -141.5 16.5t-135 50t-114.5 80.5t-79.5 113.5t-29.5 143.5zM391 377q0 -65 59 -110.5t144 -45.5q84 0 144.5 46t60.5 110q0 36 -17.5 66t-55 55.5t-72 43t-93.5 42.5q-81 -44 -125.5 -93.5t-44.5 -113.5zM432 1030q0 -56 48 -95.5t141 -80.5q68 37 103.5 78.5 t35.5 97.5q0 61 -47 97t-119 36t-117 -36t-45 -97z" />
<glyph unicode="9" horiz-adv-x="1161" d="M78 922q0 115 39.5 209t107.5 154.5t156.5 93t189.5 32.5q98 0 186 -32t155.5 -91t107 -149.5t39.5 -200.5v-442q0 -107 -33.5 -201t-96 -166.5t-160.5 -114t-220 -41.5q-153 0 -348 62l65 239q152 -53 283 -53q93 0 155 67t62 173v47q-105 -82 -238 -82 q-201 0 -325.5 132t-124.5 364zM375 922q0 -275 198 -275q107 0 195 82v211q0 94 -52 158.5t-143 64.5q-94 0 -146 -68t-52 -173z" />
<glyph unicode=":" horiz-adv-x="561" d="M111 152q0 71 50 119t120 48q69 0 119.5 -48t50.5 -119t-50.5 -123t-119.5 -52q-70 0 -120 52t-50 123zM111 782q0 72 50 121t120 49q69 0 119.5 -49t50.5 -121q0 -69 -50.5 -120.5t-119.5 -51.5q-70 0 -120 51t-50 121z" />
<glyph unicode=";" horiz-adv-x="565" d="M74 -299l98 559h268l-168 -594zM109 782q0 72 51 121t121 49q69 0 119.5 -49t50.5 -121q0 -69 -50.5 -120.5t-119.5 -51.5q-70 0 -121 51.5t-51 120.5z" />
<glyph unicode="&#x3c;" horiz-adv-x="1107" d="M111 575l731 615l155 -184l-510 -431l510 -430l-155 -184z" />
<glyph unicode="=" horiz-adv-x="1169" d="M111 238v241h948v-241h-948zM111 664v243h948v-243h-948z" />
<glyph unicode="&#x3e;" horiz-adv-x="1107" d="M111 145l512 430l-512 431l157 184l729 -615l-729 -614z" />
<glyph unicode="?" horiz-adv-x="921" d="M76 1280q174 131 352 131q108 0 199 -42t147.5 -125t56.5 -191q0 -59 -25.5 -117t-61.5 -104t-72.5 -89t-62 -86.5t-25.5 -81.5v-133l-275 41v88q0 63 25 122.5t60.5 105t71 87.5t60.5 85t25 82q0 52 -35 84t-92 32q-59 0 -112 -22.5t-117 -67.5zM274 150 q0 72 51.5 119.5t120.5 47.5q68 0 119 -48.5t51 -118.5t-50.5 -121.5t-119.5 -51.5q-71 0 -121.5 50.5t-50.5 122.5z" />
<glyph unicode="@" horiz-adv-x="1820" d="M109 389q0 148 38.5 286.5t115 256.5t182 206t248.5 137.5t306 49.5q210 0 370 -95t246.5 -266.5t86.5 -392.5q0 -89 -6 -139h-424l-15 -117q-17 -136 -130 -225.5t-267 -89.5q-145 0 -236.5 79t-91.5 206q0 152 110 231.5t286 79.5h114l5 27q8 51 -16 90t-83 39 q-117 0 -260 -45l-31 198q178 60 316 60q150 0 245.5 -96t77.5 -246l-4 -27h203q0 240 -146 386t-382 146q-189 0 -338.5 -94.5t-231.5 -258.5t-82 -367q0 -259 150 -415.5t401 -156.5q217 0 463 156l84 -176q-253 -176 -561 -176q-170 0 -311.5 59t-235 161t-145 238 t-51.5 291zM788 309q0 -43 25.5 -69.5t71.5 -26.5q52 0 85 31.5t38 70.5l14 117h-117q-56 0 -86.5 -32.5t-30.5 -90.5z" />
<glyph unicode="A" d="M41 0l416 1384h348l416 -1384h-306l-92 334h-385l-92 -334h-305zM506 578h250l-72 262q-27 93 -53 235q-18 -98 -53 -235z" />
<glyph unicode="B" horiz-adv-x="1193" d="M143 0v1384h453q217 0 346 -108t129 -281q0 -187 -174 -268q225 -83 225 -305q0 -178 -145.5 -300t-370.5 -122h-463zM444 256h160q98 0 155.5 47t57.5 119q0 75 -50 120.5t-146 45.5h-177v-332zM444 831h129q91 0 142 41.5t51 108.5t-43.5 107t-134.5 40h-144v-297z" />
<glyph unicode="C" horiz-adv-x="1165" d="M109 543v299q0 140 42.5 250t119 179t178.5 104.5t225 35.5q204 0 399 -63l-57 -246q-171 53 -340 53q-129 0 -197.5 -79t-68.5 -259v-248q0 -181 68 -260.5t198 -79.5q178 0 340 56l57 -248q-198 -64 -399 -64q-253 0 -409 146.5t-156 423.5z" />
<glyph unicode="D" horiz-adv-x="1300" d="M143 0v1290q320 121 525 121q144 0 261.5 -59.5t190 -181t72.5 -285.5v-373q0 -250 -138 -381t-386 -131h-525zM444 256h224q121 0 172 61.5t51 217.5v325q0 149 -59.5 222t-163.5 73q-111 0 -224 -39v-860z" />
<glyph unicode="E" horiz-adv-x="1091" d="M143 0v1384h828v-256h-527v-307h443l-13 -246h-430v-319h545v-256h-846z" />
<glyph unicode="F" horiz-adv-x="1071" d="M143 0v1384h826v-256h-525v-307h426l-14 -246h-412v-575h-301z" />
<glyph unicode="G" d="M109 543v299q0 140 42.5 250t119 179t178.5 104.5t225 35.5q178 0 440 -82l-65 -244q-218 68 -373 68q-130 0 -198 -78t-68 -256v-246q0 -183 68 -262.5t198 -79.5q93 0 192 21v303h-141v211h422v-707q-251 -86 -475 -86q-253 0 -409 146.5t-156 423.5z" />
<glyph unicode="H" horiz-adv-x="1314" d="M143 0v1384h301v-555h426v555h301v-1384h-301v580h-426v-580h-301z" />
<glyph unicode="I" horiz-adv-x="587" d="M143 0v1384h301v-1384h-301z" />
<glyph unicode="J" horiz-adv-x="991" d="M31 47l71 240q168 -58 289 -58q176 0 176 248v907l301 -14v-899q0 -231 -121.5 -364.5t-345.5 -133.5q-160 0 -370 74z" />
<glyph unicode="K" horiz-adv-x="1249" d="M143 0v1384h301v-512l359 512h352l-444 -604l508 -780h-357l-334 532l-84 -114v-418h-301z" />
<glyph unicode="L" horiz-adv-x="1048" d="M143 0v1384h301v-1128h553l-12 -256h-842z" />
<glyph unicode="M" horiz-adv-x="1695" d="M72 0l147 1384h342l238 -669q20 -60 49 -178q19 90 49 178l238 669h342l147 -1384h-299l-59 709q-8 96 -15 264q-42 -175 -73 -262l-170 -478h-320l-170 478q-41 115 -76 264q-3 -162 -12 -266l-59 -709h-299z" />
<glyph unicode="N" horiz-adv-x="1300" d="M143 0v1384h244l475 -790q-6 117 -6 211v579h301v-1384h-246l-475 786q8 -107 8 -217v-569h-301z" />
<glyph unicode="O" horiz-adv-x="1312" d="M109 545v293q0 139 42.5 249.5t117.5 180.5t173.5 106.5t212.5 36.5q115 0 214 -36.5t174 -106.5t118 -180.5t43 -249.5v-293q0 -140 -43 -250.5t-118 -180t-174 -105.5t-214 -36q-91 0 -172.5 22.5t-150 69t-118 113.5t-77.5 161t-28 206zM410 567q0 -182 64 -260 t181 -78q248 0 248 338v250q0 338 -248 338q-245 0 -245 -338v-250z" />
<glyph unicode="P" horiz-adv-x="1142" d="M143 0v1384h494q136 0 241.5 -62.5t159.5 -162t54 -217.5q0 -181 -125.5 -308.5t-329.5 -127.5h-193v-506h-301zM444 756h183q72 0 115.5 50.5t43.5 135.5q0 83 -43.5 134.5t-115.5 51.5h-183v-372z" />
<glyph unicode="Q" horiz-adv-x="1312" d="M109 545v293q0 139 42.5 249.5t117.5 180.5t173.5 106.5t212.5 36.5q115 0 214 -36.5t174 -106.5t118 -180.5t43 -249.5v-293q0 -192 -78 -323t-213 -195l107 -283l-221 -127l-133 356h-11q-91 0 -172.5 22.5t-150 69t-118 113.5t-77.5 161t-28 206zM410 567 q0 -182 64 -260t181 -78q248 0 248 338v250q0 338 -248 338q-245 0 -245 -338v-250z" />
<glyph unicode="R" horiz-adv-x="1169" d="M143 0v1384h494q136 0 241.5 -62.5t159.5 -162t54 -217.5q0 -127 -65 -229t-181 -154l262 -559h-336l-225 516h-103v-516h-301zM444 756h179q73 0 119 51t46 135q0 83 -46.5 134.5t-118.5 51.5h-179v-372z" />
<glyph unicode="S" horiz-adv-x="1069" d="M72 59l57 250q217 -80 387 -80q78 0 124 43t46 113q0 39 -19.5 72t-53 56.5t-77 45.5t-91.5 44.5t-95.5 47.5t-91 59.5t-77 76.5t-53 102t-19.5 133q0 176 133 282.5t333 106.5q178 0 394 -86l-78 -240q-176 70 -316 70q-82 0 -118.5 -35.5t-36.5 -93.5q0 -46 32 -82 t82.5 -62.5t112 -53t123.5 -62.5t112.5 -82.5t82.5 -123t32 -173.5q0 -100 -39.5 -180.5t-107.5 -130.5t-153.5 -76.5t-180.5 -26.5q-206 0 -444 86z" />
<glyph unicode="T" horiz-adv-x="1075" d="M51 1128v256h973v-256h-336v-1128h-301v1128h-336z" />
<glyph unicode="U" horiz-adv-x="1310" d="M133 463v921h301v-897q0 -120 60 -189t161 -69q100 0 161 69t61 189v897h301v-921q0 -142 -71.5 -255t-190.5 -174t-261 -61q-143 0 -262 61t-189.5 174t-70.5 255z" />
<glyph unicode="V" d="M41 1384h305l232 -839q25 -91 53 -246q28 155 53 246l231 839h306l-416 -1384h-348z" />
<glyph unicode="W" horiz-adv-x="1738" d="M72 1384h307l86 -702q10 -83 22 -307q37 204 70 305l150 481h321l154 -481q34 -110 69 -299q11 205 23 301l86 702h307l-225 -1384h-334l-197 651q-23 80 -43 195q-15 -106 -41 -195l-196 -651h-334z" />
<glyph unicode="X" horiz-adv-x="1216" d="M31 0l401 721l-358 663h334l200 -383l211 383h326l-359 -657l402 -727h-346l-232 442l-241 -442h-338z" />
<glyph unicode="Y" horiz-adv-x="1185" d="M31 1384h323l238 -548l239 548h324l-412 -858v-526h-301v526z" />
<glyph unicode="Z" horiz-adv-x="1155" d="M82 0v199l567 929h-555v256h932v-198l-573 -930h620l-26 -256h-965z" />
<glyph unicode="[" horiz-adv-x="602" d="M143 -481v2134h426v-232h-147v-1669h147v-233h-426z" />
<glyph unicode="\" horiz-adv-x="815" d="M88 1499h254l385 -1628h-256z" />
<glyph unicode="]" horiz-adv-x="602" d="M33 -248h147v1669h-147v232h426v-2134h-426v233z" />
<glyph unicode="^" horiz-adv-x="1294" d="M139 856l379 643h260l379 -643l-248 -111l-262 515l-262 -515z" />
<glyph unicode="_" horiz-adv-x="1024" d="M0 -150h1024v-241h-1024v241z" />
<glyph unicode="`" horiz-adv-x="833" d="M154 1348l77 194l453 -196l-74 -170z" />
<glyph unicode="a" horiz-adv-x="1019" d="M78 342q0 164 113 248t305 84h133v24q0 73 -35 112.5t-98 39.5q-129 0 -297 -53l-64 231q225 70 361 70q190 0 308 -110.5t118 -289.5v-356q0 -157 -125 -263t-297 -106q-181 0 -301.5 105t-120.5 264zM375 344q0 -48 31 -85.5t94 -37.5q59 0 94 37.5t35 83.5v127h-135 q-65 0 -92 -35.5t-27 -89.5z" />
<glyph unicode="b" horiz-adv-x="1095" d="M98 422v1065l293 39v-477q84 49 182 49q83 0 158 -28.5t135 -82.5t95.5 -142t35.5 -198v-225q0 -137 -62 -241t-163 -156t-223 -52q-190 0 -320.5 122t-130.5 327zM391 432q0 -102 44 -156.5t114 -54.5q69 0 112.5 54.5t43.5 156.5v205q0 111 -43.5 162t-114.5 51 q-62 0 -156 -37v-381z" />
<glyph unicode="c" horiz-adv-x="974" d="M98 442v187q0 121 35 212.5t99.5 147t149.5 82.5t189 27q153 0 314 -51l-62 -238q-139 41 -235 41q-98 0 -147.5 -50t-49.5 -171v-187q0 -121 49.5 -171t147.5 -50q96 0 235 41l64 -237q-177 -52 -316 -52q-104 0 -189 27t-149.5 82.5t-99.5 147t-35 212.5z" />
<glyph unicode="d" horiz-adv-x="1093" d="M98 422v225q0 110 35.5 198t95.5 142t135 82.5t158 28.5q96 0 180 -49v450h293v-1077q0 -137 -62 -241t-163 -156t-223 -52q-91 0 -172.5 31t-143 87t-97.5 142t-36 189zM389 432q0 -102 44 -156.5t114 -54.5t112.5 54.5t42.5 156.5v381q-91 37 -153 37q-73 0 -116.5 -51 t-43.5 -162v-205z" />
<glyph unicode="e" horiz-adv-x="1060" d="M98 436v209q0 143 59.5 247.5t157 155t220.5 50.5q184 0 311 -117t127 -297v-233h-584v-15q0 -215 189 -215q137 0 292 51l58 -235q-93 -34 -170 -49t-180 -15q-220 0 -350 121t-130 342zM389 655h291v29q0 71 -39 118.5t-106 47.5q-64 0 -105 -47.5t-41 -118.5v-29z" />
<glyph unicode="f" horiz-adv-x="724" d="M33 877v194h139v117q0 82 32.5 148t86 106.5t119 62t135.5 21.5q101 0 217 -37l-57 -236q-84 25 -142 25q-51 0 -75.5 -24t-24.5 -66v-117h229l-45 -194h-184v-877h-291v877h-139z" />
<glyph unicode="g" horiz-adv-x="1024" d="M43 -354l70 221q197 -86 358 -86q195 0 195 82q0 27 -50.5 41t-122.5 25.5t-144 31t-122.5 70t-50.5 129.5t66 141q-72 52 -112 131.5t-40 177.5v99q0 172 115 280.5t291 108.5q80 0 153 -25l332 25l-18 -187l-111 -4q51 -88 51 -198v-99q0 -171 -113.5 -279t-291.5 -108 q-44 0 -84 6q-4 -12 -4 -20q0 -15 30.5 -25.5t79.5 -19t107.5 -19.5t117.5 -30.5t108 -47t79.5 -75.5t30.5 -111q0 -162 -130 -251t-356 -89q-219 0 -434 105zM377 610q0 -66 29 -105.5t92 -39.5q118 0 118 145v99q0 141 -120 141q-119 0 -119 -141v-99z" />
<glyph unicode="h" horiz-adv-x="1136" d="M133 0v1499h293v-450q88 49 182 49q84 0 155.5 -25t128.5 -75t89.5 -134t32.5 -194v-670h-293v653q0 108 -34.5 152.5t-104.5 44.5q-62 0 -156 -37v-813h-293z" />
<glyph unicode="i" horiz-adv-x="559" d="M113 1374q0 68 49.5 114t116.5 46t116 -46t49 -114q0 -66 -49 -114t-116 -48q-68 0 -117 47.5t-49 114.5zM133 0v1071h293v-1071h-293z" />
<glyph unicode="j" horiz-adv-x="559" d="M113 1374q0 68 49.5 114t116.5 46t116 -46t49 -114q0 -66 -49 -114t-116 -48q-68 0 -117 47.5t-49 114.5zM133 -455v1526h293v-1485z" />
<glyph unicode="k" horiz-adv-x="1024" d="M133 0v1499h293v-827l98 33q53 18 76 110l64 256h284l-84 -323q-24 -92 -52 -144t-79 -82l271 -522h-324l-201 424l-53 -18v-406h-293z" />
<glyph unicode="l" horiz-adv-x="559" d="M133 0v1485l293 41v-1526h-293z" />
<glyph unicode="m" horiz-adv-x="1624" d="M123 0v657q0 107 33 192.5t91 139t133 81.5t161 28q173 0 270 -137q98 137 272 137q181 0 299.5 -114.5t118.5 -326.5v-657h-293v637q0 213 -125 213t-125 -248v-602h-292v602q0 248 -125 248t-125 -213v-637h-293z" />
<glyph unicode="n" horiz-adv-x="1124" d="M123 0v647q0 213 125 332t315 119q91 0 170 -29.5t139 -85t94.5 -142t34.5 -194.5v-647h-292v637q0 104 -38.5 158.5t-107.5 54.5q-70 0 -109.5 -54.5t-39.5 -158.5v-637h-291z" />
<glyph unicode="o" horiz-adv-x="1110" d="M98 442v187q0 216 127.5 342.5t329.5 126.5t329.5 -126.5t127.5 -342.5v-187q0 -216 -127.5 -342.5t-329.5 -126.5t-329.5 126.5t-127.5 342.5zM389 453q0 -232 166 -232t166 232v165q0 232 -166 232q-89 0 -127.5 -59.5t-38.5 -172.5v-165z" />
<glyph unicode="p" horiz-adv-x="1095" d="M98 -432v1081q0 205 130.5 327t320.5 122q122 0 223 -52t163 -156t62 -241v-225q0 -110 -35.5 -198t-95.5 -142t-135 -82.5t-158 -28.5q-96 0 -182 50v-455h-293zM391 258q94 -37 156 -37q71 0 114.5 51t43.5 162v205q0 102 -43.5 156.5t-112.5 54.5q-70 0 -114 -54.5 t-44 -156.5v-381z" />
<glyph unicode="q" horiz-adv-x="1095" d="M98 424v225q0 103 36 189t97.5 142t143 87t172.5 31q190 0 320 -122t130 -327v-1069l-292 -39v482q-90 -50 -183 -50q-83 0 -158 28.5t-135 82.5t-95.5 142t-35.5 198zM391 434q0 -111 42.5 -162t115.5 -51q62 0 156 37v381q0 102 -44 156.5t-114 54.5t-113 -54.5 t-43 -156.5v-205z" />
<glyph unicode="r" horiz-adv-x="761" d="M123 0v684q0 183 124 298.5t310 115.5q102 0 203 -33l-55 -238q-86 23 -146 23q-68 0 -106.5 -46t-38.5 -120v-684h-291z" />
<glyph unicode="s" horiz-adv-x="884" d="M57 39l58 233q142 -51 280 -51q55 0 92 23.5t37 58.5q0 32 -24 56t-62.5 42t-85 37t-93 46t-85 63t-62.5 95t-24 134q0 142 108 232t287 90q148 0 291 -51l-61 -240q-134 43 -230 43q-98 0 -98 -74q0 -31 24 -54t62 -40t84.5 -35t93 -45t84.5 -63t62 -95.5t24 -136.5 q0 -65 -27 -124t-77.5 -106.5t-133.5 -75.5t-186 -28q-156 0 -338 66z" />
<glyph unicode="t" horiz-adv-x="696" d="M23 1071h174v289l292 39v-328h173v-194h-173v-877h-292v877h-131z" />
<glyph unicode="u" horiz-adv-x="1124" d="M123 424v647h291v-637q0 -104 39 -158.5t108 -54.5q70 0 109 54.5t39 158.5v637h292v-647q0 -108 -35 -194.5t-95.5 -142t-139.5 -85t-170 -29.5q-190 0 -314 119t-124 332z" />
<glyph unicode="v" horiz-adv-x="1028" d="M20 1071h302l110 -405q31 -115 82 -353q59 272 82 353l111 405h301l-330 -1071h-328z" />
<glyph unicode="w" horiz-adv-x="1628" d="M82 1071h291l49 -682q5 -75 37 -119.5t90 -44.5q57 0 89 47t32 119v610h284v-610q0 -72 32 -119t89 -47q58 0 90.5 44.5t38.5 119.5l51 682h291l-55 -702q-13 -185 -125 -290.5t-287 -105.5q-179 0 -268 142q-89 -142 -268 -142q-173 0 -285 107t-125 289z" />
<glyph unicode="x" horiz-adv-x="1028" d="M20 0l326 549l-299 522h322l147 -266l154 266h313l-299 -514l326 -557h-330l-166 301l-172 -301h-322z" />
<glyph unicode="y" horiz-adv-x="1044" d="M41 1071h291l96 -665q12 -81 40.5 -119.5t80.5 -38.5h49l102 823h293l-202 -1503h-287l59 432h-24q-179 0 -276 103.5t-124 281.5z" />
<glyph unicode="z" horiz-adv-x="999" d="M92 0v199l434 632h-417v240h770v-197l-416 -634h444l-20 -240h-795z" />
<glyph unicode="{" horiz-adv-x="856" d="M90 481v205q134 0 183 50.5t49 158.5v340q0 420 516 420v-246q-138 0 -188 -39.5t-50 -138.5v-336q0 -112 -37.5 -185t-134.5 -126q172 -101 172 -312v-323q0 -99 50 -138.5t188 -39.5v-246q-516 0 -516 420v327q0 108 -49 158.5t-183 50.5z" />
<glyph unicode="|" horiz-adv-x="548" d="M135 -410v1909h279v-1909h-279z" />
<glyph unicode="}" horiz-adv-x="856" d="M18 -229q138 0 188 39.5t50 138.5v323q0 211 172 312q-97 53 -134.5 126t-37.5 185v336q0 99 -50 138.5t-188 39.5v246q517 0 517 -420v-340q0 -109 48.5 -159t182.5 -50v-205q-134 0 -182.5 -50t-48.5 -159v-327q0 -420 -517 -420v246z" />
<glyph unicode="~" horiz-adv-x="1249" d="M145 571q33 49 62.5 85t69 71t86.5 53.5t100 18.5q44 0 85.5 -16.5t73 -40t60 -47t57 -40t52.5 -16.5q69 0 139 109l174 -158q-33 -49 -62 -84.5t-68 -71t-85.5 -54t-97.5 -18.5q-46 0 -89 16.5t-74.5 40t-60 47t-56.5 40t-52 16.5q-75 0 -140 -108z" />
<glyph unicode="&#xa1;" horiz-adv-x="563" d="M111 1028q0 70 50.5 121t121.5 51q68 0 119 -50.5t51 -121.5q0 -72 -51 -120t-119 -48q-70 0 -121 48.5t-51 119.5zM131 -221l14 964h273l14 -923z" />
<glyph unicode="&#xa2;" horiz-adv-x="997" d="M102 442v187q0 205 97 319t266 142v235h207v-233q99 -8 217 -45l-62 -238q-139 41 -235 41q-98 0 -147.5 -50t-49.5 -171v-187q0 -121 49.5 -171t147.5 -50q96 0 235 41l64 -237q-119 -36 -219 -45v-234h-207v236q-169 26 -266 140t-97 320z" />
<glyph unicode="&#xa3;" horiz-adv-x="1036" d="M119 559v166h102q-2 9 -12 45.5t-13 48.5t-9.5 42.5t-9 47.5t-5 42t-2.5 48q0 131 62 226t162 140.5t224 45.5q158 0 347 -82l-82 -225q-132 55 -246 55q-166 0 -166 -178q0 -18 1 -36t4.5 -39t5.5 -34t8 -38t8 -34t10 -39t10 -36h324v-166h-293q4 -54 4 -82 q0 -66 -37 -134t-88 -114h526v-229h-831v205q133 166 133 272q0 28 -4 82h-133z" />
<glyph unicode="&#xa4;" horiz-adv-x="1222" d="M123 285l133 133q-33 78 -33 155q0 86 33 156l-133 131l203 201l131 -131q78 33 157 33q76 0 154 -33l133 131l199 -201l-129 -129q33 -81 33 -158q0 -76 -33 -157l129 -131l-199 -199l-131 131q-81 -33 -156 -33q-90 0 -157 33l-131 -131zM471 573q0 -60 41.5 -101.5 t101.5 -41.5q59 0 101.5 41.5t42.5 101.5t-42.5 102t-101.5 42q-60 0 -101.5 -42t-41.5 -102z" />
<glyph unicode="&#xa5;" horiz-adv-x="1118" d="M2 1384h301l256 -596l256 596h301l-340 -725h176v-165h-243v-142h243v-164h-243v-188h-297v188h-244v164h244v142h-244v165h176z" />
<glyph unicode="&#xa6;" horiz-adv-x="548" d="M135 307h279v-717h-279v717zM135 778v721h279v-721h-279z" />
<glyph unicode="&#xa7;" horiz-adv-x="1161" d="M117 -207l51 246q187 -68 324 -68q159 0 159 123q0 44 -27.5 78t-72 58t-98 47.5t-106.5 55t-97.5 72t-72 106.5t-27.5 151q0 152 106 247q-25 64 -25 146q0 161 120.5 258.5t301.5 97.5q167 0 377 -78l-69 -239q-152 61 -279 61q-139 0 -139 -98q0 -36 27.5 -67t72 -56 t98 -51.5t106.5 -61t97.5 -77.5t72 -108.5t27.5 -146.5q0 -158 -106 -256q25 -70 25 -137q0 -92 -39.5 -166.5t-105 -120.5t-146 -70t-166.5 -24q-92 0 -179.5 19t-209.5 59zM461 664q0 -28 14 -51t44 -44.5t58 -36.5t75.5 -39.5t76.5 -41.5q4 20 4 36q0 27 -11.5 51 t-27.5 40t-46 34.5t-53 29.5t-63.5 29.5t-64.5 30.5q-6 -15 -6 -38z" />
<glyph unicode="&#xa8;" horiz-adv-x="942" d="M143 1358q0 55 40 95t93 40q55 0 94.5 -39.5t39.5 -95.5q0 -55 -39 -93t-95 -38q-53 0 -93 38t-40 93zM535 1358q0 56 38.5 95.5t92.5 39.5q55 0 94 -39.5t39 -95.5q0 -55 -39 -93t-94 -38q-53 0 -92 38t-39 93z" />
<glyph unicode="&#xa9;" horiz-adv-x="1519" d="M109 659q0 143 45 268t127.5 218t206 147t272.5 54t272.5 -54t206 -147t127.5 -218t45 -268q0 -192 -77 -346.5t-226.5 -247t-347.5 -92.5t-347.5 92.5t-226.5 247t-77 346.5zM281 659q0 -152 56 -271.5t166 -189t257 -69.5t257 69.5t166 189t56 271.5t-56 271.5 t-166 189.5t-257 70t-257 -70t-166 -189.5t-56 -271.5zM444 592v135q0 141 87.5 223t222.5 82q62 0 106.5 -8t110.5 -29l-37 -141q-99 27 -180 27q-68 0 -98.5 -41.5t-30.5 -128.5v-103q0 -85 30.5 -127.5t98.5 -42.5q81 0 180 27l37 -141q-66 -21 -110.5 -29t-106.5 -8 q-135 0 -222.5 82t-87.5 223z" />
<glyph unicode="&#xaa;" horiz-adv-x="765" d="M82 856q0 117 80.5 175.5t218.5 58.5h78v22q0 80 -78 80q-80 0 -213 -37l-51 178q155 51 264 51q133 0 218 -79.5t85 -202.5v-246q0 -112 -89.5 -188t-211.5 -76q-129 0 -215 75t-86 189zM309 858q0 -36 21 -55t53 -19q35 0 55.5 22.5t20.5 49.5v84h-66q-45 0 -64.5 -20 t-19.5 -62z" />
<glyph unicode="&#xab;" horiz-adv-x="1128" d="M111 575l307 414l194 -143l-196 -268l196 -273l-194 -143zM537 575l305 414l196 -143l-198 -268l198 -273l-196 -143z" />
<glyph unicode="&#xac;" horiz-adv-x="1169" d="M111 430v242h948v-570h-240v328h-708z" />
<glyph unicode="&#xad;" horiz-adv-x="1021" d="M143 432v242h736v-242h-736z" />
<glyph unicode="&#xae;" horiz-adv-x="1519" d="M109 659q0 143 45 268t127.5 218t206 147t272.5 54t272.5 -54t206 -147t127.5 -218t45 -268q0 -192 -77 -346.5t-226.5 -247t-347.5 -92.5t-347.5 92.5t-226.5 247t-77 346.5zM281 659q0 -152 56 -271.5t166 -189t257 -69.5t257 69.5t166 189t56 271.5t-56 271.5 t-166 189.5t-257 70t-257 -70t-166 -189.5t-56 -271.5zM512 303v717h266q111 0 177.5 -68t66.5 -172q0 -148 -104 -205l135 -272h-195l-104 240h-62v-240h-180zM692 694h74q36 0 58 23.5t22 62.5t-21.5 63.5t-62.5 24.5h-70v-174z" />
<glyph unicode="&#xaf;" horiz-adv-x="837" d="M160 1266v184h520v-184h-520z" />
<glyph unicode="&#xb0;" horiz-adv-x="745" d="M111 1260q0 105 77.5 181.5t184.5 76.5q106 0 184 -78.5t78 -184.5q0 -108 -78 -185t-184 -77q-109 0 -185.5 77.5t-76.5 189.5zM285 1255q0 -37 25.5 -62.5t62.5 -25.5t62.5 25.5t25.5 62.5t-26 62.5t-64 25.5q-35 0 -60.5 -25.5t-25.5 -62.5z" />
<glyph unicode="&#xb1;" horiz-adv-x="1169" d="M111 29h948v-240h-948v240zM111 430v242h354v321h242v-321h352v-242h-352v-321h-242v321h-354z" />
<glyph unicode="&#xb4;" horiz-adv-x="833" d="M152 1346l452 196l78 -194l-457 -172z" />
<glyph unicode="&#xb5;" horiz-adv-x="1134" d="M133 -432v1503h291v-657q0 -94 40 -143.5t107 -49.5q70 0 109 54.5t39 158.5v637h293v-647q0 -143 -61 -247t-159.5 -154t-220.5 -50q-68 0 -147 21v-426h-291z" />
<glyph unicode="&#xb6;" horiz-adv-x="1302" d="M90 967q0 172 116 294.5t294 122.5h696v-1628h-278v1362h-132v-1362h-278v793h-33q-157 0 -271 125t-114 293z" />
<glyph unicode="&#xb7;" horiz-adv-x="581" d="M145 575q0 61 43.5 104.5t102.5 43.5q61 0 104 -43t43 -105t-43 -102.5t-104 -40.5q-59 0 -102.5 41t-43.5 102z" />
<glyph unicode="&#xb8;" horiz-adv-x="641" d="M55 -408l27 197q75 -16 127 -16q39 0 54.5 18.5t15.5 54.5v154h217v-180q0 -67 -24 -117.5t-64 -79t-85.5 -42t-95.5 -13.5q-88 0 -172 24z" />
<glyph unicode="&#xba;" horiz-adv-x="815" d="M82 924v129q0 149 91.5 240t234.5 91t234 -91t91 -240v-129q0 -150 -91 -241t-234 -91t-234.5 91t-91.5 241zM305 930q0 -146 103 -146q57 0 78.5 38.5t21.5 107.5v117q0 69 -22 107t-78 38q-59 0 -81 -38t-22 -107v-117z" />
<glyph unicode="&#xbb;" horiz-adv-x="1128" d="M90 305l199 268l-199 273l197 143l305 -414l-305 -413zM516 305l197 268l-197 273l195 143l307 -414l-307 -413z" />
<glyph unicode="&#xbf;" horiz-adv-x="921" d="M76 121q0 59 25.5 117t62 104t73 88.5t62 86t25.5 81.5v133l274 -41v-88q0 -63 -25 -122.5t-60.5 -105t-71 -87t-60.5 -84.5t-25 -82q0 -53 35 -85t92 -32q101 0 230 90l118 -200q-175 -132 -352 -132q-108 0 -199 42.5t-147.5 125.5t-56.5 191zM291 1024q0 70 50.5 121 t119.5 51q71 0 121.5 -50t50.5 -122t-51.5 -120t-120.5 -48q-68 0 -119 49t-51 119z" />
<glyph unicode="&#xc0;" d="M41 0l416 1384h348l416 -1384h-306l-92 334h-385l-92 -334h-305zM365 1630l77 195l453 -197l-74 -170zM506 578h250l-72 262q-27 93 -53 235q-18 -98 -53 -235z" />
<glyph unicode="&#xc1;" d="M41 0l416 1384h348l416 -1384h-306l-92 334h-385l-92 -334h-305zM365 1628l452 197l78 -195l-457 -172zM506 578h250l-72 262q-27 93 -53 235q-18 -98 -53 -235z" />
<glyph unicode="&#xc2;" d="M41 0l416 1384h348l416 -1384h-306l-92 334h-385l-92 -334h-305zM324 1636l307 174l309 -174l-109 -166l-198 125l-201 -125zM506 578h250l-72 262q-27 93 -53 235q-18 -98 -53 -235z" />
<glyph unicode="&#xc3;" d="M41 0l416 1384h348l416 -1384h-306l-92 334h-385l-92 -334h-305zM311 1653q25 56 77 94.5t128 38.5q41 0 81 -23t76.5 -46t67.5 -23q59 0 97 59l108 -127q-25 -56 -77 -94.5t-128 -38.5q-41 0 -81 23t-76.5 46t-67.5 23q-58 0 -96 -59zM506 578h250l-72 262 q-27 93 -53 235q-18 -98 -53 -235z" />
<glyph unicode="&#xc4;" d="M41 0l416 1384h348l416 -1384h-306l-92 334h-385l-92 -334h-305zM301 1640q0 55 40 95.5t93 40.5q55 0 94 -40t39 -96q0 -55 -38.5 -93t-94.5 -38q-53 0 -93 38t-40 93zM506 578h250l-72 262q-27 93 -53 235q-18 -98 -53 -235zM692 1640q0 56 38.5 96t92.5 40 q55 0 94 -40t39 -96q0 -55 -39 -93t-94 -38q-53 0 -92 38t-39 93z" />
<glyph unicode="&#xc5;" d="M41 0l416 1384h348l416 -1384h-306l-92 334h-385l-92 -334h-305zM420 1669q0 85 62 146t149 61q85 0 146 -61t61 -146q0 -86 -61 -148.5t-146 -62.5q-87 0 -149 62t-62 149zM506 578h250l-72 262q-27 93 -53 235q-18 -98 -53 -235zM567 1669q0 -26 19 -44.5t45 -18.5 t43.5 18.5t17.5 44.5t-17.5 44t-43.5 18t-45 -18t-19 -44z" />
<glyph unicode="&#xc6;" horiz-adv-x="1865" d="M41 0l795 1382h866l18 -256h-526l29 -305h471l-25 -246h-428l23 -319h532l19 -256h-818l-26 334h-416l-182 -334h-332zM690 578h262l-32 417z" />
<glyph unicode="&#xc7;" horiz-adv-x="1165" d="M109 543v299q0 140 42.5 250t119 179t178.5 104.5t225 35.5q204 0 399 -63l-57 -246q-171 53 -340 53q-129 0 -197.5 -79t-68.5 -259v-248q0 -181 68 -260.5t198 -79.5q178 0 340 56l57 -248q-116 -40 -270 -57v-160q0 -67 -24 -117.5t-63.5 -79t-85 -42t-95.5 -13.5 q-89 0 -173 24l27 197q75 -16 127 -16q39 0 54.5 18.5t15.5 54.5v131q-218 24 -347.5 168.5t-129.5 397.5z" />
<glyph unicode="&#xc8;" horiz-adv-x="1091" d="M143 0v1384h828v-256h-527v-307h443l-13 -246h-430v-319h545v-256h-846zM309 1630l78 195l453 -197l-74 -170z" />
<glyph unicode="&#xc9;" horiz-adv-x="1091" d="M143 0v1384h828v-256h-527v-307h443l-13 -246h-430v-319h545v-256h-846zM279 1628l452 197l78 -195l-457 -172z" />
<glyph unicode="&#xca;" horiz-adv-x="1091" d="M143 0v1384h828v-256h-527v-307h443l-13 -246h-430v-319h545v-256h-846zM256 1636l307 174l309 -174l-108 -166l-199 125l-200 -125z" />
<glyph unicode="&#xcb;" horiz-adv-x="1091" d="M143 0v1384h828v-256h-527v-307h443l-13 -246h-430v-319h545v-256h-846zM236 1640q0 55 40 95.5t93 40.5q55 0 94 -40t39 -96q0 -55 -38.5 -93t-94.5 -38q-53 0 -93 38t-40 93zM627 1640q0 56 38.5 96t92.5 40q55 0 94 -40t39 -96q0 -55 -39 -93t-94 -38q-53 0 -92 38 t-39 93z" />
<glyph unicode="&#xcc;" horiz-adv-x="587" d="M27 1630l77 195l453 -197l-74 -170zM143 0v1384h301v-1384h-301z" />
<glyph unicode="&#xcd;" horiz-adv-x="587" d="M27 1628l452 197l78 -195l-457 -172zM143 0v1384h301v-1384h-301z" />
<glyph unicode="&#xce;" horiz-adv-x="587" d="M-16 1636l307 174l309 -174l-108 -166l-199 125l-201 -125zM143 0v1384h301v-1384h-301z" />
<glyph unicode="&#xcf;" horiz-adv-x="587" d="M-35 1640q0 55 40 95.5t93 40.5q55 0 94 -40t39 -96q0 -55 -38.5 -93t-94.5 -38q-53 0 -93 38t-40 93zM143 0v1384h301v-1384h-301zM356 1640q0 56 38.5 96t92.5 40q55 0 94.5 -40t39.5 -96q0 -55 -39.5 -93t-94.5 -38q-53 0 -92 38t-39 93z" />
<glyph unicode="&#xd0;" horiz-adv-x="1300" d="M14 592v194h129v504q320 121 525 121q144 0 261.5 -59.5t190 -181t72.5 -285.5v-373q0 -250 -138 -381t-386 -131h-525v592h-129zM444 256h224q121 0 172 61.5t51 217.5v325q0 149 -59.5 222t-163.5 73q-111 0 -224 -39v-330h228v-194h-228v-336z" />
<glyph unicode="&#xd1;" horiz-adv-x="1300" d="M143 0v1384h244l475 -790q-6 117 -6 211v579h301v-1384h-246l-475 786q8 -107 8 -217v-569h-301zM330 1653q25 56 77 94.5t128 38.5q41 0 81 -23t76.5 -46t67.5 -23q58 0 96 59l109 -127q-25 -56 -77 -94.5t-128 -38.5q-41 0 -81 23t-76.5 46t-67.5 23q-59 0 -97 -59z " />
<glyph unicode="&#xd2;" horiz-adv-x="1312" d="M109 545v293q0 139 42.5 249.5t117.5 180.5t173.5 106.5t212.5 36.5q115 0 214 -36.5t174 -106.5t118 -180.5t43 -249.5v-293q0 -140 -43 -250.5t-118 -180t-174 -105.5t-214 -36q-91 0 -172.5 22.5t-150 69t-118 113.5t-77.5 161t-28 206zM389 1630l78 195l453 -197 l-74 -170zM410 567q0 -182 64 -260t181 -78q248 0 248 338v250q0 338 -248 338q-245 0 -245 -338v-250z" />
<glyph unicode="&#xd3;" horiz-adv-x="1312" d="M109 545v293q0 139 42.5 249.5t117.5 180.5t173.5 106.5t212.5 36.5q115 0 214 -36.5t174 -106.5t118 -180.5t43 -249.5v-293q0 -140 -43 -250.5t-118 -180t-174 -105.5t-214 -36q-91 0 -172.5 22.5t-150 69t-118 113.5t-77.5 161t-28 206zM379 1628l452 197l78 -195 l-456 -172zM410 567q0 -182 64 -260t181 -78q248 0 248 338v250q0 338 -248 338q-245 0 -245 -338v-250z" />
<glyph unicode="&#xd4;" horiz-adv-x="1312" d="M109 545v293q0 139 42.5 249.5t117.5 180.5t173.5 106.5t212.5 36.5q115 0 214 -36.5t174 -106.5t118 -180.5t43 -249.5v-293q0 -140 -43 -250.5t-118 -180t-174 -105.5t-214 -36q-91 0 -172.5 22.5t-150 69t-118 113.5t-77.5 161t-28 206zM346 1636l307 174l310 -174 l-109 -166l-199 125l-200 -125zM410 567q0 -182 64 -260t181 -78q248 0 248 338v250q0 338 -248 338q-245 0 -245 -338v-250z" />
<glyph unicode="&#xd5;" horiz-adv-x="1312" d="M109 545v293q0 139 42.5 249.5t117.5 180.5t173.5 106.5t212.5 36.5q115 0 214 -36.5t174 -106.5t118 -180.5t43 -249.5v-293q0 -140 -43 -250.5t-118 -180t-174 -105.5t-214 -36q-91 0 -172.5 22.5t-150 69t-118 113.5t-77.5 161t-28 206zM338 1653q25 56 77 94.5 t128 38.5q41 0 81 -23t76.5 -46t67.5 -23q58 0 96 59l109 -127q-25 -56 -77 -94.5t-128 -38.5q-41 0 -81 23t-76.5 46t-67.5 23q-59 0 -97 -59zM410 567q0 -182 64 -260t181 -78q248 0 248 338v250q0 338 -248 338q-245 0 -245 -338v-250z" />
<glyph unicode="&#xd6;" horiz-adv-x="1312" d="M109 545v293q0 139 42.5 249.5t117.5 180.5t173.5 106.5t212.5 36.5q115 0 214 -36.5t174 -106.5t118 -180.5t43 -249.5v-293q0 -140 -43 -250.5t-118 -180t-174 -105.5t-214 -36q-91 0 -172.5 22.5t-150 69t-118 113.5t-77.5 161t-28 206zM328 1640q0 55 40 95.5 t93 40.5q55 0 94 -40t39 -96q0 -55 -38.5 -93t-94.5 -38q-53 0 -93 38t-40 93zM410 567q0 -182 64 -260t181 -78q248 0 248 338v250q0 338 -248 338q-245 0 -245 -338v-250zM719 1640q0 56 38.5 96t92.5 40q55 0 94 -40t39 -96q0 -55 -39 -93t-94 -38q-53 0 -92 38t-39 93z " />
<glyph unicode="&#xd7;" horiz-adv-x="1062" d="M111 305l249 250l-247 250l170 170l249 -250l250 248l168 -168l-248 -250l250 -250l-170 -172l-250 248l-249 -250z" />
<glyph unicode="&#xd8;" horiz-adv-x="1312" d="M109 545v293q0 139 42.5 249.5t117.5 180.5t173.5 106.5t212.5 36.5q121 0 224 -41l71 148l168 -82l-80 -164q166 -156 166 -434v-293q0 -140 -43 -250.5t-118 -180t-174 -105.5t-214 -36q-123 0 -229 41l-72 -147l-168 82l82 168q-159 153 -159 428zM410 567 q0 -79 12 -137l342 703q-45 22 -109 22q-245 0 -245 -338v-250zM541 252q47 -23 114 -23q248 0 248 338v250q0 80 -16 146z" />
<glyph unicode="&#xd9;" horiz-adv-x="1310" d="M133 463v921h301v-897q0 -120 60 -189t161 -69q100 0 161 69t61 189v897h301v-921q0 -142 -71.5 -255t-190.5 -174t-261 -61q-143 0 -262 61t-189.5 174t-70.5 255zM387 1630l78 195l453 -197l-74 -170z" />
<glyph unicode="&#xda;" horiz-adv-x="1310" d="M133 463v921h301v-897q0 -120 60 -189t161 -69q100 0 161 69t61 189v897h301v-921q0 -142 -71.5 -255t-190.5 -174t-261 -61q-143 0 -262 61t-189.5 174t-70.5 255zM387 1628l453 197l78 -195l-457 -172z" />
<glyph unicode="&#xdb;" horiz-adv-x="1310" d="M133 463v921h301v-897q0 -120 60 -189t161 -69q100 0 161 69t61 189v897h301v-921q0 -142 -71.5 -255t-190.5 -174t-261 -61q-143 0 -262 61t-189.5 174t-70.5 255zM344 1636l307 174l310 -174l-109 -166l-199 125l-200 -125z" />
<glyph unicode="&#xdc;" horiz-adv-x="1310" d="M133 463v921h301v-897q0 -120 60 -189t161 -69q100 0 161 69t61 189v897h301v-921q0 -142 -71.5 -255t-190.5 -174t-261 -61q-143 0 -262 61t-189.5 174t-70.5 255zM326 1640q0 55 40 95.5t93 40.5q55 0 94 -40t39 -96q0 -55 -38.5 -93t-94.5 -38q-53 0 -93 38t-40 93z M717 1640q0 56 38.5 96t92.5 40q55 0 94 -40t39 -96q0 -55 -39 -93t-94 -38q-53 0 -92 38t-39 93z" />
<glyph unicode="&#xdd;" horiz-adv-x="1185" d="M31 1384h323l238 -548l239 548h324l-412 -858v-526h-301v526zM326 1628l452 197l78 -195l-457 -172z" />
<glyph unicode="&#xde;" horiz-adv-x="1142" d="M143 0v1384h301v-270h193q136 0 241.5 -62.5t159.5 -162t54 -217.5q0 -181 -125.5 -308.5t-329.5 -127.5h-193v-236h-301zM444 485h183q72 0 115.5 51t43.5 136q0 83 -43.5 134.5t-115.5 51.5h-183v-373z" />
<glyph unicode="&#xdf;" horiz-adv-x="1302" d="M33 877v194h139v92q0 167 102 265t279 98q188 0 299 -89t111 -266q0 -72 -25.5 -135t-55.5 -100t-55.5 -81t-25.5 -83q0 -31 24 -54t62 -39.5t84.5 -34t93 -44t84.5 -62t62 -95t24 -136.5q0 -65 -26.5 -124t-76.5 -106.5t-131 -75.5t-182 -28q-153 0 -332 66l56 233 q142 -51 276 -51q55 0 94 23.5t39 58.5q0 32 -23 56t-59.5 41.5t-81 36t-88.5 45.5t-80.5 62t-59.5 94t-23 134t23.5 138t51 97.5t51 75.5t23.5 78q0 56 -29 86.5t-88 30.5q-106 0 -106 -141v-1137h-291v877h-139z" />
<glyph unicode="&#xe0;" horiz-adv-x="1019" d="M78 342q0 164 113 248t305 84h133v24q0 73 -35 112.5t-98 39.5q-129 0 -297 -53l-64 231q225 70 361 70q190 0 308 -110.5t118 -289.5v-356q0 -157 -125 -263t-297 -106q-181 0 -301.5 105t-120.5 264zM229 1348l78 194l453 -196l-74 -170zM375 344q0 -48 31 -85.5 t94 -37.5q59 0 94 37.5t35 83.5v127h-135q-65 0 -92 -35.5t-27 -89.5z" />
<glyph unicode="&#xe1;" horiz-adv-x="1019" d="M78 342q0 164 113 248t305 84h133v24q0 73 -35 112.5t-98 39.5q-129 0 -297 -53l-64 231q225 70 361 70q190 0 308 -110.5t118 -289.5v-356q0 -157 -125 -263t-297 -106q-181 0 -301.5 105t-120.5 264zM207 1346l452 196l78 -194l-456 -172zM375 344q0 -48 31 -85.5 t94 -37.5q59 0 94 37.5t35 83.5v127h-135q-65 0 -92 -35.5t-27 -89.5z" />
<glyph unicode="&#xe2;" horiz-adv-x="1019" d="M78 342q0 164 113 248t305 84h133v24q0 73 -35 112.5t-98 39.5q-129 0 -297 -53l-64 231q225 70 361 70q190 0 308 -110.5t118 -289.5v-356q0 -157 -125 -263t-297 -106q-181 0 -301.5 105t-120.5 264zM188 1354l308 174l309 -174l-109 -166l-198 125l-201 -125zM375 344 q0 -48 31 -85.5t94 -37.5q59 0 94 37.5t35 83.5v127h-135q-65 0 -92 -35.5t-27 -89.5z" />
<glyph unicode="&#xe3;" horiz-adv-x="1019" d="M78 342q0 164 113 248t305 84h133v24q0 73 -35 112.5t-98 39.5q-129 0 -297 -53l-64 231q225 70 361 70q190 0 308 -110.5t118 -289.5v-356q0 -157 -125 -263t-297 -106q-181 0 -301.5 105t-120.5 264zM182 1370q25 56 77 94.5t128 38.5q41 0 81 -23t76.5 -46t67.5 -23 q59 0 97 59l108 -127q-25 -56 -77 -94.5t-128 -38.5q-32 0 -65 14.5t-55.5 32t-51 32t-53.5 14.5q-57 0 -96 -60zM375 344q0 -48 31 -85.5t94 -37.5q59 0 94 37.5t35 83.5v127h-135q-65 0 -92 -35.5t-27 -89.5z" />
<glyph unicode="&#xe4;" horiz-adv-x="1019" d="M78 342q0 164 113 248t305 84h133v24q0 73 -35 112.5t-98 39.5q-129 0 -297 -53l-64 231q225 70 361 70q190 0 308 -110.5t118 -289.5v-356q0 -157 -125 -263t-297 -106q-181 0 -301.5 105t-120.5 264zM176 1358q0 55 40 95t93 40q55 0 94 -39.5t39 -95.5 q0 -55 -38.5 -93t-94.5 -38q-53 0 -93 38t-40 93zM375 344q0 -48 31 -85.5t94 -37.5q59 0 94 37.5t35 83.5v127h-135q-65 0 -92 -35.5t-27 -89.5zM567 1358q0 56 38.5 95.5t92.5 39.5q55 0 94 -39.5t39 -95.5q0 -55 -39 -93t-94 -38q-53 0 -92 38t-39 93z" />
<glyph unicode="&#xe5;" horiz-adv-x="1019" d="M78 342q0 164 113 248t305 84h133v24q0 73 -35 112.5t-98 39.5q-129 0 -297 -53l-64 231q225 70 361 70q190 0 308 -110.5t118 -289.5v-356q0 -157 -125 -263t-297 -106q-181 0 -301.5 105t-120.5 264zM297 1386q0 85 62 146t149 61q85 0 146 -61t61 -146q0 -86 -61 -148 t-146 -62q-88 0 -149.5 62t-61.5 148zM375 344q0 -48 31 -85.5t94 -37.5q59 0 94 37.5t35 83.5v127h-135q-65 0 -92 -35.5t-27 -89.5zM444 1386q0 -26 19 -44.5t45 -18.5t43.5 18.5t17.5 44.5t-17.5 44t-43.5 18t-45 -18t-19 -44z" />
<glyph unicode="&#xe6;" horiz-adv-x="1589" d="M78 342q0 164 113 248t305 84h133v24q0 73 -35 112.5t-98 39.5q-127 0 -295 -53l-66 231q214 70 361 70q169 0 284 -94q117 94 283 94q184 0 311 -117t127 -297v-233h-583v-15q0 -215 188 -215q138 0 293 51l57 -235q-93 -34 -170 -49t-180 -15q-204 0 -328 103 q-118 -103 -278 -103q-181 0 -301.5 105t-120.5 264zM375 344q0 -48 31 -85.5t94 -37.5q102 0 147 66q-16 72 -16 149v33h-137q-65 0 -92 -35.5t-27 -89.5zM918 655h290v29q0 71 -39 118.5t-106 47.5q-64 0 -104.5 -47.5t-40.5 -118.5v-29z" />
<glyph unicode="&#xe7;" horiz-adv-x="974" d="M98 442v187q0 121 35 212.5t99.5 147t149.5 82.5t189 27q153 0 314 -51l-62 -238q-139 41 -235 41q-98 0 -147.5 -50t-49.5 -171v-187q0 -121 49.5 -171t147.5 -50q96 0 235 41l64 -237q-116 -36 -213 -45v-160q0 -67 -24 -117.5t-63.5 -79t-85 -42t-95.5 -13.5 q-89 0 -173 24l27 197q75 -16 127 -16q39 0 54.5 18.5t15.5 54.5v138q-168 26 -263.5 139t-95.5 319z" />
<glyph unicode="&#xe8;" horiz-adv-x="1060" d="M98 436v209q0 143 59.5 247.5t157 155t220.5 50.5q184 0 311 -117t127 -297v-233h-584v-15q0 -215 189 -215q137 0 292 51l58 -235q-93 -34 -170 -49t-180 -15q-220 0 -350 121t-130 342zM266 1348l78 194l453 -196l-74 -170zM389 655h291v29q0 71 -39 118.5t-106 47.5 q-64 0 -105 -47.5t-41 -118.5v-29z" />
<glyph unicode="&#xe9;" horiz-adv-x="1060" d="M98 436v209q0 143 59.5 247.5t157 155t220.5 50.5q184 0 311 -117t127 -297v-233h-584v-15q0 -215 189 -215q137 0 292 51l58 -235q-93 -34 -170 -49t-180 -15q-220 0 -350 121t-130 342zM244 1346l452 196l78 -194l-457 -172zM389 655h291v29q0 71 -39 118.5t-106 47.5 q-64 0 -105 -47.5t-41 -118.5v-29z" />
<glyph unicode="&#xea;" horiz-adv-x="1060" d="M98 436v209q0 143 59.5 247.5t157 155t220.5 50.5q184 0 311 -117t127 -297v-233h-584v-15q0 -215 189 -215q137 0 292 51l58 -235q-93 -34 -170 -49t-180 -15q-220 0 -350 121t-130 342zM223 1354l307 174l310 -174l-109 -166l-199 125l-200 -125zM389 655h291v29 q0 71 -39 118.5t-106 47.5q-64 0 -105 -47.5t-41 -118.5v-29z" />
<glyph unicode="&#xeb;" horiz-adv-x="1060" d="M98 436v209q0 143 59.5 247.5t157 155t220.5 50.5q184 0 311 -117t127 -297v-233h-584v-15q0 -215 189 -215q137 0 292 51l58 -235q-93 -34 -170 -49t-180 -15q-220 0 -350 121t-130 342zM203 1358q0 55 40 95t93 40q55 0 94 -39.5t39 -95.5q0 -55 -38.5 -93t-94.5 -38 q-53 0 -93 38t-40 93zM389 655h291v29q0 71 -39 118.5t-106 47.5q-64 0 -105 -47.5t-41 -118.5v-29zM594 1358q0 56 38.5 95.5t92.5 39.5q55 0 94 -39.5t39 -95.5q0 -55 -39 -93t-94 -38q-53 0 -92 38t-39 93z" />
<glyph unicode="&#xec;" horiz-adv-x="559" d="M10 1348l78 194l453 -196l-74 -170zM133 0v1071h293v-1071h-293z" />
<glyph unicode="&#xed;" horiz-adv-x="559" d="M14 1346l453 196l78 -194l-457 -172zM133 0v1071h293v-1071h-293z" />
<glyph unicode="&#xee;" horiz-adv-x="559" d="M-31 1354l307 174l310 -174l-109 -166l-198 125l-201 -125zM133 0v1071h293v-1071h-293z" />
<glyph unicode="&#xef;" horiz-adv-x="559" d="M-51 1358q0 55 40 95t93 40q55 0 94 -39.5t39 -95.5q0 -55 -38.5 -93t-94.5 -38q-53 0 -93 38t-40 93zM133 0v1071h293v-1071h-293zM340 1358q0 56 38.5 95.5t92.5 39.5q55 0 94 -39.5t39 -95.5q0 -55 -39 -93t-94 -38q-53 0 -92 38t-39 93z" />
<glyph unicode="&#xf0;" horiz-adv-x="1110" d="M98 422v149q0 88 24 163t65.5 127t97 89t117.5 54.5t128 17.5q58 0 115 -13t90 -32v74q0 174 -106 215l-58 -174l-176 57l41 125q-95 -12 -182 -39l-53 217q200 60 313 64l55 163l176 -57l-40 -127q144 -38 225.5 -149.5t81.5 -298.5v-625q0 -137 -64.5 -241t-167 -156 t-225.5 -52t-225.5 52t-167 156t-64.5 241zM389 432q0 -101 47.5 -156t118.5 -55t118.5 55t47.5 156v309q-81 33 -164 33q-74 0 -121 -51.5t-47 -161.5v-129z" />
<glyph unicode="&#xf1;" horiz-adv-x="1124" d="M123 0v647q0 213 125 332t315 119q91 0 170 -29.5t139 -85t94.5 -142t34.5 -194.5v-647h-292v637q0 104 -38.5 158.5t-107.5 54.5q-70 0 -109.5 -54.5t-39.5 -158.5v-637h-291zM244 1370q25 56 77 94.5t128 38.5q41 0 81 -23t76.5 -46t67.5 -23q58 0 96 59l109 -127 q-25 -56 -77 -94.5t-128 -38.5q-32 0 -65 14.5t-55.5 32t-51 32t-53.5 14.5q-58 0 -97 -60z" />
<glyph unicode="&#xf2;" horiz-adv-x="1110" d="M98 442v187q0 216 127.5 342.5t329.5 126.5t329.5 -126.5t127.5 -342.5v-187q0 -216 -127.5 -342.5t-329.5 -126.5t-329.5 126.5t-127.5 342.5zM289 1348l78 194l452 -196l-74 -170zM389 453q0 -232 166 -232t166 232v165q0 232 -166 232q-89 0 -127.5 -59.5 t-38.5 -172.5v-165z" />
<glyph unicode="&#xf3;" horiz-adv-x="1110" d="M98 442v187q0 216 127.5 342.5t329.5 126.5t329.5 -126.5t127.5 -342.5v-187q0 -216 -127.5 -342.5t-329.5 -126.5t-329.5 126.5t-127.5 342.5zM291 1346l452 196l78 -194l-456 -172zM389 453q0 -232 166 -232t166 232v165q0 232 -166 232q-89 0 -127.5 -59.5 t-38.5 -172.5v-165z" />
<glyph unicode="&#xf4;" horiz-adv-x="1110" d="M98 442v187q0 216 127.5 342.5t329.5 126.5t329.5 -126.5t127.5 -342.5v-187q0 -216 -127.5 -342.5t-329.5 -126.5t-329.5 126.5t-127.5 342.5zM248 1354l307 174l309 -174l-108 -166l-199 125l-201 -125zM389 453q0 -232 166 -232t166 232v165q0 232 -166 232 q-89 0 -127.5 -59.5t-38.5 -172.5v-165z" />
<glyph unicode="&#xf5;" horiz-adv-x="1110" d="M98 442v187q0 216 127.5 342.5t329.5 126.5t329.5 -126.5t127.5 -342.5v-187q0 -216 -127.5 -342.5t-329.5 -126.5t-329.5 126.5t-127.5 342.5zM238 1370q25 56 76.5 94.5t127.5 38.5q41 0 81.5 -23t77 -46t67.5 -23q58 0 96 59l108 -127q-25 -56 -76.5 -94.5 t-127.5 -38.5q-32 0 -65 14.5t-55.5 32t-51.5 32t-54 14.5q-57 0 -96 -60zM389 453q0 -232 166 -232t166 232v165q0 232 -166 232q-89 0 -127.5 -59.5t-38.5 -172.5v-165z" />
<glyph unicode="&#xf6;" horiz-adv-x="1110" d="M98 442v187q0 216 127.5 342.5t329.5 126.5t329.5 -126.5t127.5 -342.5v-187q0 -216 -127.5 -342.5t-329.5 -126.5t-329.5 126.5t-127.5 342.5zM227 1358q0 55 40 95t93 40q55 0 94.5 -39.5t39.5 -95.5q0 -55 -39 -93t-95 -38q-53 0 -93 38t-40 93zM389 453 q0 -232 166 -232t166 232v165q0 232 -166 232q-89 0 -127.5 -59.5t-38.5 -172.5v-165zM618 1358q0 55 39 95t93 40q55 0 94 -39.5t39 -95.5q0 -55 -39 -93t-94 -38q-53 0 -92.5 38t-39.5 93z" />
<glyph unicode="&#xf8;" horiz-adv-x="1110" d="M98 442v187q0 216 127.5 342.5t329.5 126.5q82 0 162 -25l74 152l157 -80l-78 -160q142 -132 142 -356v-187q0 -216 -127.5 -342.5t-329.5 -126.5q-89 0 -166 27l-70 -143l-157 80l74 151q-138 132 -138 354zM389 453q0 -33 2 -47l213 438q-21 6 -49 6 q-89 0 -127.5 -59.5t-38.5 -172.5v-165zM500 227q24 -6 55 -6q166 0 166 232v165q0 38 -2 56z" />
<glyph unicode="&#xf9;" horiz-adv-x="1124" d="M123 424v647h291v-637q0 -104 39 -158.5t108 -54.5q70 0 109 54.5t39 158.5v637h292v-647q0 -108 -35 -194.5t-95.5 -142t-139.5 -85t-170 -29.5q-190 0 -314 119t-124 332zM297 1348l78 194l452 -196l-73 -170z" />
<glyph unicode="&#xfa;" horiz-adv-x="1124" d="M123 424v647h291v-637q0 -104 39 -158.5t108 -54.5q70 0 109 54.5t39 158.5v637h292v-647q0 -108 -35 -194.5t-95.5 -142t-139.5 -85t-170 -29.5q-190 0 -314 119t-124 332zM268 1346l453 196l78 -194l-457 -172z" />
<glyph unicode="&#xfb;" horiz-adv-x="1124" d="M123 424v647h291v-637q0 -104 39 -158.5t108 -54.5q70 0 109 54.5t39 158.5v637h292v-647q0 -108 -35 -194.5t-95.5 -142t-139.5 -85t-170 -29.5q-190 0 -314 119t-124 332zM254 1354l307 174l309 -174l-108 -166l-199 125l-201 -125z" />
<glyph unicode="&#xfc;" horiz-adv-x="1124" d="M123 424v647h291v-637q0 -104 39 -158.5t108 -54.5q70 0 109 54.5t39 158.5v637h292v-647q0 -108 -35 -194.5t-95.5 -142t-139.5 -85t-170 -29.5q-190 0 -314 119t-124 332zM233 1358q0 55 40.5 95t93.5 40q55 0 94 -39.5t39 -95.5q0 -55 -38.5 -93t-94.5 -38 q-53 0 -93.5 38t-40.5 93zM625 1358q0 56 38.5 95.5t92.5 39.5q55 0 94 -39.5t39 -95.5q0 -55 -39 -93t-94 -38q-53 0 -92 38t-39 93z" />
<glyph unicode="&#xfd;" horiz-adv-x="1044" d="M41 1071h291l96 -665q12 -81 40.5 -119.5t80.5 -38.5h49l102 823h293l-202 -1503h-287l59 432h-24q-179 0 -276 103.5t-124 281.5zM252 1346l453 196l77 -194l-456 -172z" />
<glyph unicode="&#xfe;" horiz-adv-x="1130" d="M133 -428v1927h293v-426q77 25 158 25q122 0 223 -52t163 -156t62 -241v-225q0 -110 -35.5 -198t-95.5 -142t-135 -82.5t-158 -28.5q-96 0 -182 50v-451h-293zM426 258q94 -37 156 -37q71 0 114 51t43 162v205q0 102 -43 156.5t-112 54.5q-68 0 -113 -50t-45 -141v-401z " />
<glyph unicode="&#xff;" horiz-adv-x="1044" d="M41 1071h291l96 -665q12 -81 40.5 -119.5t80.5 -38.5h49l102 823h293l-202 -1503h-287l59 432h-24q-179 0 -276 103.5t-124 281.5zM205 1358q0 55 40 95t93 40q55 0 94 -39.5t39 -95.5q0 -55 -38.5 -93t-94.5 -38q-53 0 -93 38t-40 93zM596 1358q0 56 38.5 95.5 t92.5 39.5q55 0 94 -39.5t39 -95.5q0 -55 -39 -93t-94 -38q-53 0 -92 38t-39 93z" />
<glyph unicode="&#x152;" horiz-adv-x="1845" d="M109 545v293q0 139 42.5 249.5t117.5 180.5t173.5 106.5t212.5 36.5q87 0 183 -27h886v-256h-581q61 -125 61 -290v-17h436l-12 -246h-424v-30q0 -164 -61 -289h600v-256h-901q-100 -27 -187 -27q-91 0 -172.5 22.5t-150 69t-118 113.5t-77.5 161t-28 206zM410 567 q0 -182 64 -260t181 -78q248 0 248 338v250q0 338 -248 338q-245 0 -245 -338v-250z" />
<glyph unicode="&#x153;" horiz-adv-x="1683" d="M98 442v187q0 216 127.5 342.5t329.5 126.5q179 0 305 -107q116 107 297 107q184 0 311 -117t127 -297v-233h-583v-15q0 -215 188 -215q138 0 293 51l57 -235q-93 -34 -170 -49t-180 -15q-212 0 -336 109q-118 -109 -309 -109q-202 0 -329.5 126.5t-127.5 342.5zM389 453 q0 -232 166 -232t166 232v165q0 232 -166 232q-89 0 -127.5 -59.5t-38.5 -172.5v-165zM1012 655h291v29q0 71 -39.5 118.5t-106.5 47.5q-64 0 -104.5 -47.5t-40.5 -118.5v-29z" />
<glyph unicode="&#x178;" horiz-adv-x="1185" d="M31 1384h323l238 -548l239 548h324l-412 -858v-526h-301v526zM264 1640q0 55 40 95.5t93 40.5q55 0 94 -40t39 -96q0 -55 -38.5 -93t-94.5 -38q-53 0 -93 38t-40 93zM655 1640q0 56 38.5 96t92.5 40q55 0 94.5 -40t39.5 -96q0 -55 -39.5 -93t-94.5 -38q-53 0 -92 38 t-39 93z" />
<glyph unicode="&#x2c6;" horiz-adv-x="985" d="M184 1354l308 174l309 -174l-109 -166l-198 125l-201 -125z" />
<glyph unicode="&#x2dc;" horiz-adv-x="933" d="M152 1370q25 56 76.5 94.5t127.5 38.5q50 0 120 -46t106 -46q58 0 96 59l108 -127q-25 -56 -76.5 -94.5t-127.5 -38.5q-32 0 -65 14.5t-55.5 32t-51.5 32t-54 14.5q-57 0 -96 -60z" />
<glyph unicode="&#x2000;" horiz-adv-x="938" />
<glyph unicode="&#x2001;" horiz-adv-x="1876" />
<glyph unicode="&#x2002;" horiz-adv-x="938" />
<glyph unicode="&#x2003;" horiz-adv-x="1876" />
<glyph unicode="&#x2004;" horiz-adv-x="625" />
<glyph unicode="&#x2005;" horiz-adv-x="469" />
<glyph unicode="&#x2006;" horiz-adv-x="312" />
<glyph unicode="&#x2007;" horiz-adv-x="312" />
<glyph unicode="&#x2008;" horiz-adv-x="234" />
<glyph unicode="&#x2009;" horiz-adv-x="375" />
<glyph unicode="&#x200a;" horiz-adv-x="104" />
<glyph unicode="&#x2010;" horiz-adv-x="1021" d="M143 432v242h736v-242h-736z" />
<glyph unicode="&#x2011;" horiz-adv-x="1021" d="M143 432v242h736v-242h-736z" />
<glyph unicode="&#x2012;" horiz-adv-x="1021" d="M143 432v242h736v-242h-736z" />
<glyph unicode="&#x2013;" horiz-adv-x="1024" d="M0 432v242h1024v-242h-1024z" />
<glyph unicode="&#x2014;" horiz-adv-x="2048" d="M0 432v242h2048v-242h-2048z" />
<glyph unicode="&#x2018;" horiz-adv-x="555" d="M137 985l148 516l188 -31l-82 -485h-254z" />
<glyph unicode="&#x2019;" horiz-adv-x="559" d="M139 1016l82 485h254l-147 -516z" />
<glyph unicode="&#x201a;" horiz-adv-x="555" d="M115 -176l82 485h254l-148 -516z" />
<glyph unicode="&#x201c;" horiz-adv-x="940" d="M121 985l147 516l189 -31l-82 -485h-254zM500 985l147 516l189 -31l-82 -485h-254z" />
<glyph unicode="&#x201d;" horiz-adv-x="940" d="M125 1016l82 485h254l-148 -516zM504 1016l82 485h254l-148 -516z" />
<glyph unicode="&#x201e;" horiz-adv-x="915" d="M115 -176l82 485h254l-148 -516zM475 -176l82 485h254l-147 -516z" />
<glyph unicode="&#x2022;" horiz-adv-x="942" d="M152 575q0 132 93.5 226t225.5 94t226 -94t94 -226t-94 -225.5t-226 -93.5t-225.5 93.5t-93.5 225.5z" />
<glyph unicode="&#x2026;" horiz-adv-x="1671" d="M111 152q0 71 51 119t121 48q69 0 119.5 -48t50.5 -119t-50.5 -123t-119.5 -52q-70 0 -121 52t-51 123zM666 152q0 71 50.5 119t119.5 48q70 0 120 -48t50 -119t-50 -123t-120 -52q-69 0 -119.5 52t-50.5 123zM1219 152q0 71 51 119t121 48q69 0 119.5 -48t50.5 -119 t-50.5 -123t-119.5 -52q-70 0 -121 52t-51 123z" />
<glyph unicode="&#x202f;" horiz-adv-x="375" />
<glyph unicode="&#x2039;" horiz-adv-x="702" d="M100 575l308 414l194 -143l-196 -268l196 -273l-194 -143z" />
<glyph unicode="&#x203a;" horiz-adv-x="702" d="M100 305l197 268l-197 273l195 143l307 -414l-307 -413z" />
<glyph unicode="&#x205f;" horiz-adv-x="469" />
<glyph unicode="&#x20ac;" horiz-adv-x="1114" d="M76 467v147h135v156h-135v148h135q4 150 76 263.5t190 171.5t262 58q162 0 332 -45l-53 -248q-159 39 -277 39q-101 0 -163 -64.5t-68 -174.5h375l-29 -148h-346v-156h313l-28 -147h-285q6 -112 68 -176t163 -64q118 0 277 39l53 -248q-170 -45 -332 -45 q-222 0 -372 133.5t-156 360.5h-135z" />
<glyph unicode="&#x2122;" horiz-adv-x="1589" d="M143 1217v167h531l-15 -167h-155v-457h-193v457h-168zM700 760l84 624h187l102 -305l103 305h186l84 -624h-195l-26 260l-68 -182h-168l-67 182l-27 -260h-195z" />
<glyph unicode="&#x25fc;" horiz-adv-x="1075" d="M0 0v1075h1075v-1075h-1075z" />
</font>
</defs>
</svg>
