<?xml version="1.0" standalone="no"?>
<!DOCTYPE svg PUBLIC "-//W3C//DTD SVG 1.1//EN" "http://www.w3.org/Graphics/SVG/1.1/DTD/svg11.dtd" >
<svg xmlns="http://www.w3.org/2000/svg" xmlns:xlink="http://www.w3.org/1999/xlink" version="1.1">
<metadata></metadata>
<defs>
<font id="mic_32_newmedium" horiz-adv-x="1302" >
<font-face units-per-em="2048" ascent="1556" descent="-492" />
<missing-glyph horiz-adv-x="471" />
<glyph unicode="&#xfb01;" horiz-adv-x="1228" d="M41 897v166h141v135q0 78 30 142t80 104t111.5 61t128.5 21q86 0 191 -31l-47 -197q-72 21 -129 21q-59 0 -93 -32t-34 -89v-135h248l-45 -166h-203v-897h-238v897h-141zM817 1362q0 59 43 98t101 39t100.5 -39t42.5 -98q0 -57 -42 -98t-101 -41t-101.5 41t-42.5 98z M842 0v1063h239v-1063h-239z" />
<glyph unicode="&#xfb02;" horiz-adv-x="1228" d="M41 897v166h141v135q0 78 30 142t80 104t111.5 61t128.5 21q86 0 191 -31l-47 -197q-72 21 -129 21q-59 0 -93 -32t-34 -89v-135h248l-45 -166h-203v-897h-238v897h-141zM842 0v1485l239 41v-1526h-239z" />
<glyph unicode="&#xfb03;" horiz-adv-x="1916" d="M41 897v166h141v139q0 104 52 179.5t130 110t168 34.5q86 0 191 -31l-47 -197q-72 21 -129 21q-59 0 -93 -30.5t-34 -86.5v-139h450v139q0 104 52.5 179.5t130.5 110t168 34.5q85 0 190 -31l-47 -197q-72 21 -129 21q-59 0 -93 -30.5t-34 -86.5v-139h248l-45 -166h-203 v-897h-238v897h-450v-897h-238v897h-141zM1505 1348q0 58 42.5 97.5t101.5 39.5q58 0 99.5 -39.5t41.5 -97.5q0 -57 -42 -98.5t-99 -41.5q-59 0 -101.5 41t-42.5 99zM1530 0v1063h239v-1063h-239z" />
<glyph unicode="&#xfb04;" horiz-adv-x="1916" d="M41 897v166h141v135q0 78 30 142t80 104t111.5 61t128.5 21q86 0 191 -31l-47 -197q-72 21 -129 21q-59 0 -93 -32t-34 -89v-135h450v139q0 104 52.5 179.5t130.5 110t168 34.5q85 0 190 -31l-47 -197q-72 21 -129 21q-59 0 -93 -30.5t-34 -86.5v-139h248l-45 -166h-203 v-897h-238v897h-450v-897h-238v897h-141zM1530 0v1485l239 41v-1526h-239z" />
<glyph horiz-adv-x="0" />
<glyph horiz-adv-x="682" />
<glyph unicode=" "  horiz-adv-x="471" />
<glyph unicode="&#x09;" horiz-adv-x="471" />
<glyph unicode="&#xa0;" horiz-adv-x="471" />
<glyph unicode="!" horiz-adv-x="540" d="M125 129q0 61 43 102t102 41q60 0 103 -41t43 -102q0 -60 -43 -102.5t-103 -42.5q-59 0 -102 42.5t-43 102.5zM145 1364l252 41l-14 -965h-223z" />
<glyph unicode="&#x22;" horiz-adv-x="811" d="M139 1499h205l-18 -500h-166zM467 1499h207l-21 -500h-166z" />
<glyph unicode="#" horiz-adv-x="1175" d="M78 387v209h166l24 262h-143v209h166l37 385h211l-37 -385h241l37 385h211l-37 -385h144v-209h-166l-25 -262h142v-209h-164l-39 -387h-211l39 387h-242l-39 -387h-211l39 387h-143zM455 596h241l25 262h-242z" />
<glyph unicode="$" horiz-adv-x="1046" d="M63 53l48 209q217 -76 385 -76q91 0 148.5 50.5t57.5 136.5q0 59 -33.5 101.5t-87 69.5t-118 51.5t-129 55t-118 71t-87 110t-33.5 161.5q0 146 95 244t251 123v237h181v-231q136 -14 299 -76l-64 -200q-181 67 -305 67q-207 0 -207 -160q0 -54 33.5 -93.5t87 -64.5 t118 -48t129 -54.5t118 -74t87 -115.5t33.5 -170q0 -160 -95.5 -261t-248.5 -130v-240h-182v229q-182 11 -363 78z" />
<glyph unicode="%" horiz-adv-x="1820" d="M117 944v137q0 149 90.5 239.5t230.5 90.5t231 -90.5t91 -239.5v-137q0 -150 -90.5 -239t-231.5 -89t-231 89t-90 239zM299 948q0 -170 139 -170q67 0 105.5 41.5t38.5 128.5v129q0 86 -39 127t-105 41q-65 0 -102 -41t-37 -127v-129zM485 0l654 1384h186l-651 -1384 h-189zM1061 303v137q0 150 89.5 240t229.5 90q141 0 232.5 -90t91.5 -240v-137q0 -148 -92 -239t-232 -91t-229.5 90.5t-89.5 239.5zM1241 307q0 -86 37 -127t102 -41q66 0 105 41t39 127v129q0 86 -39 128t-105 42q-63 0 -101 -42t-38 -128v-129z" />
<glyph unicode="&#x26;" horiz-adv-x="1167" d="M104 389q0 103 44.5 189t127.5 141q-153 103 -153 297q0 173 123.5 284t324.5 111q141 0 314 -65l-72 -197q-128 51 -233 51t-158 -51t-53 -133q0 -84 49.5 -140.5t146.5 -56.5h105v-196h-113q-96 0 -152.5 -69.5t-56.5 -164.5q0 -91 58 -148t157 -57q101 0 158 57 t57 148v430h336v-196h-106v-234q0 -179 -120 -297.5t-325 -118.5q-207 0 -333 119t-126 297z" />
<glyph unicode="'" horiz-adv-x="483" d="M139 1499h205l-18 -498h-166z" />
<glyph unicode="(" horiz-adv-x="671" d="M158 -31v1231q0 436 481 436v-206q-133 0 -191.5 -54.5t-58.5 -181.5v-1219q0 -127 58 -181t192 -54v-207q-481 0 -481 436z" />
<glyph unicode=")" horiz-adv-x="669" d="M31 -260q134 0 192 54t58 181v1219q0 127 -58 181.5t-192 54.5v206q481 0 481 -436v-1231q0 -436 -481 -436v207z" />
<glyph unicode="*" horiz-adv-x="1015" d="M125 1006l209 106l-209 109l98 170l197 -127l-10 235h196l-12 -235l197 127l100 -170l-209 -109l209 -106l-100 -170l-197 125l12 -234h-196l10 234l-197 -125z" />
<glyph unicode="+" horiz-adv-x="1163" d="M125 467v203h356v354h203v-354h354v-203h-354v-354h-203v354h-356z" />
<glyph unicode="," horiz-adv-x="538" d="M94 -264l94 522h230l-158 -551z" />
<glyph unicode="-" horiz-adv-x="1011" d="M158 457v202h698v-202h-698z" />
<glyph unicode="." horiz-adv-x="538" d="M125 125q0 61 43 102t102 41q58 0 101 -41.5t43 -101.5t-43 -104t-101 -44q-60 0 -102.5 44t-42.5 104z" />
<glyph unicode="/" horiz-adv-x="790" d="M98 -129l383 1628h211l-383 -1628h-211z" />
<glyph unicode="0" horiz-adv-x="1212" d="M113 537v313q0 142 38.5 251t106.5 176t156 100.5t192 33.5t191.5 -33.5t156 -100.5t107.5 -176t39 -251v-313q0 -142 -39 -251.5t-107.5 -177t-156.5 -101.5t-191 -34t-191 34t-156.5 101.5t-107 177t-38.5 251.5zM352 537q0 -186 68 -271.5t186 -85.5t186 85.5 t68 271.5v313q0 185 -68.5 269.5t-185.5 84.5t-185.5 -84.5t-68.5 -269.5v-313z" />
<glyph unicode="1" horiz-adv-x="808" d="M90 1114v209l553 86v-1409h-237v1167z" />
<glyph unicode="2" horiz-adv-x="1075" d="M90 0v145q0 84 21.5 157.5t57.5 128.5t83 104t99 88t103.5 74.5t98.5 70t83 69.5t57.5 76.5t21.5 87.5q0 89 -54.5 146t-156.5 57q-82 0 -153.5 -21.5t-157.5 -62.5l-82 187q203 104 401 104q196 0 322.5 -112.5t126.5 -294.5q0 -80 -34 -151.5t-88 -126t-119 -105.5 t-130.5 -98.5t-119.5 -95t-88 -106t-34 -120.5h610v-201h-868z" />
<glyph unicode="3" horiz-adv-x="1044" d="M51 43l62 195q163 -58 307 -58q123 0 201.5 66t78.5 178q0 95 -59 154t-188 59h-164l-37 190l356 357h-514l-31 200h801l19 -200l-357 -357q174 -3 296 -114.5t122 -288.5q0 -103 -42.5 -189.5t-114 -143t-165.5 -87.5t-198 -31q-172 0 -373 70z" />
<glyph unicode="4" horiz-adv-x="1144" d="M92 481l275 903h225l-262 -890h313v436l231 37v-473h195v-203h-195v-289l-231 -20v309h-520z" />
<glyph unicode="5" horiz-adv-x="1058" d="M61 39l48 201q197 -60 340 -60q109 0 189.5 69.5t80.5 199.5q0 231 -289 231h-291l25 704h758l-41 -200h-502l-12 -307h88q238 0 374 -107.5t136 -318.5q0 -94 -30 -174t-80 -135t-115.5 -94t-137.5 -57t-145 -18q-185 0 -396 66z" />
<glyph unicode="6" horiz-adv-x="1150" d="M113 438v457q0 107 32 199.5t92.5 163.5t155.5 112t213 41q147 0 330 -57l-53 -201q-151 51 -277 51q-115 0 -184.5 -80t-69.5 -206v-60q120 82 260 82q198 0 322.5 -129t124.5 -356q0 -150 -66 -261.5t-172.5 -166t-236.5 -54.5q-129 0 -234.5 53t-171 160.5 t-65.5 251.5zM352 436q0 -108 60.5 -182t169.5 -74q111 0 171 78t60 197q0 136 -57 216.5t-174 80.5q-127 0 -230 -82v-234z" />
<glyph unicode="7" horiz-adv-x="1032" d="M41 1384h928v-198q-134 -164 -212 -324t-116.5 -368.5t-38.5 -493.5h-248q0 731 355 1184h-648z" />
<glyph unicode="8" horiz-adv-x="1175" d="M102 365q0 65 19 119t56 95.5t78 71.5t97 60q-97 61 -152 138.5t-55 190.5q0 154 120 262.5t321 108.5q116 0 217.5 -45t165 -131t63.5 -195q0 -104 -55.5 -174.5t-157.5 -130.5q56 -30 98 -62.5t78.5 -76.5t56 -102.5t19.5 -128.5q0 -91 -43.5 -167t-113.5 -124 t-155.5 -74.5t-172.5 -26.5q-89 0 -174.5 26.5t-155 74.5t-112 124t-42.5 167zM348 367q0 -81 68.5 -134t169.5 -53q99 0 170 53t71 134q0 35 -15.5 66t-36.5 53t-60.5 46t-70.5 39t-83 37q-67 -33 -109.5 -63t-73 -76t-30.5 -102zM389 1042q0 -71 55.5 -116.5t163.5 -91.5 q87 44 133.5 91.5t46.5 116.5q0 75 -56 118.5t-146 43.5q-87 0 -142 -44t-55 -118z" />
<glyph unicode="9" horiz-adv-x="1140" d="M82 930q0 113 38 205.5t103.5 152t151 91.5t182.5 32q129 0 234.5 -53t171 -160.5t65.5 -251.5v-457q0 -107 -32 -199.5t-92.5 -163.5t-155.5 -112t-213 -41q-143 0 -330 58l53 200q155 -51 277 -51q116 0 184.5 80t68.5 207v59q-120 -82 -260 -82q-196 0 -321 129.5 t-125 356.5zM328 930q0 -136 57 -216.5t174 -80.5q126 0 229 82v233q0 108 -60 182t-169 74q-111 0 -171 -77.5t-60 -196.5z" />
<glyph unicode=":" horiz-adv-x="538" d="M125 125q0 61 42 102t103 41q58 0 101 -41.5t43 -101.5t-43 -104t-101 -44q-60 0 -102.5 44t-42.5 104zM125 780q0 61 42.5 102.5t102.5 41.5q58 0 101 -42t43 -102t-42.5 -103.5t-101.5 -43.5q-60 0 -102.5 43.5t-42.5 103.5z" />
<glyph unicode=";" horiz-adv-x="552" d="M88 -297l94 522h228l-156 -551zM133 780q0 61 43.5 102.5t102.5 41.5t102 -41.5t43 -102.5q0 -60 -43 -103.5t-102 -43.5q-60 0 -103 43.5t-43 103.5z" />
<glyph unicode="&#x3c;" horiz-adv-x="1081" d="M125 573l700 586l131 -153l-514 -433l514 -430l-131 -155z" />
<glyph unicode="=" horiz-adv-x="1161" d="M125 258v201h911v-201h-911zM125 684v203h911v-203h-911z" />
<glyph unicode="&#x3e;" horiz-adv-x="1081" d="M125 143l514 430l-514 433l131 153l700 -586l-700 -585z" />
<glyph unicode="?" horiz-adv-x="917" d="M90 1290q169 121 336 121q104 0 190.5 -39.5t141.5 -121t55 -189.5q0 -61 -26.5 -120.5t-64 -107t-75 -92t-64 -92.5t-26.5 -92v-149l-227 41v104q0 64 26 125.5t63 109t74 91.5t63 91t26 91q0 66 -43 105.5t-115 39.5q-106 0 -234 -88zM297 123q0 62 43.5 102.5 t103.5 40.5q58 0 101 -41.5t43 -101.5t-42.5 -103t-101.5 -43q-60 0 -103.5 43t-43.5 103z" />
<glyph unicode="@" horiz-adv-x="1812" d="M123 385q0 186 61 353.5t170.5 295.5t275.5 203.5t363 75.5q207 0 366 -96.5t244 -266t85 -385.5q0 -71 -7 -129h-430l-16 -133q-17 -130 -125.5 -216.5t-255.5 -86.5q-139 0 -227 76t-88 196q0 148 105.5 228t273.5 80h145l6 38q8 66 -22.5 113t-102.5 47 q-109 0 -250 -43l-24 166q160 55 295 55q152 0 242 -95t67 -243l-6 -38h243q0 248 -149.5 407.5t-392.5 159.5q-150 0 -277.5 -61t-213 -163.5t-133.5 -238.5t-48 -285q0 -261 151.5 -424t407.5 -163q224 0 457 155l73 -149q-127 -88 -257.5 -130t-284.5 -42q-166 0 -303 58 t-228 158t-140.5 234.5t-49.5 288.5zM750 295q0 -52 32.5 -84.5t91.5 -32.5q63 0 105.5 37.5t48.5 87.5l16 133h-145q-69 0 -109 -36t-40 -105z" />
<glyph unicode="A" horiz-adv-x="1243" d="M51 0l428 1384h285l428 -1384h-250l-104 354h-432l-103 -354h-252zM463 557h317l-102 344q-30 103 -55 229q-28 -127 -58 -229z" />
<glyph unicode="B" horiz-adv-x="1179" d="M158 0v1384h436q210 0 333.5 -104.5t123.5 -271.5q0 -189 -179 -281q112 -41 171 -123.5t59 -191.5q0 -81 -34 -154.5t-96.5 -131t-159.5 -92t-214 -34.5h-440zM403 213h193q120 0 187 55t67 144q0 90 -59.5 143t-178.5 53h-209v-395zM403 813h170q106 0 166 48.5 t60 131.5q0 81 -53 129.5t-158 48.5h-185v-358z" />
<glyph unicode="C" horiz-adv-x="1159" d="M121 537v311q0 139 41 247.5t115.5 177t173.5 103.5t219 35q190 0 397 -63l-47 -207q-188 57 -348 57q-145 0 -225 -89t-80 -280v-274q0 -369 305 -369q167 0 348 58l47 -207q-198 -64 -397 -64q-120 0 -219 35.5t-173 104t-115.5 177t-41.5 247.5z" />
<glyph unicode="D" horiz-adv-x="1290" d="M158 0v1296q312 115 506 115q104 0 195 -34t161 -98t110.5 -163t40.5 -221v-391q0 -247 -133 -375.5t-374 -128.5h-506zM403 213h261q136 0 198 70.5t62 236.5v354q0 159 -70 241.5t-190 82.5q-125 0 -261 -47v-938z" />
<glyph unicode="E" horiz-adv-x="1083" d="M158 0v1384h792v-213h-547v-370h463l-12 -205h-451v-383h566v-213h-811z" />
<glyph unicode="F" horiz-adv-x="1056" d="M158 0v1384h790v-213h-545v-370h447l-14 -205h-433v-596h-245z" />
<glyph unicode="G" horiz-adv-x="1251" d="M121 537v311q0 139 41 247.5t115.5 177t173.5 103.5t219 35q180 0 422 -76l-54 -205q-205 66 -366 66q-305 0 -305 -365v-274q0 -191 80 -280t225 -89q100 0 221 27v358h-145v181h378v-699q-239 -82 -456 -82q-120 0 -219 35.5t-173 104t-115.5 177t-41.5 247.5z" />
<glyph unicode="H" horiz-adv-x="1308" d="M158 0v1384h245v-575h500v575h248v-1384h-248v600h-500v-600h-245z" />
<glyph unicode="I" horiz-adv-x="561" d="M158 0v1384h245v-1384h-245z" />
<glyph unicode="J" horiz-adv-x="983" d="M45 43l57 201q166 -58 287 -58q110 0 160.5 74.5t50.5 204.5v919l246 -14v-911q0 -225 -118 -355.5t-331 -130.5q-163 0 -352 70z" />
<glyph unicode="K" horiz-adv-x="1228" d="M158 0v1384h245v-600l428 600h287l-446 -612l512 -772h-291l-371 569l-119 -166v-403h-245z" />
<glyph unicode="L" horiz-adv-x="1042" d="M158 0v1384h245v-1171h574l-12 -213h-807z" />
<glyph unicode="M" horiz-adv-x="1683" d="M86 0l156 1384h284l262 -716q29 -75 54 -179q16 77 51 179l264 716h285l155 -1384h-245l-82 821q-13 132 -15 234q-49 -179 -69 -232l-211 -575h-266l-211 575q-34 91 -72 232q-3 -143 -12 -234l-84 -821h-244z" />
<glyph unicode="N" horiz-adv-x="1294" d="M158 0v1384h198l539 -899q-6 114 -6 205v694h248v-1384h-205l-537 891q8 -104 8 -211v-680h-245z" />
<glyph unicode="O" d="M121 537v307q0 138 41.5 247.5t114 178.5t168 105t206.5 36t206.5 -36t168.5 -105t114.5 -178.5t41.5 -247.5v-307q0 -138 -41.5 -247t-114.5 -177.5t-168.5 -104t-206.5 -35.5t-206.5 35.5t-168 104t-114 177.5t-41.5 247zM367 555q0 -192 76 -280.5t208 -88.5 q131 0 207 89t76 280v274q0 189 -76.5 279t-206.5 90q-132 0 -208 -90t-76 -279v-274z" />
<glyph unicode="P" horiz-adv-x="1134" d="M158 0v1384h477q129 0 230 -60t153.5 -158t52.5 -214q0 -177 -121 -301.5t-315 -124.5h-232v-526h-245zM403 735h224q90 0 141 59.5t51 157.5t-51.5 158.5t-140.5 60.5h-224v-436z" />
<glyph unicode="Q" d="M121 537v307q0 138 41.5 247.5t114 178.5t168 105t206.5 36t206.5 -36t168.5 -105t114.5 -178.5t41.5 -247.5v-307q0 -195 -80 -326.5t-217 -192.5l102 -272l-186 -113l-127 340h-23q-111 0 -206.5 35.5t-168 104t-114 177.5t-41.5 247zM367 555q0 -192 76 -280.5 t208 -88.5q131 0 208 89t77 280v274q0 189 -77 279t-208 90q-132 0 -208 -90t-76 -279v-274z" />
<glyph unicode="R" horiz-adv-x="1157" d="M158 0v1384h477q129 0 230 -60t153.5 -158t52.5 -214q0 -130 -69.5 -234t-190.5 -149l268 -569h-276l-238 537h-162v-537h-245zM403 735h222q89 0 142.5 60t53.5 157t-53.5 158t-142.5 61h-222v-436z" />
<glyph unicode="S" horiz-adv-x="1052" d="M82 53l47 209q217 -76 379 -76q91 0 149 50.5t58 136.5q0 46 -20.5 84t-55 65t-80 50.5t-95 46.5t-99 48t-95 58.5t-80 75t-55 101t-20.5 132.5q0 170 127 273.5t321 103.5q178 0 377 -80l-63 -201q-184 68 -314 68q-96 0 -144 -43t-48 -117q0 -43 20.5 -77.5t55 -59.5 t80 -47.5t95 -45t99 -47.5t95 -60t80 -78t55 -106t20.5 -140q0 -97 -38 -175.5t-102.5 -127.5t-147 -75t-175.5 -26q-202 0 -426 80z" />
<glyph unicode="T" horiz-adv-x="1069" d="M57 1171v213h955v-213h-353v-1171h-247v1171h-355z" />
<glyph unicode="U" d="M147 455v929h246v-911q0 -130 71 -208.5t187 -78.5q115 0 186.5 78.5t71.5 208.5v911h246v-929q0 -211 -146.5 -346.5t-357.5 -135.5t-357.5 135.5t-146.5 346.5z" />
<glyph unicode="V" horiz-adv-x="1243" d="M51 1384h252l262 -901q27 -95 58 -239q24 124 55 239l264 901h250l-428 -1384h-285z" />
<glyph unicode="W" horiz-adv-x="1714" d="M78 1384h252l119 -817q13 -100 24 -268q43 207 62 266l186 600h270l189 -600q21 -72 61 -262q10 155 25 264l118 817h252l-235 -1384h-279l-221 723q-27 90 -45 188q-21 -115 -43 -188l-221 -723h-279z" />
<glyph unicode="X" horiz-adv-x="1206" d="M45 0l418 721l-373 663h272l240 -438l248 438h266l-371 -655l416 -729h-278l-279 506l-287 -506h-272z" />
<glyph unicode="Y" horiz-adv-x="1167" d="M41 1384h264l279 -604l278 604h264l-419 -856v-528h-246v528z" />
<glyph unicode="Z" horiz-adv-x="1140" d="M88 0v172l610 999h-598v213h908v-170l-615 -1001h658l-23 -213h-940z" />
<glyph unicode="[" horiz-adv-x="585" d="M158 -465v2101h393v-196h-164v-1708h164v-197h-393z" />
<glyph unicode="\" horiz-adv-x="792" d="M98 1499h211l385 -1628h-213z" />
<glyph unicode="]" horiz-adv-x="585" d="M35 -268h164v1708h-164v196h393v-2101h-393v197z" />
<glyph unicode="^" horiz-adv-x="1259" d="M154 874l366 625h221l367 -625l-203 -92l-274 521l-277 -521z" />
<glyph unicode="_" horiz-adv-x="1024" d="M0 -168h1024v-203h-1024v203z" />
<glyph unicode="`" horiz-adv-x="817" d="M160 1348l69 172l430 -187l-63 -147z" />
<glyph unicode="a" horiz-adv-x="1005" d="M86 328q0 159 108.5 243t292.5 84h168v39q0 91 -43.5 140t-124.5 49q-117 0 -286 -52l-51 195q199 64 337 64q185 0 297.5 -107.5t112.5 -288.5v-366q0 -150 -119.5 -252.5t-285.5 -102.5q-172 0 -289 102t-117 253zM330 332q0 -62 42.5 -107t119.5 -45q73 0 118 44.5 t45 103.5v151h-170q-81 0 -118 -41t-37 -106z" />
<glyph unicode="b" horiz-adv-x="1085" d="M111 418v1069l239 39v-498q98 62 213 62q82 0 155.5 -28t132 -81.5t92.5 -140.5t34 -197v-225q0 -137 -60.5 -240t-158 -154t-215.5 -51t-215 51t-157 154t-60 240zM350 428q0 -121 53.5 -184.5t139.5 -63.5t139 63.5t53 184.5v205q0 130 -53.5 190t-140.5 60 q-84 0 -191 -56v-399z" />
<glyph unicode="c" horiz-adv-x="970" d="M111 438v187q0 119 33.5 209.5t95 145.5t143.5 82.5t184 27.5q140 0 305 -50l-49 -198q-143 41 -245 41q-113 0 -170.5 -62t-57.5 -200v-177q0 -140 57.5 -202t170.5 -62q99 0 245 41l51 -198q-171 -50 -307 -50q-102 0 -184 27.5t-143.5 82.5t-95 145.5t-33.5 209.5z " />
<glyph unicode="d" horiz-adv-x="1083" d="M111 418v225q0 110 34 197t92 140.5t131.5 81.5t155.5 28q111 0 209 -62v471h242v-1081q0 -137 -60.5 -240t-157.5 -154t-214 -51q-118 0 -215 51t-157 154t-60 240zM348 428q0 -121 54.5 -184.5t140.5 -63.5q85 0 137.5 63.5t52.5 184.5v399q-104 56 -188 56 q-89 0 -143 -60t-54 -190v-205z" />
<glyph unicode="e" horiz-adv-x="1052" d="M111 424v225q0 139 57 240.5t151 151t211 49.5q178 0 300 -113t122 -289v-225h-604v-39q0 -122 56 -183t161 -61q130 0 289 49l47 -196q-162 -60 -336 -60q-208 0 -331 117.5t-123 333.5zM348 639h365v49q0 85 -50.5 140t-132.5 55q-81 0 -131.5 -56t-50.5 -153v-35z" />
<glyph unicode="f" horiz-adv-x="694" d="M41 897v166h141v135q0 78 30 142t80 104t111.5 61t128.5 21q86 0 191 -31l-47 -197q-72 21 -129 21q-59 0 -93 -32t-34 -89v-135h248l-45 -166h-203v-897h-238v897h-141z" />
<glyph unicode="g" horiz-adv-x="1003" d="M53 -358l62 188q197 -86 356 -86q107 0 164 29t57 80q0 32 -37.5 52.5t-93.5 29.5t-121 24t-121 34.5t-93.5 64t-37.5 108.5q0 72 66 131q-75 48 -116.5 127.5t-41.5 179.5v109q0 168 109.5 272.5t279.5 104.5q82 0 152 -25l319 22l-14 -159l-125 -6q60 -96 60 -209v-109 q0 -166 -109.5 -270.5t-280.5 -104.5q-37 0 -84 7q-14 -18 -14 -33q0 -18 30.5 -30.5t78.5 -22t106.5 -20.5t117.5 -30.5t107 -47t78.5 -75.5t30.5 -110q0 -149 -123 -237.5t-340 -88.5q-212 0 -422 101zM332 604q0 -78 37.5 -125t117.5 -47t117 47t37 125v109 q0 78 -37.5 124t-118.5 46q-79 0 -116 -46.5t-37 -123.5v-109z" />
<glyph unicode="h" horiz-adv-x="1130" d="M147 0v1499h240v-471q102 62 213 62q83 0 152.5 -24t124 -73.5t85.5 -133t31 -193.5v-666h-239v651q0 127 -45.5 179.5t-130.5 52.5q-87 0 -191 -56v-827h-240z" />
<glyph unicode="i" horiz-adv-x="534" d="M123 1362q0 59 42.5 98t100.5 39t101 -39t43 -98q0 -57 -42.5 -98t-101.5 -41t-101 41t-42 98zM147 0v1063h240v-1063h-240z" />
<glyph unicode="j" horiz-adv-x="532" d="M123 1362q0 59 42 98t101 39q57 0 99.5 -39t42.5 -98q0 -57 -42.5 -98t-99.5 -41q-60 0 -101.5 41t-41.5 98zM145 -455v1518h242v-1477z" />
<glyph unicode="k" horiz-adv-x="1003" d="M147 0v1499h240v-862l143 49q35 13 55 42t33 79l66 256h236l-82 -307q-24 -93 -54.5 -145t-89.5 -81l277 -530h-264l-222 451l-98 -37v-414h-240z" />
<glyph unicode="l" horiz-adv-x="534" d="M147 0v1485l240 41v-1526h-240z" />
<glyph unicode="m" horiz-adv-x="1640" d="M137 0v662q0 139 55.5 237.5t145 144.5t201.5 46q92 0 164 -44.5t116 -123.5q45 80 117.5 124t165.5 44q175 0 288 -111t113 -317v-662h-239v641q0 119 -41.5 180.5t-120.5 61.5q-78 0 -120 -71t-42 -206v-606h-240v606q0 134 -42 205.5t-119 71.5q-79 0 -120.5 -61.5 t-41.5 -180.5v-641h-240z" />
<glyph unicode="n" horiz-adv-x="1118" d="M137 0v651q0 207 120.5 323t303.5 116q181 0 300.5 -116t119.5 -323v-651h-240v641q0 118 -48 180t-132 62q-85 0 -135.5 -62.5t-50.5 -179.5v-641h-238z" />
<glyph unicode="o" horiz-adv-x="1103" d="M111 440v185q0 220 122 342.5t318 122.5q198 0 320 -122.5t122 -344.5v-183q0 -220 -122.5 -343.5t-319.5 -123.5q-196 0 -318 123.5t-122 343.5zM348 451q0 -271 203 -271q205 0 205 271v161q0 271 -205 271q-203 0 -203 -271v-161z" />
<glyph unicode="p" horiz-adv-x="1085" d="M111 -432v1077q0 137 60 240t157 154t215 51t215.5 -51t158 -154t60.5 -240v-225q0 -110 -34 -197t-92.5 -140.5t-132 -81.5t-155.5 -28q-115 0 -213 62v-467h-239zM350 236q107 -56 191 -56q87 0 140.5 60t53.5 190v205q0 121 -53 184.5t-139 63.5t-139.5 -63.5 t-53.5 -184.5v-399z" />
<glyph unicode="q" horiz-adv-x="1085" d="M111 420v225q0 137 60 240t157 154t215 51t215.5 -51t158 -154t60.5 -240v-1065l-242 -39v494q-102 -62 -211 -62q-82 0 -155.5 28t-131.5 81.5t-92 140.5t-34 197zM350 430q0 -130 53 -190t142 -60q86 0 190 56v399q0 122 -52.5 185t-139.5 63q-86 0 -139.5 -63.5 t-53.5 -184.5v-205z" />
<glyph unicode="r" horiz-adv-x="745" d="M137 0v686q0 180 119 292t299 112q91 0 174 -27l-45 -199q-78 19 -127 19q-83 0 -132.5 -54.5t-49.5 -142.5v-686h-238z" />
<glyph unicode="s" horiz-adv-x="874" d="M72 33l47 196q152 -49 276 -49q69 0 113.5 31.5t44.5 79.5q0 40 -25 69.5t-65 50t-88.5 40t-97.5 45.5t-89 60.5t-65 91.5t-25 132q0 136 102 223t273 87q138 0 283 -50l-54 -200q-134 43 -229 43q-67 0 -98 -28.5t-31 -74.5q0 -37 25 -64.5t65 -46.5t88.5 -37.5 t96.5 -45t88 -61.5t65 -94t25 -136q0 -132 -105 -227t-297 -95q-155 0 -323 60z" />
<glyph unicode="t" horiz-adv-x="663" d="M23 1063h176v295l241 39v-334h189v-166h-189v-897h-241v897h-131z" />
<glyph unicode="u" horiz-adv-x="1118" d="M137 412v651h238v-641q0 -117 49.5 -179.5t134.5 -62.5q84 0 133 62.5t49 179.5v641h240v-651q0 -139 -58.5 -240t-152.5 -150t-211 -49q-119 0 -213 49t-151.5 150t-57.5 240z" />
<glyph unicode="v" horiz-adv-x="1017" d="M35 1063h246l157 -516q37 -127 70 -293q64 264 72 293l157 516h246l-338 -1063h-272z" />
<glyph unicode="w" horiz-adv-x="1611" d="M92 1063h240l47 -686q6 -88 46 -140.5t110 -52.5q69 0 111 55.5t42 141.5v610h234v-610q0 -86 41 -141.5t110 -55.5q70 0 112 53t48 140l49 686h238l-54 -703q-13 -181 -118 -284t-271 -103q-89 0 -158.5 38.5t-113.5 107.5q-96 -146 -275 -146q-164 0 -269.5 104.5 t-117.5 282.5z" />
<glyph unicode="x" horiz-adv-x="1015" d="M33 0l332 549l-304 514h271l176 -307l182 307h262l-305 -508l334 -555h-276l-199 346l-205 -346h-268z" />
<glyph unicode="y" horiz-adv-x="1024" d="M51 1063h240l94 -666q14 -96 51 -143t107 -47h75l107 856h240l-197 -1495h-236l58 432h-55q-332 0 -388 377z" />
<glyph unicode="z" horiz-adv-x="983" d="M102 0v174l467 688h-452v201h739v-172l-457 -690h482l-21 -201h-758z" />
<glyph unicode="{" horiz-adv-x="843" d="M96 496v178q132 0 185 53t53 176v326q0 208 125 308.5t358 100.5v-206q-136 0 -195 -46.5t-59 -162.5v-320q0 -113 -39 -189.5t-129 -129.5q168 -99 168 -318v-313q0 -115 59 -162t195 -47v-205q-232 0 -357.5 101t-125.5 309v317q0 122 -53.5 176t-184.5 54z" />
<glyph unicode="|" horiz-adv-x="532" d="M152 -410v1909h229v-1909h-229z" />
<glyph unicode="}" horiz-adv-x="841" d="M27 -256q136 0 194 47t58 162v313q0 219 167 318q-90 53 -128.5 129.5t-38.5 189.5v320q0 116 -58 162.5t-194 46.5v206q231 0 356 -100.5t125 -308.5v-326q0 -123 54 -176t186 -53v-178q-131 0 -185.5 -54t-54.5 -176v-317q0 -208 -125 -309t-356 -101v205z" />
<glyph unicode="~" horiz-adv-x="1206" d="M147 575q133 199 289 199q53 0 105.5 -25.5t86.5 -55.5t73.5 -55.5t70.5 -25.5q38 0 71.5 26.5t69.5 76.5l146 -129q-133 -199 -287 -199q-55 0 -108 25t-86.5 55t-73 55t-70.5 25q-74 0 -141 -103z" />
<glyph unicode="&#xa1;" horiz-adv-x="540" d="M125 1053q0 60 42.5 103.5t102.5 43.5q59 0 102.5 -43t43.5 -104q0 -60 -44 -101t-102 -41q-60 0 -102.5 40.5t-42.5 101.5zM143 -221l15 964h223l14 -923z" />
<glyph unicode="&#xa2;" horiz-adv-x="991" d="M113 438v187q0 206 96.5 320t265.5 138v234h182v-234q84 -7 217 -43l-47 -198q-146 41 -245 41q-114 0 -172 -62t-58 -200v-177q0 -140 58 -202t172 -62q99 0 245 41l50 -198q-120 -34 -220 -43v-234h-182v234q-168 23 -265 137.5t-97 320.5z" />
<glyph unicode="&#xa3;" horiz-adv-x="1017" d="M121 561v150h112q-4 17 -15 57.5t-16 62t-11.5 54.5t-9.5 62.5t-3 58.5q0 130 58 223t153.5 137.5t216.5 44.5q151 0 330 -74l-70 -190q-132 53 -243 53q-197 0 -197 -211q0 -28 2.5 -55.5t9 -60t11 -51.5t15 -58.5t13.5 -52.5h344v-150h-315q4 -50 4 -76q0 -81 -38 -158 t-89 -132h543v-195h-799v176q137 173 137 309q0 26 -4 76h-139z" />
<glyph unicode="&#xa4;" horiz-adv-x="1193" d="M137 276l127 127q-41 77 -41 170q0 91 41 168l-127 127l166 164l125 -127q77 41 170 41q91 0 168 -41l127 127l164 -164l-127 -125q43 -81 43 -170q0 -86 -41 -170l125 -127l-164 -161l-125 125q-84 -41 -170 -41q-96 0 -170 41l-125 -125zM428 573q0 -71 50 -120.5 t120 -49.5t120 49.5t50 120.5t-50 120.5t-120 49.5t-120 -49.5t-50 -120.5z" />
<glyph unicode="&#xa5;" horiz-adv-x="1087" d="M8 1384h252l285 -634l282 634h254l-354 -735h199v-149h-258v-144h258v-149h-258v-207h-244v207h-258v149h258v144h-258v149h196z" />
<glyph unicode="&#xa6;" horiz-adv-x="532" d="M152 299h229v-709h-229v709zM152 782v717h229v-717h-229z" />
<glyph unicode="&#xa7;" horiz-adv-x="1146" d="M127 -201l41 207q182 -65 326 -65q85 0 136.5 36.5t51.5 112.5q0 52 -29 91.5t-75 65t-102 49.5t-112 54t-102 69.5t-75 104.5t-29 150q0 152 108 246q-26 67 -26 147q0 155 115 249.5t290 94.5q161 0 352 -72l-57 -200q-155 59 -276 59q-82 0 -125 -33t-43 -96 q0 -45 29 -81t75 -61.5t101.5 -51t111 -58.5t101.5 -74.5t75 -108t29 -151.5q0 -153 -107 -252q25 -70 25 -141q0 -88 -36.5 -158.5t-98 -114.5t-138.5 -67.5t-161 -23.5q-94 0 -179.5 18t-195.5 55zM414 678q0 -40 20 -71t57 -54.5t76 -42t90.5 -45t87.5 -51.5q19 34 19 67 q0 45 -19.5 79.5t-56.5 59t-74.5 42t-90.5 41.5t-87 45q-22 -28 -22 -70z" />
<glyph unicode="&#xa8;" horiz-adv-x="931" d="M154 1352q0 50 36 86.5t84 36.5q49 0 84 -36t35 -87q0 -50 -34.5 -84.5t-84.5 -34.5q-48 0 -84 35t-36 84zM539 1352q0 51 35 87t83 36q51 0 86 -36t35 -87q0 -49 -35.5 -84t-85.5 -35q-48 0 -83 35t-35 84z" />
<glyph unicode="&#xa9;" horiz-adv-x="1533" d="M121 659q0 143 44.5 268t126 218t204 147t270.5 54q198 0 347.5 -93t225.5 -247.5t76 -346.5t-76 -346.5t-225.5 -247t-347.5 -92.5q-148 0 -270.5 53.5t-204 146.5t-126 218t-44.5 268zM272 659q0 -155 58 -277.5t171 -194.5t265 -72q230 0 363 153t133 391 q0 156 -57.5 278.5t-171 194.5t-267.5 72q-152 0 -265 -72t-171 -195t-58 -278zM465 582v155q0 135 84 214t211 79q104 0 213 -35l-31 -123q-95 27 -180 27q-71 0 -107.5 -45t-36.5 -131v-129q0 -83 36.5 -128.5t107.5 -45.5q78 0 180 29l31 -125q-115 -35 -213 -35 q-127 0 -211 79t-84 214z" />
<glyph unicode="&#xaa;" horiz-adv-x="757" d="M88 854q0 112 78.5 170.5t210.5 58.5h102v29q0 111 -102 111q-77 0 -207 -37l-41 151q139 47 248 47q129 0 210 -77t81 -201v-252q0 -108 -85.5 -182t-203.5 -74q-124 0 -207.5 73.5t-83.5 182.5zM279 856q0 -43 28 -68.5t72 -25.5q45 0 72.5 28t27.5 64v96h-94 q-106 0 -106 -94z" />
<glyph unicode="&#xab;" horiz-adv-x="1081" d="M125 573l299 392l162 -123l-203 -267l203 -268l-162 -123zM516 573l297 392l164 -123l-205 -267l205 -268l-164 -123z" />
<glyph unicode="&#xac;" horiz-adv-x="1161" d="M125 457v202h911v-546h-200v344h-711z" />
<glyph unicode="&#xad;" horiz-adv-x="1011" d="M158 457v202h698v-202h-698z" />
<glyph unicode="&#xae;" horiz-adv-x="1533" d="M121 659q0 143 44.5 268t126 218t204 147t270.5 54q198 0 347.5 -93t225.5 -247.5t76 -346.5t-76 -346.5t-225.5 -247t-347.5 -92.5q-148 0 -270.5 53.5t-204 146.5t-126 218t-44.5 268zM272 659q0 -155 58 -277.5t171 -194.5t265 -72q230 0 363 153t133 391 q0 156 -57.5 278.5t-171 194.5t-267.5 72q-152 0 -265 -72t-171 -195t-58 -278zM530 303v717h252q109 0 173.5 -66.5t64.5 -165.5q0 -66 -28 -120.5t-87 -83.5l137 -281h-163l-115 254h-80v-254h-154zM684 688h90q44 0 69 28t25 72t-24.5 72.5t-71.5 28.5h-88v-201z" />
<glyph unicode="&#xaf;" horiz-adv-x="854" d="M168 1272v166h520v-166h-520z" />
<glyph unicode="&#xb0;" horiz-adv-x="768" d="M125 1264q0 103 76.5 179.5t181.5 76.5q104 0 182 -78t78 -182q0 -106 -77.5 -182.5t-182.5 -76.5q-107 0 -182.5 76.5t-75.5 186.5zM281 1262q0 -43 30.5 -74t73.5 -31q41 0 70.5 31t29.5 74q0 41 -29.5 70.5t-72.5 29.5q-41 0 -71.5 -29.5t-30.5 -70.5z" />
<glyph unicode="&#xb1;" horiz-adv-x="1142" d="M125 23h893v-199h-893v199zM125 457v202h346v322h203v-322h344v-202h-344v-324h-203v324h-346z" />
<glyph unicode="&#xb4;" horiz-adv-x="817" d="M160 1333l428 187l69 -172l-436 -162z" />
<glyph unicode="&#xb5;" horiz-adv-x="1128" d="M147 -432v1495h238v-660q0 -109 50.5 -166t133.5 -57q84 0 133.5 62.5t49.5 179.5v641h239v-651q0 -139 -58.5 -240t-152.5 -150t-211 -49q-105 0 -184 43v-448h-238z" />
<glyph unicode="&#xb6;" horiz-adv-x="1271" d="M104 979q0 167 111.5 286t280.5 119h653v-1628h-229v1409h-158v-1409h-230v817h-53q-102 0 -189 55.5t-136.5 149t-49.5 201.5z" />
<glyph unicode="&#xb7;" horiz-adv-x="577" d="M160 573q0 55 38 93.5t91 38.5q54 0 92.5 -38.5t38.5 -93.5q0 -54 -38.5 -90.5t-92.5 -36.5q-52 0 -90.5 37t-38.5 90z" />
<glyph unicode="&#xb8;" horiz-adv-x="626" d="M68 -412l22 170q72 -14 115 -14q47 0 66.5 21.5t19.5 64.5v170h186v-193q0 -64 -22.5 -112t-60.5 -74.5t-81.5 -39.5t-91.5 -13q-82 0 -153 20z" />
<glyph unicode="&#xba;" horiz-adv-x="808" d="M88 928v129q0 152 88 239.5t227 87.5q140 0 229 -88t89 -241v-127q0 -153 -89 -241.5t-229 -88.5q-139 0 -227 88.5t-88 241.5zM276 934q0 -172 127 -172t127 172v115q0 174 -127 174t-127 -174v-115z" />
<glyph unicode="&#xbb;" horiz-adv-x="1081" d="M104 307l205 266l-205 269l164 123l297 -390l-297 -391zM494 307l204 266l-204 269l163 123l299 -390l-299 -391z" />
<glyph unicode="&#xbf;" horiz-adv-x="917" d="M90 113q0 61 26.5 120.5t64 106.5t75 91.5t64 92.5t26.5 92v150l227 -41v-104q0 -64 -26 -125.5t-62.5 -109t-73.5 -91.5t-63 -91t-26 -91q0 -66 42.5 -106t114.5 -40q106 0 234 88l100 -172q-169 -121 -336 -121q-103 0 -190 40t-142 121.5t-55 189.5zM315 1051 q0 60 42.5 102.5t101.5 42.5q60 0 103.5 -42.5t43.5 -102.5q0 -62 -43.5 -103t-103.5 -41q-58 0 -101 42t-43 102z" />
<glyph unicode="&#xc0;" horiz-adv-x="1243" d="M51 0l428 1384h285l428 -1384h-250l-104 354h-432l-103 -354h-252zM373 1638l69 172l428 -186l-61 -147zM463 557h317l-102 344q-30 103 -55 229q-28 -127 -58 -229z" />
<glyph unicode="&#xc1;" horiz-adv-x="1243" d="M51 0l428 1384h285l428 -1384h-250l-104 354h-432l-103 -354h-252zM373 1624l428 186l69 -172l-436 -161zM463 557h317l-102 344q-30 103 -55 229q-28 -127 -58 -229z" />
<glyph unicode="&#xc2;" horiz-adv-x="1243" d="M51 0l428 1384h285l428 -1384h-250l-104 354h-432l-103 -354h-252zM328 1630l295 170l295 -170l-95 -145l-200 129l-201 -129zM463 557h317l-102 344q-30 103 -55 229q-28 -127 -58 -229z" />
<glyph unicode="&#xc3;" horiz-adv-x="1243" d="M51 0l428 1384h285l428 -1384h-250l-104 354h-432l-103 -354h-252zM315 1651q23 50 71.5 88.5t119.5 38.5q34 0 68 -15t57.5 -33.5t52.5 -33.5t53 -15q57 0 94 60l95 -107q-23 -50 -72 -88.5t-117 -38.5q-34 0 -68.5 15t-57.5 32.5t-52 32.5t-53 15q-57 0 -96 -58z M463 557h317l-102 344q-30 103 -55 229q-28 -127 -58 -229z" />
<glyph unicode="&#xc4;" horiz-adv-x="1243" d="M51 0l428 1384h285l428 -1384h-250l-104 354h-432l-103 -354h-252zM309 1642q0 51 35.5 87t83.5 36q51 0 86 -36t35 -87q0 -50 -35 -84t-86 -34q-48 0 -83.5 34.5t-35.5 83.5zM463 557h317l-102 344q-30 103 -55 229q-28 -127 -58 -229zM694 1642q0 51 35 87t84 36 q50 0 85.5 -36t35.5 -87q0 -49 -35.5 -83.5t-85.5 -34.5q-48 0 -83.5 34.5t-35.5 83.5z" />
<glyph unicode="&#xc5;" horiz-adv-x="1243" d="M51 0l428 1384h285l428 -1384h-250l-104 354h-432l-103 -354h-252zM422 1675q0 80 59 138.5t142 58.5q79 0 137.5 -58.5t58.5 -138.5q0 -81 -58 -139.5t-138 -58.5q-83 0 -142 58t-59 140zM463 557h317l-102 344q-30 103 -55 229q-28 -127 -58 -229zM557 1675 q0 -27 19.5 -46t46.5 -19t46 19t19 46q0 28 -18.5 47t-46.5 19t-47 -19t-19 -47z" />
<glyph unicode="&#xc6;" horiz-adv-x="1845" d="M37 0l809 1382h821l14 -213h-536l31 -368h481l-27 -205h-440l27 -383h546l17 -213h-785l-26 354h-459l-201 -354h-272zM625 557h327l-37 514z" />
<glyph unicode="&#xc7;" horiz-adv-x="1159" d="M121 537v311q0 139 41 247.5t115.5 177t173.5 103.5t219 35q190 0 397 -63l-47 -207q-188 57 -348 57q-145 0 -225 -89t-80 -280v-274q0 -369 305 -369q167 0 348 58l47 -207q-139 -45 -283 -57v-173q0 -64 -22.5 -112t-60.5 -74.5t-81.5 -39.5t-91.5 -13q-84 0 -153 20 l22 170q68 -14 115 -14q46 0 66 21.5t20 64.5v147q-218 19 -347.5 162.5t-129.5 397.5z" />
<glyph unicode="&#xc8;" horiz-adv-x="1083" d="M158 0v1384h792v-213h-547v-370h463l-12 -205h-451v-383h566v-213h-811zM315 1638l70 172l430 -186l-63 -147z" />
<glyph unicode="&#xc9;" horiz-adv-x="1083" d="M158 0v1384h792v-213h-547v-370h463l-12 -205h-451v-383h566v-213h-811zM291 1624l430 186l70 -172l-437 -161z" />
<glyph unicode="&#xca;" horiz-adv-x="1083" d="M158 0v1384h792v-213h-547v-370h463l-12 -205h-451v-383h566v-213h-811zM260 1630l293 170l295 -170l-92 -145l-201 129l-201 -129z" />
<glyph unicode="&#xcb;" horiz-adv-x="1083" d="M158 0v1384h792v-213h-547v-370h463l-12 -205h-451v-383h566v-213h-811zM248 1642q0 51 35.5 87t83.5 36q51 0 85.5 -36t34.5 -87q0 -50 -34.5 -84t-85.5 -34q-48 0 -83.5 34.5t-35.5 83.5zM633 1642q0 51 35 87t84 36q50 0 85 -36t35 -87q0 -49 -35 -83.5t-85 -34.5 q-48 0 -83.5 34.5t-35.5 83.5z" />
<glyph unicode="&#xcc;" horiz-adv-x="561" d="M31 1638l69 172l428 -186l-61 -147zM158 0v1384h245v-1384h-245z" />
<glyph unicode="&#xcd;" horiz-adv-x="561" d="M31 1624l428 186l69 -172l-436 -161zM158 0v1384h245v-1384h-245z" />
<glyph unicode="&#xce;" horiz-adv-x="561" d="M-14 1630l293 170l294 -170l-94 -145l-198 129l-203 -129zM158 0v1384h245v-1384h-245z" />
<glyph unicode="&#xcf;" horiz-adv-x="561" d="M-33 1642q0 50 36.5 86.5t84.5 36.5q50 0 85.5 -36t35.5 -87q0 -49 -35.5 -83.5t-85.5 -34.5q-48 0 -84.5 34.5t-36.5 83.5zM158 0v1384h245v-1384h-245zM352 1642q0 51 35.5 87t83.5 36q51 0 86 -36t35 -87q0 -49 -35.5 -83.5t-85.5 -34.5q-47 0 -83 34.5t-36 83.5z" />
<glyph unicode="&#xd0;" horiz-adv-x="1290" d="M29 610v166h129v520q312 115 506 115q104 0 195 -34t161 -98t110.5 -163t40.5 -221v-391q0 -247 -133 -375.5t-374 -128.5h-506v610h-129zM403 213h261q136 0 198 70.5t62 236.5v354q0 159 -70 241.5t-190 82.5q-125 0 -261 -47v-375h263v-166h-263v-397z" />
<glyph unicode="&#xd1;" horiz-adv-x="1294" d="M158 0v1384h198l539 -899q-6 114 -6 205v694h248v-1384h-205l-537 891q8 -104 8 -211v-680h-245zM338 1651q23 50 72 88.5t118 38.5q34 0 68 -15t57.5 -33.5t53 -33.5t53.5 -15q55 0 96 60l94 -107q-23 -50 -72 -88.5t-118 -38.5q-34 0 -68 15t-57.5 32.5t-53 32.5 t-53.5 15q-53 0 -96 -58z" />
<glyph unicode="&#xd2;" d="M121 537v307q0 138 41.5 247.5t114 178.5t168 105t206.5 36t206.5 -36t168.5 -105t114.5 -178.5t41.5 -247.5v-307q0 -138 -41.5 -247t-114.5 -177.5t-168.5 -104t-206.5 -35.5t-206.5 35.5t-168 104t-114 177.5t-41.5 247zM367 555q0 -192 76 -280.5t208 -88.5 q131 0 207 89t76 280v274q0 189 -76.5 279t-206.5 90q-132 0 -208 -90t-76 -279v-274zM399 1638l70 172l430 -186l-63 -147z" />
<glyph unicode="&#xd3;" d="M121 537v307q0 138 41.5 247.5t114 178.5t168 105t206.5 36t206.5 -36t168.5 -105t114.5 -178.5t41.5 -247.5v-307q0 -138 -41.5 -247t-114.5 -177.5t-168.5 -104t-206.5 -35.5t-206.5 35.5t-168 104t-114 177.5t-41.5 247zM367 555q0 -192 76 -280.5t208 -88.5 q131 0 207 89t76 280v274q0 189 -76.5 279t-206.5 90q-132 0 -208 -90t-76 -279v-274zM393 1624l428 186l70 -172l-436 -161z" />
<glyph unicode="&#xd4;" d="M121 537v307q0 138 41.5 247.5t114 178.5t168 105t206.5 36t206.5 -36t168.5 -105t114.5 -178.5t41.5 -247.5v-307q0 -138 -41.5 -247t-114.5 -177.5t-168.5 -104t-206.5 -35.5t-206.5 35.5t-168 104t-114 177.5t-41.5 247zM354 1630l295 170l295 -170l-94 -145l-201 129 l-200 -129zM367 555q0 -192 76 -280.5t208 -88.5q131 0 207 89t76 280v274q0 189 -76.5 279t-206.5 90q-132 0 -208 -90t-76 -279v-274z" />
<glyph unicode="&#xd5;" d="M121 537v307q0 138 41.5 247.5t114 178.5t168 105t206.5 36t206.5 -36t168.5 -105t114.5 -178.5t41.5 -247.5v-307q0 -138 -41.5 -247t-114.5 -177.5t-168.5 -104t-206.5 -35.5t-206.5 35.5t-168 104t-114 177.5t-41.5 247zM344 1651q23 50 72.5 88.5t118.5 38.5 q34 0 68 -15t57.5 -33.5t52.5 -33.5t53 -15q55 0 96 60l94 -107q-23 -50 -72 -88.5t-118 -38.5q-34 0 -68 15t-57.5 32.5t-52.5 32.5t-53 15q-54 0 -97 -58zM367 555q0 -192 76 -280.5t208 -88.5q131 0 207 89t76 280v274q0 189 -76.5 279t-206.5 90q-132 0 -208 -90 t-76 -279v-274z" />
<glyph unicode="&#xd6;" d="M121 537v307q0 138 41.5 247.5t114 178.5t168 105t206.5 36t206.5 -36t168.5 -105t114.5 -178.5t41.5 -247.5v-307q0 -138 -41.5 -247t-114.5 -177.5t-168.5 -104t-206.5 -35.5t-206.5 35.5t-168 104t-114 177.5t-41.5 247zM338 1642q0 50 36.5 86.5t84.5 36.5 q50 0 85.5 -36t35.5 -87q0 -49 -35.5 -83.5t-85.5 -34.5q-48 0 -84.5 34.5t-36.5 83.5zM367 555q0 -192 76 -280.5t208 -88.5q131 0 207 89t76 280v274q0 189 -76.5 279t-206.5 90q-132 0 -208 -90t-76 -279v-274zM723 1642q0 51 35.5 87t83.5 36q51 0 86 -36t35 -87 q0 -49 -35.5 -83.5t-85.5 -34.5q-47 0 -83 34.5t-36 83.5z" />
<glyph unicode="&#xd7;" horiz-adv-x="1038" d="M125 309l252 252l-250 252l141 141l252 -252l252 252l141 -141l-251 -252l251 -252l-141 -143l-252 250l-252 -252z" />
<glyph unicode="&#xd8;" d="M121 537v307q0 138 41.5 247.5t114 178.5t168 105t206.5 36q124 0 230 -47l71 149l150 -73l-80 -166q160 -153 160 -430v-307q0 -138 -41.5 -247t-114.5 -177.5t-168.5 -104t-206.5 -35.5q-130 0 -239 50l-74 -152l-150 74l84 172q-151 148 -151 420zM367 555 q0 -102 30 -184l387 796q-60 31 -133 31q-132 0 -208 -90t-76 -279v-274zM508 221q55 -35 143 -35q131 0 207 89t76 280v274q0 117 -35 195z" />
<glyph unicode="&#xd9;" d="M147 455v929h246v-911q0 -130 71 -208.5t187 -78.5q115 0 186.5 78.5t71.5 208.5v911h246v-929q0 -211 -146.5 -346.5t-357.5 -135.5t-357.5 135.5t-146.5 346.5zM399 1638l70 172l428 -186l-61 -147z" />
<glyph unicode="&#xda;" d="M147 455v929h246v-911q0 -130 71 -208.5t187 -78.5q115 0 186.5 78.5t71.5 208.5v911h246v-929q0 -211 -146.5 -346.5t-357.5 -135.5t-357.5 135.5t-146.5 346.5zM399 1624l428 186l70 -172l-436 -161z" />
<glyph unicode="&#xdb;" d="M147 455v929h246v-911q0 -130 71 -208.5t187 -78.5q115 0 186.5 78.5t71.5 208.5v911h246v-929q0 -211 -146.5 -346.5t-357.5 -135.5t-357.5 135.5t-146.5 346.5zM354 1630l293 170l295 -170l-92 -145l-201 129l-200 -129z" />
<glyph unicode="&#xdc;" d="M147 455v929h246v-911q0 -130 71 -208.5t187 -78.5q115 0 186.5 78.5t71.5 208.5v911h246v-929q0 -211 -146.5 -346.5t-357.5 -135.5t-357.5 135.5t-146.5 346.5zM338 1642q0 50 36.5 86.5t84.5 36.5q49 0 84 -36t35 -87q0 -49 -34.5 -83.5t-84.5 -34.5q-48 0 -84.5 34.5 t-36.5 83.5zM723 1642q0 51 35.5 87t83.5 36q51 0 86 -36t35 -87q0 -49 -35.5 -83.5t-85.5 -34.5q-48 0 -83.5 34.5t-35.5 83.5z" />
<glyph unicode="&#xdd;" horiz-adv-x="1167" d="M41 1384h264l279 -604l278 604h264l-419 -856v-528h-246v528zM334 1624l428 186l69 -172l-436 -161z" />
<glyph unicode="&#xde;" horiz-adv-x="1134" d="M158 0v1384h245v-270h232q129 0 230 -60t153.5 -158t52.5 -214q0 -115 -52.5 -212t-153.5 -156.5t-230 -59.5h-232v-254h-245zM403 465h224q90 0 141 59.5t51 157.5t-51 157.5t-141 59.5h-224v-434z" />
<glyph unicode="&#xdf;" horiz-adv-x="1267" d="M41 897v166h139v111q0 165 101.5 258.5t263.5 93.5q170 0 277.5 -87t107.5 -257q0 -58 -19.5 -110t-48 -89t-56.5 -70.5t-47.5 -68.5t-19.5 -70q0 -37 25 -64t64.5 -45.5t88 -36.5t96.5 -43.5t87.5 -60.5t64.5 -93.5t25 -135.5q0 -62 -25 -119t-72.5 -102.5t-124.5 -73 t-173 -27.5q-155 0 -318 60l45 196q152 -49 273 -49q69 0 114 32t45 79q0 40 -24 69.5t-62.5 49t-85 38.5t-93 44.5t-85 59.5t-62.5 90.5t-24 131.5q0 62 18.5 114.5t45.5 88t54 66.5t45.5 65t18.5 68q0 68 -39.5 105.5t-103.5 37.5q-62 0 -99.5 -40t-37.5 -124v-1155h-240 v897h-139z" />
<glyph unicode="&#xe0;" horiz-adv-x="1005" d="M86 328q0 159 108.5 243t292.5 84h168v39q0 91 -43.5 140t-124.5 49q-117 0 -286 -52l-51 195q199 64 337 64q185 0 297.5 -107.5t112.5 -288.5v-366q0 -150 -119.5 -252.5t-285.5 -102.5q-172 0 -289 102t-117 253zM238 1348l69 172l430 -187l-63 -147zM330 332 q0 -62 42.5 -107t119.5 -45q73 0 118 44.5t45 103.5v151h-170q-81 0 -118 -41t-37 -106z" />
<glyph unicode="&#xe1;" horiz-adv-x="1005" d="M86 328q0 159 108.5 243t292.5 84h168v39q0 91 -43.5 140t-124.5 49q-117 0 -286 -52l-51 195q199 64 337 64q185 0 297.5 -107.5t112.5 -288.5v-366q0 -150 -119.5 -252.5t-285.5 -102.5q-172 0 -289 102t-117 253zM219 1333l428 187l70 -172l-436 -162zM330 332 q0 -62 42.5 -107t119.5 -45q73 0 118 44.5t45 103.5v151h-170q-81 0 -118 -41t-37 -106z" />
<glyph unicode="&#xe2;" horiz-adv-x="1005" d="M86 328q0 159 108.5 243t292.5 84h168v39q0 91 -43.5 140t-124.5 49q-117 0 -286 -52l-51 195q199 64 337 64q185 0 297.5 -107.5t112.5 -288.5v-366q0 -150 -119.5 -252.5t-285.5 -102.5q-172 0 -289 102t-117 253zM193 1339l292 170l295 -170l-92 -145l-201 129 l-200 -129zM330 332q0 -62 42.5 -107t119.5 -45q73 0 118 44.5t45 103.5v151h-170q-81 0 -118 -41t-37 -106z" />
<glyph unicode="&#xe3;" horiz-adv-x="1005" d="M86 328q0 159 108.5 243t292.5 84h168v39q0 91 -43.5 140t-124.5 49q-117 0 -286 -52l-51 195q199 64 337 64q185 0 297.5 -107.5t112.5 -288.5v-366q0 -150 -119.5 -252.5t-285.5 -102.5q-172 0 -289 102t-117 253zM182 1360q23 50 72.5 88.5t118.5 38.5q42 0 84.5 -24 t79.5 -48t67 -24q55 0 96 59l95 -107q-23 -50 -72 -88t-119 -38q-42 0 -84.5 23.5t-79.5 47t-67 23.5q-54 0 -97 -58zM330 332q0 -62 42.5 -107t119.5 -45q73 0 118 44.5t45 103.5v151h-170q-81 0 -118 -41t-37 -106z" />
<glyph unicode="&#xe4;" horiz-adv-x="1005" d="M86 328q0 159 108.5 243t292.5 84h168v39q0 91 -43.5 140t-124.5 49q-117 0 -286 -52l-51 195q199 64 337 64q185 0 297.5 -107.5t112.5 -288.5v-366q0 -150 -119.5 -252.5t-285.5 -102.5q-172 0 -289 102t-117 253zM176 1352q0 50 36.5 86.5t84.5 36.5q49 0 84 -36 t35 -87q0 -50 -35 -84.5t-84 -34.5q-48 0 -84.5 35t-36.5 84zM330 332q0 -62 42.5 -107t119.5 -45q73 0 118 44.5t45 103.5v151h-170q-81 0 -118 -41t-37 -106zM561 1352q0 51 35.5 87t83.5 36q51 0 86 -36t35 -87q0 -49 -35.5 -84t-85.5 -35q-48 0 -83.5 35t-35.5 84z" />
<glyph unicode="&#xe5;" horiz-adv-x="1005" d="M86 328q0 159 108.5 243t292.5 84h168v39q0 91 -43.5 140t-124.5 49q-117 0 -286 -52l-51 195q199 64 337 64q185 0 297.5 -107.5t112.5 -288.5v-366q0 -150 -119.5 -252.5t-285.5 -102.5q-172 0 -289 102t-117 253zM297 1384q0 80 58 138.5t141 58.5q79 0 137.5 -58.5 t58.5 -138.5q0 -81 -58 -139.5t-138 -58.5q-83 0 -141 58t-58 140zM330 332q0 -62 42.5 -107t119.5 -45q73 0 118 44.5t45 103.5v151h-170q-81 0 -118 -41t-37 -106zM430 1384q0 -26 19 -45.5t47 -19.5q27 0 46 19t19 46q0 28 -18.5 47t-46.5 19t-47 -19t-19 -47z" />
<glyph unicode="&#xe6;" horiz-adv-x="1597" d="M86 328q0 158 108.5 241.5t292.5 83.5h168v41q0 91 -43.5 140t-124.5 49q-119 0 -284 -52l-53 195q189 64 337 64q187 0 293 -115q112 115 293 115q178 0 300 -113t122 -289v-225h-604v-39q0 -122 56 -183t161 -61q129 0 289 49l47 -196q-163 -60 -336 -60 q-205 0 -326 115q-118 -115 -290 -115t-289 102t-117 253zM330 332q0 -62 42.5 -107t119.5 -45q65 0 108.5 20.5t75.5 67.5q-19 71 -19 156v53h-172q-81 0 -118 -40.5t-37 -104.5zM891 639h364v49q0 85 -50 140t-132 55q-81 0 -131.5 -56t-50.5 -153v-35z" />
<glyph unicode="&#xe7;" horiz-adv-x="970" d="M111 438v187q0 119 33.5 209.5t95 145.5t143.5 82.5t184 27.5q140 0 305 -50l-49 -198q-143 41 -245 41q-113 0 -170.5 -62t-57.5 -200v-177q0 -140 57.5 -202t170.5 -62q99 0 245 41l51 -198q-101 -30 -204 -43v-173q0 -64 -22.5 -112t-61 -74.5t-82 -39.5t-92.5 -13 q-83 0 -154 20l25 170q68 -14 114 -14t65 21.5t19 64.5v150q-173 21 -271.5 134.5t-98.5 323.5z" />
<glyph unicode="&#xe8;" horiz-adv-x="1052" d="M111 424v225q0 139 57 240.5t151 151t211 49.5q178 0 300 -113t122 -289v-225h-604v-39q0 -122 56 -183t161 -61q130 0 289 49l47 -196q-162 -60 -336 -60q-208 0 -331 117.5t-123 333.5zM279 1348l69 172l428 -187l-61 -147zM348 639h365v49q0 85 -50.5 140t-132.5 55 q-81 0 -131.5 -56t-50.5 -153v-35z" />
<glyph unicode="&#xe9;" horiz-adv-x="1052" d="M111 424v225q0 139 57 240.5t151 151t211 49.5q178 0 300 -113t122 -289v-225h-604v-39q0 -122 56 -183t161 -61q130 0 289 49l47 -196q-162 -60 -336 -60q-208 0 -331 117.5t-123 333.5zM262 1333l430 187l70 -172l-436 -162zM348 639h365v49q0 85 -50.5 140t-132.5 55 q-81 0 -131.5 -56t-50.5 -153v-35z" />
<glyph unicode="&#xea;" horiz-adv-x="1052" d="M111 424v225q0 139 57 240.5t151 151t211 49.5q178 0 300 -113t122 -289v-225h-604v-39q0 -122 56 -183t161 -61q130 0 289 49l47 -196q-162 -60 -336 -60q-208 0 -331 117.5t-123 333.5zM233 1339l293 170l295 -170l-94 -145l-199 129l-202 -129zM348 639h365v49 q0 85 -50.5 140t-132.5 55q-81 0 -131.5 -56t-50.5 -153v-35z" />
<glyph unicode="&#xeb;" horiz-adv-x="1052" d="M111 424v225q0 139 57 240.5t151 151t211 49.5q178 0 300 -113t122 -289v-225h-604v-39q0 -122 56 -183t161 -61q130 0 289 49l47 -196q-162 -60 -336 -60q-208 0 -331 117.5t-123 333.5zM213 1352q0 50 36.5 86.5t84.5 36.5q50 0 85.5 -36t35.5 -87q0 -49 -35.5 -84 t-85.5 -35q-48 0 -84.5 35t-36.5 84zM348 639h365v49q0 85 -50.5 140t-132.5 55q-81 0 -131.5 -56t-50.5 -153v-35zM598 1352q0 51 35.5 87t83.5 36q51 0 86 -36t35 -87q0 -49 -35.5 -84t-85.5 -35q-47 0 -83 35t-36 84z" />
<glyph unicode="&#xec;" horiz-adv-x="534" d="M14 1348l70 172l430 -187l-63 -147zM147 0v1063h240v-1063h-240z" />
<glyph unicode="&#xed;" horiz-adv-x="534" d="M18 1333l428 187l70 -172l-436 -162zM147 0v1063h240v-1063h-240z" />
<glyph unicode="&#xee;" horiz-adv-x="534" d="M-29 1339l293 170l295 -170l-92 -145l-201 129l-200 -129zM147 0v1063h240v-1063h-240z" />
<glyph unicode="&#xef;" horiz-adv-x="534" d="M-47 1352q0 51 35.5 87t83.5 36q51 0 86 -36t35 -87q0 -50 -35 -84.5t-86 -34.5q-48 0 -83.5 35t-35.5 84zM147 0v1063h240v-1063h-240zM338 1352q0 51 35 87t84 36q50 0 85.5 -36t35.5 -87q0 -49 -35.5 -84t-85.5 -35q-48 0 -83.5 35t-35.5 84z" />
<glyph unicode="&#xf0;" horiz-adv-x="1103" d="M111 426v141q0 112 34.5 200.5t94 142.5t135 82t160.5 28q140 0 231 -59v94q0 217 -145 254l-66 -189l-149 51l49 144q-84 -10 -199 -41l-43 182q197 56 307 60l60 172l151 -52l-47 -137q146 -35 227.5 -145.5t81.5 -298.5v-629q0 -108 -35 -195t-95.5 -142.5t-140 -85.5 t-171.5 -30q-91 0 -170 30t-139.5 85.5t-95.5 142.5t-35 195zM348 436q0 -130 56 -193t147 -63t148 63.5t57 192.5v324q-94 53 -203 53q-91 0 -148 -61t-57 -195v-121z" />
<glyph unicode="&#xf1;" horiz-adv-x="1118" d="M137 0v651q0 207 120.5 323t303.5 116q181 0 300.5 -116t119.5 -323v-651h-240v641q0 118 -48 180t-132 62q-85 0 -135.5 -62.5t-50.5 -179.5v-641h-238zM252 1360q23 50 72 88.5t118 38.5q42 0 84.5 -24t80 -48t67.5 -24q55 0 96 59l94 -107q-23 -50 -72 -88t-118 -38 q-42 0 -84.5 23.5t-80 47t-67.5 23.5q-53 0 -96 -58z" />
<glyph unicode="&#xf2;" horiz-adv-x="1103" d="M111 440v185q0 220 122 342.5t318 122.5q198 0 320 -122.5t122 -344.5v-183q0 -220 -122.5 -343.5t-319.5 -123.5q-196 0 -318 123.5t-122 343.5zM301 1348l70 172l430 -187l-64 -147zM348 451q0 -271 203 -271q205 0 205 271v161q0 271 -205 271q-203 0 -203 -271v-161z " />
<glyph unicode="&#xf3;" horiz-adv-x="1103" d="M111 440v185q0 220 122 342.5t318 122.5q198 0 320 -122.5t122 -344.5v-183q0 -220 -122.5 -343.5t-319.5 -123.5q-196 0 -318 123.5t-122 343.5zM303 1333l428 187l70 -172l-436 -162zM348 451q0 -271 203 -271q205 0 205 271v161q0 271 -205 271q-203 0 -203 -271v-161 z" />
<glyph unicode="&#xf4;" horiz-adv-x="1103" d="M111 440v185q0 220 122 342.5t318 122.5q198 0 320 -122.5t122 -344.5v-183q0 -220 -122.5 -343.5t-319.5 -123.5q-196 0 -318 123.5t-122 343.5zM258 1339l293 170l295 -170l-92 -145l-201 129l-201 -129zM348 451q0 -271 203 -271q205 0 205 271v161q0 271 -205 271 q-203 0 -203 -271v-161z" />
<glyph unicode="&#xf5;" horiz-adv-x="1103" d="M111 440v185q0 220 122 342.5t318 122.5q198 0 320 -122.5t122 -344.5v-183q0 -220 -122.5 -343.5t-319.5 -123.5q-196 0 -318 123.5t-122 343.5zM246 1360q23 50 72 88.5t118 38.5q42 0 84.5 -24t80 -48t67.5 -24q55 0 96 59l94 -107q-23 -50 -72 -88t-118 -38 q-42 0 -84.5 23.5t-80 47t-67.5 23.5q-53 0 -96 -58zM348 451q0 -271 203 -271q205 0 205 271v161q0 271 -205 271q-203 0 -203 -271v-161z" />
<glyph unicode="&#xf6;" horiz-adv-x="1103" d="M111 440v185q0 220 122 342.5t318 122.5q198 0 320 -122.5t122 -344.5v-183q0 -220 -122.5 -343.5t-319.5 -123.5q-196 0 -318 123.5t-122 343.5zM240 1352q0 50 36 86.5t84 36.5q49 0 84 -36t35 -87q0 -50 -34.5 -84.5t-84.5 -34.5q-48 0 -84 35t-36 84zM348 451 q0 -271 203 -271q205 0 205 271v161q0 271 -205 271q-203 0 -203 -271v-161zM625 1352q0 51 35 87t83 36q51 0 86 -36t35 -87q0 -49 -35.5 -84t-85.5 -35q-48 0 -83 35t-35 84z" />
<glyph unicode="&#xf8;" horiz-adv-x="1105" d="M111 440v185q0 220 122 342.5t320 122.5q86 0 168 -29l74 147l139 -69l-76 -158q137 -130 137 -358v-183q0 -220 -123 -343.5t-319 -123.5q-89 0 -174 29l-68 -141l-141 69l74 154q-133 127 -133 356zM350 451q0 -67 19 -113l260 532q-37 13 -76 13q-203 0 -203 -271 v-161zM473 193q37 -13 80 -13q203 0 203 271v161q0 72 -21 119z" />
<glyph unicode="&#xf9;" horiz-adv-x="1118" d="M137 412v651h238v-641q0 -117 49.5 -179.5t134.5 -62.5q84 0 133 62.5t49 179.5v641h240v-651q0 -139 -58.5 -240t-152.5 -150t-211 -49q-119 0 -213 49t-151.5 150t-57.5 240zM309 1348l70 172l430 -187l-64 -147z" />
<glyph unicode="&#xfa;" horiz-adv-x="1118" d="M137 412v651h238v-641q0 -117 49.5 -179.5t134.5 -62.5q84 0 133 62.5t49 179.5v641h240v-651q0 -139 -58.5 -240t-152.5 -150t-211 -49q-119 0 -213 49t-151.5 150t-57.5 240zM291 1333l428 187l69 -172l-436 -162z" />
<glyph unicode="&#xfb;" horiz-adv-x="1118" d="M137 412v651h238v-641q0 -117 49.5 -179.5t134.5 -62.5q84 0 133 62.5t49 179.5v641h240v-651q0 -139 -58.5 -240t-152.5 -150t-211 -49q-119 0 -213 49t-151.5 150t-57.5 240zM264 1339l295 170l295 -170l-94 -145l-201 129l-201 -129z" />
<glyph unicode="&#xfc;" horiz-adv-x="1118" d="M137 412v651h238v-641q0 -117 49.5 -179.5t134.5 -62.5q84 0 133 62.5t49 179.5v641h240v-651q0 -139 -58.5 -240t-152.5 -150t-211 -49q-119 0 -213 49t-151.5 150t-57.5 240zM246 1352q0 50 36.5 86.5t84.5 36.5q49 0 83.5 -36t34.5 -87q0 -50 -34.5 -84.5t-83.5 -34.5 q-48 0 -84.5 35t-36.5 84zM631 1352q0 51 35.5 87t83.5 36q51 0 85.5 -36t34.5 -87q0 -49 -35 -84t-85 -35q-48 0 -83.5 35t-35.5 84z" />
<glyph unicode="&#xfd;" horiz-adv-x="1024" d="M51 1063h240l94 -666q14 -96 51 -143t107 -47h75l107 856h240l-197 -1495h-236l58 432h-55q-332 0 -388 377zM258 1333l430 187l70 -172l-436 -162z" />
<glyph unicode="&#xfe;" horiz-adv-x="1122" d="M147 -430v1929h240v-459q86 50 193 50q118 0 215.5 -51t158 -154t60.5 -240v-225q0 -110 -34 -197t-92.5 -140.5t-132 -81.5t-155.5 -28q-115 0 -213 62v-465h-240zM387 236q107 -56 191 -56q87 0 140.5 60t53.5 190v205q0 121 -53 184.5t-139 63.5q-83 0 -138 -59 t-55 -171v-417z" />
<glyph unicode="&#xff;" horiz-adv-x="1024" d="M51 1063h240l94 -666q14 -96 51 -143t107 -47h75l107 856h240l-197 -1495h-236l58 432h-55q-332 0 -388 377zM207 1352q0 51 35.5 87t83.5 36q51 0 85.5 -36t34.5 -87q0 -50 -34.5 -84.5t-85.5 -34.5q-48 0 -83.5 35t-35.5 84zM592 1352q0 51 35 87t84 36q50 0 85 -36 t35 -87q0 -49 -35 -84t-85 -35q-48 0 -83.5 35t-35.5 84z" />
<glyph unicode="&#x152;" horiz-adv-x="1837" d="M121 537v307q0 138 41.5 247.5t114 178.5t168 105t206.5 36q82 0 178 -27h875v-213h-606q84 -133 84 -327v-43h438l-12 -205h-426v-59q0 -191 -84 -324h624v-213h-891q-96 -27 -180 -27q-111 0 -206.5 35.5t-168 104t-114 177.5t-41.5 247zM367 555q0 -192 76 -280.5 t208 -88.5q131 0 207 89t76 280v274q0 189 -76.5 279t-206.5 90q-132 0 -208 -90t-76 -279v-274z" />
<glyph unicode="&#x153;" horiz-adv-x="1697" d="M111 440v185q0 220 122 342.5t318 122.5q200 0 317 -129q114 129 308 129q178 0 299.5 -113t121.5 -289v-225h-604v-39q0 -122 56 -183t161 -61q129 0 289 49l47 -196q-163 -60 -336 -60q-219 0 -338 131q-113 -131 -321 -131q-196 0 -318 123.5t-122 343.5zM348 451 q0 -271 203 -271q205 0 205 271v161q0 271 -205 271q-203 0 -203 -271v-161zM993 639h365v49q0 85 -50 140t-132 55q-81 0 -132 -56t-51 -153v-35z" />
<glyph unicode="&#x178;" horiz-adv-x="1167" d="M41 1384h264l279 -604l278 604h264l-419 -856v-528h-246v528zM270 1642q0 50 36.5 86.5t84.5 36.5q49 0 84 -36t35 -87q0 -49 -34.5 -83.5t-84.5 -34.5q-48 0 -84.5 34.5t-36.5 83.5zM655 1642q0 51 35.5 87t83.5 36q51 0 86 -36t35 -87q0 -49 -35.5 -83.5t-85.5 -34.5 q-48 0 -83.5 34.5t-35.5 83.5z" />
<glyph unicode="&#x2c6;" horiz-adv-x="970" d="M190 1339l295 170l295 -170l-94 -145l-201 129l-200 -129z" />
<glyph unicode="&#x2dc;" horiz-adv-x="927" d="M160 1360q23 50 71 88.5t119 38.5q42 0 84.5 -24t80 -48t67.5 -24q57 0 94 59l94 -107q-23 -50 -71.5 -88t-116.5 -38q-43 0 -85.5 23.5t-79.5 47t-67 23.5q-57 0 -96 -58z" />
<glyph unicode="&#x2000;" horiz-adv-x="936" />
<glyph unicode="&#x2001;" horiz-adv-x="1872" />
<glyph unicode="&#x2002;" horiz-adv-x="936" />
<glyph unicode="&#x2003;" horiz-adv-x="1872" />
<glyph unicode="&#x2004;" horiz-adv-x="624" />
<glyph unicode="&#x2005;" horiz-adv-x="468" />
<glyph unicode="&#x2006;" horiz-adv-x="312" />
<glyph unicode="&#x2007;" horiz-adv-x="312" />
<glyph unicode="&#x2008;" horiz-adv-x="234" />
<glyph unicode="&#x2009;" horiz-adv-x="374" />
<glyph unicode="&#x200a;" horiz-adv-x="104" />
<glyph unicode="&#x2010;" horiz-adv-x="1011" d="M158 457v202h698v-202h-698z" />
<glyph unicode="&#x2011;" horiz-adv-x="1011" d="M158 457v202h698v-202h-698z" />
<glyph unicode="&#x2012;" horiz-adv-x="1011" d="M158 457v202h698v-202h-698z" />
<glyph unicode="&#x2013;" horiz-adv-x="1024" d="M0 459v203h1024v-203h-1024z" />
<glyph unicode="&#x2014;" horiz-adv-x="2048" d="M0 459v203h2048v-203h-2048z" />
<glyph unicode="&#x2018;" horiz-adv-x="526" d="M137 1010l142 491l157 -26l-82 -465h-217z" />
<glyph unicode="&#x2019;" horiz-adv-x="528" d="M139 1036l82 465h217l-139 -491z" />
<glyph unicode="&#x201a;" horiz-adv-x="538" d="M117 -207l82 465h217l-142 -491z" />
<glyph unicode="&#x201c;" horiz-adv-x="870" d="M129 1010l139 491l160 -26l-82 -465h-217zM469 1010l141 491l158 -26l-82 -465h-217z" />
<glyph unicode="&#x201d;" horiz-adv-x="870" d="M129 1036l82 465h217l-139 -491zM471 1036l80 465h219l-141 -491z" />
<glyph unicode="&#x201e;" horiz-adv-x="868" d="M117 -207l82 465h217l-142 -491zM444 -207l82 465h217l-139 -491z" />
<glyph unicode="&#x2022;" horiz-adv-x="966" d="M195 571q0 129 91 221.5t220 92.5t221 -92.5t92 -221.5t-92 -220t-221 -91t-220 91t-91 220z" />
<glyph unicode="&#x2026;" horiz-adv-x="1660" d="M125 125q0 61 43 102t104 41q58 0 101 -41.5t43 -101.5t-43 -104t-101 -44q-61 0 -104 44t-43 104zM686 125q0 61 43 102t102 41t101.5 -41t42.5 -102q0 -60 -42 -104t-102 -44t-102.5 44t-42.5 104zM1245 125q0 61 43.5 102t104.5 41q58 0 100.5 -41.5t42.5 -101.5 t-42.5 -104t-100.5 -44q-60 0 -104 44t-44 104z" />
<glyph unicode="&#x202f;" horiz-adv-x="374" />
<glyph unicode="&#x2039;" horiz-adv-x="688" d="M113 573l299 392l161 -123l-202 -267l202 -268l-161 -123z" />
<glyph unicode="&#x203a;" horiz-adv-x="690" d="M115 307l202 266l-202 269l161 123l299 -390l-299 -391z" />
<glyph unicode="&#x205f;" horiz-adv-x="468" />
<glyph unicode="&#x20ac;" horiz-adv-x="1099" d="M76 467v139h147v172h-147v140h147q6 228 149 360.5t359 132.5q155 0 316 -41l-43 -207q-158 35 -271 35q-117 0 -187.5 -75t-76.5 -205h395l-26 -140h-369v-172h336l-27 -139h-309q6 -132 76.5 -206.5t187.5 -74.5q113 0 271 35l43 -207q-161 -41 -316 -41 q-216 0 -359 133t-149 361h-147z" />
<glyph unicode="&#x2122;" horiz-adv-x="1583" d="M158 1239v145h510l-15 -145h-159v-475h-166v475h-170zM698 764l82 620h166l117 -329l115 329h165l82 -620h-163l-37 317l-88 -235h-150l-88 235l-35 -317h-166z" />
<glyph unicode="&#x25fc;" horiz-adv-x="1064" d="M0 0v1065h1065v-1065h-1065z" />
</font>
</defs>
</svg>
