<?xml version="1.0" standalone="no"?>
<!DOCTYPE svg PUBLIC "-//W3C//DTD SVG 1.1//EN" "http://www.w3.org/Graphics/SVG/1.1/DTD/svg11.dtd" >
<svg xmlns="http://www.w3.org/2000/svg" xmlns:xlink="http://www.w3.org/1999/xlink" version="1.1">
<metadata></metadata>
<defs>
<font id="mic_32_new_rgregular" horiz-adv-x="1077" >
<font-face units-per-em="2048" ascent="1556" descent="-492" />
<missing-glyph horiz-adv-x="491" />
<glyph unicode="&#xfb01;" horiz-adv-x="1171" d="M51 920v135h139v155q0 147 98.5 231.5t233.5 84.5q83 0 160 -25l-35 -160q-70 19 -119 19q-64 0 -106.5 -40t-42.5 -110v-155h262l-41 -135h-221v-920h-189v920h-139zM799 1352q0 47 35 80.5t84 33.5q48 0 83 -33.5t35 -80.5t-35.5 -82t-82.5 -35q-50 0 -84.5 34 t-34.5 83zM823 0v1055h189v-1055h-189z" />
<glyph unicode="&#xfb02;" horiz-adv-x="1171" d="M51 920v135h139v155q0 147 98.5 231.5t233.5 84.5q83 0 160 -25l-35 -160q-70 19 -119 19q-64 0 -106.5 -40t-42.5 -110v-155h262l-41 -135h-221v-920h-189v920h-139zM823 0v1485l189 41v-1526h-189z" />
<glyph unicode="&#xfb03;" horiz-adv-x="1830" d="M51 920v135h139v162q0 75 28 135t75 97.5t106 57t123 19.5q83 0 160 -25l-35 -160q-70 19 -119 19q-65 0 -107 -37t-42 -106v-162h471v162q0 75 28 135t75 97.5t106 57t123 19.5q82 0 159 -25l-34 -160q-70 19 -119 19q-65 0 -107.5 -37t-42.5 -106v-162h262l-40 -135 h-222v-920h-188v920h-471v-920h-189v920h-139zM1456 1343q0 49 35.5 82t83.5 33t84.5 -33.5t36.5 -81.5q0 -47 -36 -81.5t-85 -34.5t-84 34.5t-35 81.5zM1483 0v1055h188v-1055h-188z" />
<glyph unicode="&#xfb04;" horiz-adv-x="1830" d="M51 920v135h139v155q0 147 98.5 231.5t233.5 84.5q83 0 160 -25l-35 -160q-70 19 -119 19q-64 0 -106.5 -40t-42.5 -110v-155h471v162q0 75 28 135t75 97.5t106 57t123 19.5q82 0 159 -25l-34 -160q-70 19 -119 19q-65 0 -107.5 -37t-42.5 -106v-162h262l-40 -135h-222 v-920h-188v920h-471v-920h-189v920h-139zM1483 0v1485l188 41v-1526h-188z" />
<glyph horiz-adv-x="0" />
<glyph horiz-adv-x="682" />
<glyph unicode=" "  horiz-adv-x="491" />
<glyph unicode="&#x09;" horiz-adv-x="491" />
<glyph unicode="&#xa0;" horiz-adv-x="491" />
<glyph unicode="!" horiz-adv-x="518" d="M139 104q0 50 35.5 83.5t85.5 33.5q48 0 83.5 -33.5t35.5 -83.5q0 -49 -35.5 -84.5t-83.5 -35.5q-50 0 -85.5 34.5t-35.5 85.5zM158 1362l207 41l-19 -963h-172z" />
<glyph unicode="&#x22;" horiz-adv-x="755" d="M145 1499h170l-18 -469h-131zM440 1499h168l-18 -469h-131z" />
<glyph unicode="#" horiz-adv-x="1144" d="M82 401v168h162l30 314h-143v168h160l41 401h168l-41 -401h291l41 401h167l-40 -401h143v-168h-160l-31 -314h144v-168h-160l-39 -401h-168l39 401h-291l-39 -401h-168l39 401h-145zM412 569h290l31 314h-291z" />
<glyph unicode="$" horiz-adv-x="1034" d="M80 49l35 168q202 -72 372 -72q105 0 175.5 57.5t70.5 159.5q0 67 -34.5 116t-89.5 78.5t-121.5 55t-133 55.5t-121.5 70t-89.5 109t-34.5 162q0 142 93.5 237t248.5 119v233h155v-231q122 -8 291 -68l-49 -161q-178 61 -305 61q-116 0 -177 -48t-61 -138q0 -50 21.5 -88 t57.5 -63.5t83 -46.5t99 -41t103.5 -41.5t98.5 -53.5t83 -72.5t57.5 -102t21.5 -138.5q0 -159 -95.5 -258t-248.5 -125v-236h-154v229q-169 8 -352 74z" />
<glyph unicode="%" horiz-adv-x="1798" d="M131 950v142q0 145 87.5 232t223.5 87t225 -87t89 -232v-142q0 -145 -88.5 -231t-225.5 -86q-136 0 -223.5 86t-87.5 231zM281 954q0 -95 43.5 -141.5t117.5 -46.5q76 0 120 46.5t44 141.5v133q0 94 -44 140.5t-120 46.5q-74 0 -117.5 -46.5t-43.5 -140.5v-133zM483 0 l658 1384h159l-655 -1384h-162zM1040 295v137q0 147 88 234.5t226 87.5q136 0 224.5 -88t88.5 -234v-137q0 -146 -88.5 -234t-224.5 -88q-138 0 -226 87.5t-88 234.5zM1190 299q0 -96 44 -142t120 -46q74 0 118 46t44 142v129q0 97 -43.5 143.5t-118.5 46.5 q-76 0 -120 -46.5t-44 -143.5v-129z" />
<glyph unicode="&#x26;" horiz-adv-x="1177" d="M119 379q0 107 49 198t139 144q-82 49 -126 130t-44 179q0 166 118 273.5t314 107.5q136 0 295 -59l-55 -158q-123 49 -236 49q-116 0 -179.5 -59.5t-63.5 -153.5q0 -101 59.5 -163t173.5 -62h101v-164h-109q-113 0 -177.5 -75.5t-64.5 -186.5q0 -106 66.5 -171 t181.5 -65t182.5 65t67.5 171v426h299v-164h-117v-262q0 -174 -117 -290t-317 -116t-320 116t-120 290z" />
<glyph unicode="'" horiz-adv-x="462" d="M145 1499h172l-20 -469h-131z" />
<glyph unicode="(" horiz-adv-x="657" d="M172 -37v1243q0 204 117.5 309t333.5 105v-166q-134 0 -201.5 -57.5t-67.5 -194.5v-1235q0 -136 67.5 -194t201.5 -58v-164q-216 0 -333.5 104t-117.5 308z" />
<glyph unicode=")" horiz-adv-x="657" d="M37 -285q132 0 199 58t67 194v1235q0 137 -67.5 194.5t-198.5 57.5v166q214 0 331 -105t117 -309v-1243q0 -204 -117 -308t-331 -104v164z" />
<glyph unicode="*" horiz-adv-x="1003" d="M139 1006l230 118l-230 121l80 133l215 -137l-10 258h158l-13 -258l217 137l78 -133l-229 -121l229 -118l-78 -136l-217 138l13 -258h-158l10 258l-215 -138z" />
<glyph unicode="+" horiz-adv-x="1157" d="M139 487v164h359v357h161v-357h359v-164h-359v-356h-161v356h-359z" />
<glyph unicode="," horiz-adv-x="524" d="M106 -279l89 484h188l-143 -508z" />
<glyph unicode="-" horiz-adv-x="1003" d="M170 483v164h661v-164h-661z" />
<glyph unicode="." horiz-adv-x="518" d="M139 98q0 50 35.5 83.5t83.5 33.5q50 0 85.5 -33.5t35.5 -83.5t-35.5 -85.5t-85.5 -35.5q-48 0 -83.5 36t-35.5 85z" />
<glyph unicode="/" horiz-adv-x="770" d="M109 -129l383 1628h170l-386 -1628h-167z" />
<glyph unicode="0" horiz-adv-x="1198" d="M123 530v326q0 141 37 249.5t103 174t151 98.5t186 33t185.5 -33t150 -98.5t102.5 -174t37 -249.5v-326q0 -141 -37.5 -250t-103.5 -175t-150.5 -99t-183.5 -33q-100 0 -184.5 33t-151 99t-104 174.5t-37.5 250.5zM309 530q0 -202 78.5 -296.5t212.5 -94.5t211.5 94.5 t77.5 296.5v326q0 202 -77.5 295.5t-211.5 93.5q-135 0 -213 -93.5t-78 -295.5v-326z" />
<glyph unicode="1" horiz-adv-x="786" d="M96 1151v170l512 86v-1407h-188v1210z" />
<glyph unicode="2" d="M109 0v129q0 109 35.5 201.5t92 156t124.5 118t136.5 100.5t125 90.5t92 99.5t35.5 117q0 99 -63.5 166t-180.5 67q-87 0 -158 -21t-153 -61l-68 150q98 49 184 73.5t201 24.5q190 0 309 -107.5t119 -287.5q0 -81 -35 -152.5t-91.5 -125.5t-124 -104.5t-135.5 -100.5 t-124.5 -102t-91.5 -121t-35 -146h635v-164h-829z" />
<glyph unicode="3" horiz-adv-x="1030" d="M70 37l49 158q160 -56 295 -56q137 0 226 75t89 204q0 111 -70.5 180.5t-218.5 69.5h-149l-31 155l377 400h-533l-22 161h756l22 -161l-383 -400q124 -1 223.5 -47.5t160.5 -139.5t61 -218q0 -101 -41 -185.5t-110 -141t-161 -87.5t-194 -31q-160 0 -346 64z" />
<glyph unicode="4" horiz-adv-x="1128" d="M98 467l283 917h178l-270 -911h370v449l183 30v-479h196v-164h-196v-307l-183 -20v327h-536z" />
<glyph unicode="5" horiz-adv-x="1044" d="M70 37l34 160q187 -58 336 -58q54 0 106 17.5t97.5 52.5t73.5 95t28 136q0 127 -74 194.5t-245 67.5h-281l25 682h725l-43 -161h-510l-14 -359h123q231 0 358 -107t127 -313q0 -114 -43.5 -206.5t-115 -148.5t-157.5 -86t-178 -30q-186 0 -372 64z" />
<glyph unicode="6" horiz-adv-x="1134" d="M123 430v471q0 143 52.5 256.5t162.5 183.5t262 70q141 0 309 -51l-39 -164q-149 49 -270 49q-137 0 -213 -94t-76 -238v-71q132 82 281 82q192 0 316 -126t124 -349q0 -113 -36 -205t-98.5 -150.5t-144.5 -89.5t-175 -31q-126 0 -228 52t-164.5 157.5t-62.5 247.5z M309 428q0 -122 70 -205.5t196 -83.5q127 0 197 88t70 222q0 142 -70 230.5t-197 88.5q-138 0 -266 -82v-258z" />
<glyph unicode="7" horiz-adv-x="1001" d="M47 1384h897v-157q-82 -103 -139 -190.5t-108.5 -197.5t-81.5 -229t-47 -271.5t-17 -338.5h-195q0 214 28.5 398.5t82.5 333t119.5 265.5t152.5 226h-680z" />
<glyph unicode="8" horiz-adv-x="1159" d="M113 354q0 68 21.5 125.5t62.5 100.5t86 74.5t106 62.5q-71 39 -119.5 81t-82 108.5t-33.5 148.5q0 149 116 252.5t310 103.5q180 0 305 -100t125 -256q0 -112 -63.5 -187t-176.5 -135q62 -31 107 -62.5t86.5 -76.5t63.5 -105.5t22 -134.5q0 -115 -68 -204t-173.5 -133 t-227.5 -44q-88 0 -171 25.5t-149.5 72.5t-106.5 121t-40 162zM303 354q0 -95 79.5 -155t197.5 -60q115 0 195.5 59t80.5 156q0 35 -10 65.5t-33 56.5t-46 46t-62 41.5t-67.5 35t-76.5 34.5q-60 -29 -100 -53t-79.5 -57.5t-59 -75.5t-19.5 -93zM346 1057q0 -46 18.5 -83 t57.5 -66.5t76.5 -50t97.5 -46.5q107 49 164 105t57 141q0 87 -65.5 137.5t-171.5 50.5q-105 0 -169.5 -50.5t-64.5 -137.5z" />
<glyph unicode="9" horiz-adv-x="1120" d="M88 936q0 114 36 205t99 149.5t145 89.5t177 31q92 0 173.5 -30.5t144 -87.5t98.5 -144.5t36 -194.5v-471q0 -142 -52.5 -256t-162 -184t-260.5 -70q-139 0 -311 52l39 163q149 -49 272 -49q136 0 211.5 94t75.5 238v72q-132 -82 -281 -82q-193 0 -316.5 126t-123.5 349z M279 936q0 -143 70 -231.5t198 -88.5q133 0 264 82v258q0 122 -69.5 205.5t-194.5 83.5q-127 0 -197.5 -87.5t-70.5 -221.5z" />
<glyph unicode=":" horiz-adv-x="518" d="M139 98q0 50 35.5 83.5t83.5 33.5q50 0 85.5 -33.5t35.5 -83.5t-35.5 -85.5t-85.5 -35.5q-49 0 -84 35.5t-35 85.5zM139 776q0 50 35.5 84.5t83.5 34.5q50 0 85.5 -34.5t35.5 -84.5q0 -48 -36 -83.5t-85 -35.5t-84 35.5t-35 83.5z" />
<glyph unicode=";" horiz-adv-x="538" d="M102 -295l88 483h191l-145 -507zM156 776q0 51 35 85t85 34q48 0 83.5 -34.5t35.5 -84.5q0 -48 -35 -83.5t-84 -35.5t-84.5 35.5t-35.5 83.5z" />
<glyph unicode="&#x3c;" horiz-adv-x="1052" d="M139 573l672 557l102 -126l-516 -431l516 -430l-102 -127z" />
<glyph unicode="=" horiz-adv-x="1155" d="M139 276v164h877v-164h-877zM139 705v163h877v-163h-877z" />
<glyph unicode="&#x3e;" horiz-adv-x="1052" d="M139 143l518 430l-518 431l105 126l669 -557l-669 -557z" />
<glyph unicode="?" horiz-adv-x="913" d="M104 1298q160 113 322 113q98 0 180 -36.5t135.5 -115.5t53.5 -188q0 -54 -19.5 -107t-48.5 -93t-63.5 -83.5t-63.5 -79.5t-48.5 -80.5t-19.5 -86.5v-168l-180 41v123q0 65 26.5 127.5t64.5 111.5t76 96t64.5 98.5t26.5 100.5q0 80 -49 127t-137 47q-109 0 -240 -88z M322 98q0 50 35 83.5t85 33.5q47 0 83 -33.5t36 -83.5q0 -49 -35.5 -85t-83.5 -36q-51 0 -85.5 35t-34.5 86z" />
<glyph unicode="@" horiz-adv-x="1806" d="M135 379q0 148 38 285t112 252t176 200.5t238 133.5t290 48q205 0 362 -97t240.5 -265t83.5 -379q0 -62 -10 -117h-436l-19 -149q-14 -124 -117 -207.5t-247 -83.5q-131 0 -216 74.5t-85 187.5q0 145 101 224t263 79h174l7 49q11 79 -27 135t-123 56q-110 0 -242 -39 l-18 133q157 47 278 47q151 0 231.5 -91.5t61.5 -240.5l-6 -49h281q0 123 -39.5 232t-110 190t-175 128.5t-228.5 47.5q-127 0 -239 -42.5t-194 -116.5t-141.5 -172t-89.5 -211t-30 -232q0 -171 67 -306t197.5 -214.5t304.5 -79.5q115 0 233.5 41.5t212.5 110.5l64 -119 q-119 -84 -242 -126t-280 -42q-162 0 -295.5 56.5t-221.5 155t-136 230.5t-48 283zM709 279q0 -59 41.5 -98.5t111.5 -39.5q74 0 127.5 44.5t61.5 105.5l18 149h-176q-82 0 -133 -40.5t-51 -120.5z" />
<glyph unicode="A" horiz-adv-x="1226" d="M61 0l441 1384h223l440 -1384h-198l-115 373h-479l-115 -373h-197zM422 537h381l-131 428q-20 65 -60 219q-20 -98 -57 -219z" />
<glyph unicode="B" horiz-adv-x="1165" d="M170 0v1384h424q200 0 317 -102t117 -262q0 -95 -47 -171t-133 -120q117 -45 174 -133.5t57 -196.5q0 -74 -30 -143t-88 -127.5t-154.5 -93.5t-218.5 -35h-418zM365 172h221q144 0 220.5 61.5t76.5 165.5q0 106 -69.5 168t-211.5 62h-237v-457zM365 793h208 q120 0 189 57.5t69 153.5q0 99 -62 153.5t-181 54.5h-223v-419z" />
<glyph unicode="C" horiz-adv-x="1153" d="M131 528v328q0 137 40.5 244t113 174.5t169.5 102t214 34.5q189 0 393 -65l-37 -164q-188 57 -354 57q-161 0 -252.5 -97.5t-91.5 -297.5v-303q0 -204 91 -300t253 -96q175 0 354 58l37 -168q-211 -62 -393 -62q-117 0 -214 34.5t-169.5 102t-113 174.5t-40.5 244z" />
<glyph unicode="D" horiz-adv-x="1282" d="M170 0v1300q303 111 492 111q134 0 243 -57.5t176.5 -174.5t67.5 -276v-409q0 -242 -126.5 -368t-360.5 -126h-492zM365 172h297q152 0 223 78.5t71 255.5v385q0 168 -80.5 258t-216.5 90q-135 0 -294 -55v-1012z" />
<glyph unicode="E" d="M170 0v1384h758v-172h-563v-432h479l-13 -166h-466v-442h581v-172h-776z" />
<glyph unicode="F" horiz-adv-x="1042" d="M170 0v1384h756v-172h-561v-432h462l-14 -166h-448v-614h-195z" />
<glyph unicode="G" horiz-adv-x="1243" d="M131 528v328q0 137 40.5 244t113 174.5t169.5 102t214 34.5q101 0 190.5 -17t212.5 -53l-43 -163q-196 61 -358 61q-160 0 -252 -97.5t-92 -295.5v-303q0 -202 91.5 -300t252.5 -98q98 0 250 35v410h-152v151h334v-690q-230 -78 -434 -78q-117 0 -214 34.5t-169.5 102 t-113 174.5t-40.5 244z" />
<glyph unicode="H" horiz-adv-x="1298" d="M170 0v1384h195v-593h571v593h192v-1384h-192v621h-571v-621h-195z" />
<glyph unicode="I" horiz-adv-x="534" d="M170 0v1384h195v-1384h-195z" />
<glyph unicode="J" horiz-adv-x="974" d="M57 37l45 162q153 -54 283 -54q126 0 186 83.5t60 224.5v931l194 -14v-924q0 -220 -115 -346.5t-317 -126.5q-153 0 -336 64z" />
<glyph unicode="K" horiz-adv-x="1206" d="M170 0v1384h195v-688l495 688h219l-444 -618l514 -766h-227l-404 604l-153 -215v-389h-195z" />
<glyph unicode="L" horiz-adv-x="1036" d="M170 0v1384h195v-1212h593l-14 -172h-774z" />
<glyph unicode="M" horiz-adv-x="1669" d="M98 0l164 1384h227l291 -761q22 -58 54 -179q36 121 57 179l289 761h227l164 -1384h-191l-108 934q-12 102 -17 203q-37 -137 -61 -203l-252 -672h-215l-252 672q-37 98 -65 199q-9 -165 -13 -199l-106 -934h-193z" />
<glyph unicode="N" horiz-adv-x="1284" d="M170 0v1384h154l602 -1009q-4 74 -4 200v809h192v-1384h-160l-598 995q9 -111 9 -202v-793h-195z" />
<glyph unicode="O" horiz-adv-x="1290" d="M131 530v322q0 136 40.5 244t111 176t162.5 103.5t200 35.5t200 -35.5t162.5 -103.5t111 -176t40.5 -244v-322q0 -137 -40 -244.5t-111 -175t-163 -102.5t-200 -35t-200 35t-163 102.5t-111 175t-40 244.5zM326 541q0 -199 86.5 -297.5t232.5 -98.5q147 0 234.5 98.5 t87.5 297.5v299q0 201 -87.5 300t-234.5 99t-233 -99t-86 -300v-299z" />
<glyph unicode="P" horiz-adv-x="1128" d="M170 0v1384h461q186 0 302 -122t116 -297q0 -174 -116.5 -297t-301.5 -123h-266v-545h-195zM365 715h264q104 0 163.5 69.5t59.5 180.5t-59.5 179t-163.5 68h-264v-497z" />
<glyph unicode="Q" horiz-adv-x="1292" d="M131 530v322q0 136 40.5 244t111 176t162.5 103.5t200 35.5t200.5 -35.5t163.5 -103.5t111.5 -176t40.5 -244v-322q0 -201 -82.5 -332t-224.5 -186l102 -266l-153 -98l-123 327q-6 0 -17.5 -1t-17.5 -1q-108 0 -200 35t-163 102.5t-111 175t-40 244.5zM326 541 q0 -199 86.5 -297.5t232.5 -98.5q147 0 234.5 98.5t87.5 297.5v299q0 201 -87.5 300t-234.5 99t-233 -99t-86 -300v-299z" />
<glyph unicode="R" horiz-adv-x="1142" d="M170 0v1384h463q186 0 301 -122t115 -297q0 -136 -73 -241t-198 -144l273 -580h-215l-252 555h-219v-555h-195zM365 715h264q104 0 164.5 69.5t60.5 180.5t-60.5 179t-164.5 68h-264v-497z" />
<glyph unicode="S" horiz-adv-x="1034" d="M92 49l35 168q202 -72 371 -72q105 0 175 57.5t70 159.5q0 53 -21.5 96t-57.5 73t-82.5 55.5t-98 48.5t-103 48t-98 58.5t-82.5 74t-57.5 100.5t-21.5 133q0 162 121 262t309 100q164 0 358 -72l-49 -161q-171 61 -309 61q-110 0 -171 -49t-61 -137q0 -50 21.5 -89.5 t57.5 -67.5t82.5 -52t98 -47t103.5 -48.5t98.5 -60t82.5 -77.5t57.5 -106t21.5 -140q0 -94 -35.5 -169.5t-97 -123.5t-141.5 -73.5t-170 -25.5q-185 0 -406 76z" />
<glyph unicode="T" horiz-adv-x="1067" d="M66 1212v172h935v-172h-372v-1212h-193v1212h-370z" />
<glyph unicode="U" horiz-adv-x="1292" d="M160 444v940h194v-927q0 -138 82.5 -225t212.5 -87q129 0 210 87t81 225v927h193v-940q0 -205 -141 -338t-343 -133q-134 0 -245.5 59t-177.5 167.5t-66 244.5z" />
<glyph unicode="V" horiz-adv-x="1226" d="M61 1384h197l297 -964q32 -109 57 -230q25 112 60 230l295 964h198l-440 -1384h-223z" />
<glyph unicode="W" horiz-adv-x="1689" d="M86 1384h195l151 -931q14 -87 25 -230q32 144 57 230l219 714h221l222 -714q35 -120 57 -228q11 147 24 228l152 931h195l-244 -1384h-221l-248 795q-31 108 -47 184q-18 -96 -45 -184l-248 -795h-221z" />
<glyph unicode="X" horiz-adv-x="1191" d="M57 0l428 729l-379 655h211l279 -487l285 487h204l-378 -649l428 -735h-215l-324 565l-330 -565h-209z" />
<glyph unicode="Y" horiz-adv-x="1148" d="M51 1384h205l317 -657l320 657h205l-426 -854v-530h-195v530z" />
<glyph unicode="Z" horiz-adv-x="1124" d="M96 0v143l652 1069h-642v172h881v-139l-655 -1073h698l-22 -172h-912z" />
<glyph unicode="[" horiz-adv-x="571" d="M172 -449v2069h360v-162h-178v-1745h178v-162h-360z" />
<glyph unicode="\" horiz-adv-x="770" d="M109 1499h167l386 -1628h-168z" />
<glyph unicode="]" horiz-adv-x="571" d="M39 -287h178v1745h-178v162h360v-2069h-360v162z" />
<glyph unicode="^" horiz-adv-x="1222" d="M168 893l354 606h180l355 -606l-156 -72l-289 522l-288 -522z" />
<glyph unicode="_" horiz-adv-x="1024" d="M0 -188h1024v-162h-1024v162z" />
<glyph unicode="`" horiz-adv-x="798" d="M168 1348l61 149l404 -176l-49 -125z" />
<glyph unicode="a" horiz-adv-x="993" d="M94 315q0 152 104.5 236t278.5 84h207v57q0 108 -52 165.5t-151 57.5q-125 0 -278 -47l-41 156q176 57 319 57q178 0 283.5 -104.5t105.5 -284.5v-377q0 -144 -113 -243t-272 -99q-167 0 -279 98.5t-112 243.5zM287 317q0 -73 54 -125.5t144 -52.5q87 0 143 51.5 t56 124.5v172h-207q-96 0 -143 -47t-47 -123z" />
<glyph unicode="b" d="M121 414v1071l188 41v-518q119 73 242 73q65 0 124 -16.5t110 -52t88.5 -86.5t59 -124.5t21.5 -162.5v-225q0 -104 -33.5 -188.5t-90.5 -139t-132 -84t-159 -29.5t-159.5 29.5t-133 84t-91.5 139t-34 188.5zM309 424q0 -140 64 -212.5t166 -72.5q100 0 164.5 73t64.5 212 v205q0 150 -64 218t-167 68q-106 0 -228 -71v-420z" />
<glyph unicode="c" horiz-adv-x="964" d="M121 436v185q0 117 32 206t91.5 144t139 82.5t177.5 27.5q144 0 299 -49l-35 -160q-161 43 -256 43q-131 0 -195.5 -73t-64.5 -232v-166q0 -158 64.5 -231.5t195.5 -73.5q115 0 256 41l35 -157q-165 -50 -299 -50q-202 0 -321 116t-119 347z" />
<glyph unicode="d" horiz-adv-x="1075" d="M121 414v225q0 89 21.5 162.5t59 124.5t88.5 86.5t110 52t124 16.5q127 0 242 -73v491h186v-1085q0 -138 -57.5 -240t-150 -151.5t-205.5 -49.5q-84 0 -159.5 29.5t-133 84t-91.5 139t-34 188.5zM309 424q0 -140 64 -212.5t166 -72.5t164.5 72.5t62.5 212.5v420 q-122 71 -225 71q-104 0 -168 -68t-64 -218v-205z" />
<glyph unicode="e" horiz-adv-x="1044" d="M121 412v239q0 203 115 316.5t290 113.5q172 0 290 -110t118 -281v-217h-625v-61q0 -138 64 -205.5t182 -67.5q126 0 285 49l37 -161q-168 -54 -322 -54q-196 0 -315 114.5t-119 324.5zM309 621h436v69q0 100 -60.5 162.5t-158.5 62.5t-157.5 -64.5t-59.5 -184.5v-45z " />
<glyph unicode="f" horiz-adv-x="663" d="M51 920v135h139v155q0 147 98.5 231.5t233.5 84.5q83 0 160 -25l-35 -160q-70 19 -119 19q-64 0 -106.5 -40t-42.5 -110v-155h262l-41 -135h-221v-920h-189v920h-139z" />
<glyph unicode="g" horiz-adv-x="980" d="M61 -362l54 151q209 -86 356 -86q122 0 186 39t64 100q0 35 -28.5 59t-74.5 37t-101.5 23.5t-111 24.5t-101.5 34.5t-74.5 58.5t-28.5 91q0 70 63 123q-77 47 -120.5 125.5t-43.5 179.5v119q0 161 106.5 262.5t270.5 101.5q75 0 148 -26l309 22l-12 -135l-142 -8 q70 -89 70 -217v-119q0 -162 -104.5 -262t-268.5 -100q-42 0 -82 6q-26 -23 -26 -45q0 -20 30 -34.5t77.5 -25t105.5 -21.5t116 -30.5t105.5 -46.5t77.5 -74.5t30 -109.5q0 -138 -115 -226t-323 -88q-201 0 -412 97zM285 598q0 -91 47.5 -145t144.5 -54q96 0 142.5 54 t46.5 145v119q0 91 -46.5 144.5t-142.5 53.5q-97 0 -144.5 -54t-47.5 -144v-119z" />
<glyph unicode="h" horiz-adv-x="1124" d="M160 0v1499h188v-491q115 73 242 73q83 0 150.5 -23.5t121 -72t83.5 -131t30 -192.5v-662h-189v649q0 146 -54.5 206t-156.5 60q-105 0 -227 -71v-844h-188z" />
<glyph unicode="i" horiz-adv-x="507" d="M135 1352q0 47 35 80.5t84 33.5q48 0 83.5 -33.5t35.5 -80.5t-36 -82t-83 -35q-50 0 -84.5 34t-34.5 83zM160 0v1055h188v-1055h-188z" />
<glyph unicode="j" horiz-adv-x="505" d="M131 1352q0 47 35.5 80.5t85.5 33.5q48 0 84.5 -33.5t36.5 -80.5t-36.5 -82t-84.5 -35q-50 0 -85.5 34t-35.5 83zM160 -455v1510h186v-1469z" />
<glyph unicode="k" horiz-adv-x="985" d="M160 0v1499h188v-897l187 68q43 15 66.5 44t37.5 83l68 258h184l-78 -291q-25 -91 -58 -144t-98 -81l279 -539h-203l-239 477l-146 -53v-424h-188z" />
<glyph unicode="l" horiz-adv-x="507" d="M160 0v1485l188 41v-1526h-188z" />
<glyph unicode="m" horiz-adv-x="1656" d="M150 0v664q0 200 109.5 308.5t275.5 108.5q100 0 175 -52.5t117 -147.5q43 95 119 147.5t174 52.5q170 0 278.5 -108t108.5 -309v-664h-188v643q0 134 -53 203t-146 69t-145.5 -79t-52.5 -228v-608h-187v608q0 150 -53 228.5t-147 78.5q-93 0 -145 -69t-52 -203v-643 h-188z" />
<glyph unicode="n" horiz-adv-x="1112" d="M150 0v653q0 201 116.5 314.5t290.5 113.5q176 0 291 -113t115 -315v-653h-189v643q0 132 -59 202t-158 70q-100 0 -159.5 -69.5t-59.5 -202.5v-643h-188z" />
<glyph unicode="o" horiz-adv-x="1097" d="M121 436v182q0 225 118 344t310 119t310 -119.5t118 -343.5v-182q0 -224 -118 -343.5t-310 -119.5t-310 119.5t-118 343.5zM309 446q0 -307 240 -307q239 0 239 307v162q0 307 -239 307q-240 0 -240 -307v-162z" />
<glyph unicode="p" d="M121 -432v1073q0 138 58.5 239.5t152 151t207.5 49.5q176 0 295.5 -117.5t119.5 -322.5v-225q0 -89 -21.5 -162.5t-59 -124.5t-88.5 -87t-110 -52.5t-124 -16.5q-121 0 -242 74v-479h-188zM309 211q124 -72 228 -72q103 0 167 68.5t64 218.5v205q0 139 -64.5 211.5 t-164.5 72.5q-102 0 -166 -72t-64 -212v-420z" />
<glyph unicode="q" d="M121 416v225q0 138 58.5 239.5t152 151t207.5 49.5q176 0 295.5 -117.5t119.5 -322.5v-1059l-186 -41v506q-121 -74 -244 -74q-65 0 -124 16.5t-110 52.5t-88.5 87t-59 124.5t-21.5 162.5zM309 426q0 -150 64.5 -218.5t167.5 -68.5q100 0 227 72v420q0 140 -63.5 212 t-165.5 72q-101 0 -165.5 -72t-64.5 -212v-205z" />
<glyph unicode="r" horiz-adv-x="727" d="M150 0v688q0 175 115 284t286 109q66 0 149 -18l-34 -162q-58 14 -113 14q-97 0 -156 -63t-59 -164v-688h-188z" />
<glyph unicode="s" horiz-adv-x="862" d="M86 29l35 159q155 -49 272 -49q85 0 138 40t53 102q0 47 -26 81.5t-68 56.5t-92.5 42.5t-100.5 46t-92 59t-68 89.5t-26 130q0 130 95.5 212.5t256.5 82.5q136 0 272 -47l-43 -160q-128 41 -229 41q-81 0 -121.5 -35t-40.5 -94q0 -43 26 -75t68 -53t92.5 -41t100.5 -46 t92 -60t68 -92t26 -134q0 -59 -23.5 -114t-69 -99.5t-120 -71.5t-168.5 -27q-153 0 -307 56z" />
<glyph unicode="t" horiz-adv-x="632" d="M25 1055h178v301l186 39v-340h207v-135h-207v-920h-186v920h-135z" />
<glyph unicode="u" horiz-adv-x="1112" d="M150 401v654h188v-643q0 -133 59 -203t158 -70q100 0 159.5 70t59.5 203v643h189v-654q0 -201 -116.5 -314.5t-291.5 -113.5q-176 0 -290.5 113t-114.5 315z" />
<glyph unicode="v" horiz-adv-x="1007" d="M47 1055h195l200 -625q22 -70 62 -237q30 138 61 237l201 625h195l-351 -1055h-213z" />
<glyph unicode="w" horiz-adv-x="1597" d="M102 1055h187l47 -688q6 -103 54.5 -164.5t131.5 -61.5q82 0 132.5 63.5t50.5 164.5v610h184v-610q0 -101 50.5 -164.5t133.5 -63.5t132 62t55 164l47 688h188l-51 -703q-13 -177 -112.5 -278t-258.5 -101q-87 0 -158.5 39.5t-117.5 110.5q-44 -71 -117 -110.5 t-160 -39.5q-156 0 -255 103t-113 278z" />
<glyph unicode="x" horiz-adv-x="1001" d="M45 0l346 547l-317 508h207l219 -359l225 359h203l-318 -504l346 -551h-208l-246 399l-252 -399h-205z" />
<glyph unicode="y" horiz-adv-x="1001" d="M61 1055h189l94 -668q14 -107 59 -163t132 -56h104l111 887h188l-193 -1487h-186l57 432h-86q-321 0 -372 369z" />
<glyph unicode="z" horiz-adv-x="968" d="M113 0v147l501 746h-487v162h704v-148l-493 -745h518l-20 -162h-723z" />
<glyph unicode="{" horiz-adv-x="829" d="M100 510v154q130 0 188 55t58 190v312q0 200 120 299.5t331 99.5v-166q-135 0 -202 -52.5t-67 -184.5v-308q0 -226 -163 -323q163 -101 163 -324v-305q0 -132 67 -185t202 -53v-165q-211 0 -331 98.5t-120 298.5v311q0 133 -58.5 190.5t-187.5 57.5z" />
<glyph unicode="|" horiz-adv-x="518" d="M168 -410v1909h182v-1909h-182z" />
<glyph unicode="}" horiz-adv-x="829" d="M33 -281q135 0 201.5 53t66.5 185v305q0 221 166 324q-166 99 -166 323v308q0 132 -67 184.5t-201 52.5v166q210 0 330 -99.5t120 -299.5v-312q0 -135 57.5 -190t186.5 -55v-154q-128 0 -186 -57.5t-58 -190.5v-311q0 -200 -119.5 -298.5t-330.5 -98.5v165z" />
<glyph unicode="~" horiz-adv-x="1163" d="M152 578q114 170 258 170q53 0 106 -25t88 -55t77 -55t75 -25q42 0 74.5 25t64.5 71l117 -104q-117 -170 -256 -170q-45 0 -88 16.5t-76 40t-63.5 47.5t-61.5 40.5t-59 16.5q-72 0 -140 -96z" />
<glyph unicode="&#xa1;" horiz-adv-x="518" d="M139 1079q0 49 35.5 84t83.5 35q50 0 85.5 -35t35.5 -84q0 -52 -35 -85t-86 -33q-48 0 -83.5 34t-35.5 84zM154 -221l18 962h172l16 -921z" />
<glyph unicode="&#xa2;" horiz-adv-x="987" d="M123 436v185q0 208 96.5 321.5t267.5 134.5v232h154v-232q103 -8 221 -45l-37 -160q-157 43 -256 43q-130 0 -194 -73t-64 -232v-166q0 -158 64.5 -231.5t193.5 -73.5q115 0 256 41l37 -157q-126 -38 -221 -46v-231h-154v231q-171 21 -267.5 135t-96.5 324z" />
<glyph unicode="&#xa3;" horiz-adv-x="1001" d="M123 561v133h125q-6 23 -20.5 77.5t-21.5 83.5t-13.5 73.5t-6.5 83.5q0 191 114.5 295t295.5 104q158 0 309 -65l-53 -154q-130 49 -244 49t-169.5 -64t-55.5 -180q0 -32 3 -62.5t10 -65t11.5 -55.5t15.5 -63t15 -57h365v-133h-342q4 -46 4 -67q0 -98 -38.5 -185.5 t-88.5 -146.5h561v-162h-766v150q141 179 141 344q0 21 -4 67h-147z" />
<glyph unicode="&#xa4;" horiz-adv-x="1163" d="M152 270l120 121q-49 81 -49 180q0 101 51 183l-122 123l127 127l122 -123q84 51 183 51q94 0 178 -51l125 123l125 -127l-121 -123q51 -82 51 -183q0 -100 -51 -182l121 -119l-125 -127l-123 121q-82 -51 -180 -51q-103 0 -185 51l-120 -121zM387 571q0 -82 57.5 -139 t139.5 -57q80 0 138 57.5t58 138.5t-58 139t-138 58q-82 0 -139.5 -57.5t-57.5 -139.5z" />
<glyph unicode="&#xa5;" horiz-adv-x="1058" d="M12 1384h207l311 -671l310 671h204l-364 -747h217v-133h-270v-146h270v-131h-270v-227h-193v227h-270v131h270v146h-270v133h217z" />
<glyph unicode="&#xa6;" horiz-adv-x="518" d="M168 291h182v-701h-182v701zM168 788v711h182v-711h-182z" />
<glyph unicode="&#xa7;" horiz-adv-x="1134" d="M137 -195l33 166q174 -63 324 -63q97 0 157 44t60 132q0 62 -30 107t-78 73t-105.5 52.5t-115.5 53.5t-106 66.5t-78 101.5t-30 150q0 152 111 242q-29 66 -29 147q0 151 108 242.5t279 91.5q155 0 326 -68l-45 -161q-147 57 -271 57q-97 0 -147.5 -40.5t-50.5 -117.5 q0 -54 30 -95t78 -68t106 -52t116 -56t106 -71.5t78 -108t30 -155.5q0 -152 -110 -244q28 -64 28 -145q0 -109 -59 -190t-151 -119.5t-201 -38.5q-169 0 -363 67zM367 690q0 -51 25.5 -89.5t70.5 -64.5t92.5 -47t107 -50.5t99.5 -61.5q31 39 31 98q0 48 -18.5 86t-48 61.5 t-71.5 46t-82 38t-88 39t-82 47.5q-36 -36 -36 -103z" />
<glyph unicode="&#xa8;" horiz-adv-x="921" d="M164 1346q0 44 31.5 76t74.5 32q44 0 76.5 -32t32.5 -76q0 -43 -32.5 -74t-76.5 -31q-43 0 -74.5 31t-31.5 74zM543 1346q0 44 31.5 76t74.5 32q44 0 76.5 -32t32.5 -76q0 -43 -32.5 -74t-76.5 -31q-42 0 -74 31.5t-32 73.5z" />
<glyph unicode="&#xa9;" horiz-adv-x="1550" d="M131 662q0 192 75 346.5t223 247t345 92.5q198 0 346 -92.5t222.5 -247t74.5 -346.5q0 -193 -74.5 -348t-222.5 -248t-346 -93q-197 0 -345 93t-223 248t-75 348zM266 662q0 -159 58 -285t174.5 -201.5t275.5 -75.5t276 75.5t175.5 201.5t58.5 285q0 158 -58.5 283.5 t-175.5 200.5t-276 75t-275.5 -75t-174.5 -200.5t-58 -283.5zM485 569v181q0 129 80.5 204.5t202.5 75.5q103 0 209 -33l-25 -106q-106 27 -184 27q-74 0 -115 -49.5t-41 -133.5v-155q0 -83 41 -130t115 -47q85 0 184 27l25 -106q-106 -33 -209 -33q-122 0 -202.5 75 t-80.5 203z" />
<glyph unicode="&#xaa;" horiz-adv-x="747" d="M96 850q0 110 74.5 168.5t200.5 58.5h129v37q0 137 -127 137q-87 0 -199 -32l-33 124q132 41 232 41q127 0 203.5 -74.5t76.5 -199.5v-260q0 -103 -81 -173.5t-195 -70.5q-120 0 -200.5 70.5t-80.5 173.5zM250 852q0 -50 35.5 -82.5t91.5 -32.5q54 0 88.5 33.5t34.5 79.5 v113h-125q-125 0 -125 -111z" />
<glyph unicode="&#xab;" horiz-adv-x="1032" d="M139 573l291 365l131 -102l-211 -263l211 -264l-131 -100zM494 573l288 365l131 -102l-208 -263l208 -264l-131 -100z" />
<glyph unicode="&#xac;" horiz-adv-x="1155" d="M139 483v164h877v-526h-164v362h-713z" />
<glyph unicode="&#xad;" horiz-adv-x="1003" d="M170 483v164h661v-164h-661z" />
<glyph unicode="&#xae;" horiz-adv-x="1550" d="M131 662q0 192 75 346.5t223 247t345 92.5q198 0 346 -92.5t222.5 -247t74.5 -346.5q0 -193 -74.5 -348t-222.5 -248t-346 -93q-197 0 -345 93t-223 248t-75 348zM266 662q0 -159 58 -285t174.5 -201.5t275.5 -75.5t276 75.5t175.5 201.5t58.5 285q0 158 -58.5 283.5 t-175.5 200.5t-276 75t-275.5 -75t-174.5 -200.5t-58 -283.5zM547 303v717h241q105 0 167.5 -64.5t62.5 -158.5q0 -64 -30.5 -120t-96.5 -83l143 -291h-135l-127 270h-98v-270h-127zM674 684h110q51 0 80 32t29 81q0 48 -28 79t-83 31h-108v-223z" />
<glyph unicode="&#xaf;" horiz-adv-x="870" d="M176 1280v145h518v-145h-518z" />
<glyph unicode="&#xb0;" horiz-adv-x="788" d="M139 1270q0 102 75.5 176t180.5 74q103 0 178.5 -75.5t75.5 -178.5q0 -106 -75 -181t-179 -75q-106 0 -181 76t-75 184zM279 1266q0 -50 33.5 -83.5t82.5 -33.5t83 33.5t34 83.5t-34 83t-85 33q-48 0 -81 -33.5t-33 -82.5z" />
<glyph unicode="&#xb1;" horiz-adv-x="1116" d="M139 16h838v-159h-838v159zM139 481v164h338v326h162v-326h338v-164h-338v-323h-162v323h-338z" />
<glyph unicode="&#xb4;" horiz-adv-x="798" d="M166 1321l405 176l62 -149l-416 -152z" />
<glyph unicode="&#xb5;" horiz-adv-x="1122" d="M160 -432v1487h188v-662q0 -123 60.5 -188.5t156.5 -65.5q100 0 159.5 70t59.5 203v643h189v-654q0 -201 -116.5 -314.5t-291.5 -113.5q-125 0 -217 64v-469h-188z" />
<glyph unicode="&#xb6;" horiz-adv-x="1241" d="M119 989q0 163 107 278t268 115h610v-1628h-180v1456h-187v-1456h-180v842h-72q-154 0 -260 116t-106 277z" />
<glyph unicode="&#xb7;" horiz-adv-x="571" d="M174 571q0 47 34 81t77 34q49 0 81.5 -33.5t32.5 -81.5q0 -46 -33.5 -77t-80.5 -31q-44 0 -77.5 31.5t-33.5 76.5z" />
<glyph unicode="&#xb8;" horiz-adv-x="610" d="M80 -416l20 144q50 -13 103 -13t76.5 25t23.5 76v184h158v-203q0 -62 -21 -108.5t-57.5 -71.5t-78.5 -37t-89 -12q-78 0 -135 16z" />
<glyph unicode="&#xba;" horiz-adv-x="802" d="M96 932v127q0 155 84.5 240t220.5 85q137 0 221.5 -85t84.5 -240v-127q0 -155 -85 -240.5t-221 -85.5t-220.5 85.5t-84.5 240.5zM248 940q0 -203 153 -203q154 0 154 203v111q0 200 -154 200q-153 0 -153 -200v-111z" />
<glyph unicode="&#xbb;" horiz-adv-x="1032" d="M119 311l209 262l-209 265l131 100l289 -365l-289 -364zM473 311l209 262l-209 265l129 100l291 -365l-291 -364z" />
<glyph unicode="&#xbf;" horiz-adv-x="913" d="M104 102q0 64 27 125.5t65.5 110t77.5 95t66 98.5t27 102v168l180 -41v-123q0 -65 -26.5 -127.5t-64.5 -112t-76 -96t-64.5 -98.5t-26.5 -101q0 -80 49 -127t137 -47q109 0 240 88l80 -141q-160 -113 -322 -113q-98 0 -180 36.5t-135.5 115.5t-53.5 188zM338 1075 q0 49 35.5 85t83.5 36q51 0 86 -35t35 -86q0 -50 -35.5 -83.5t-85.5 -33.5q-47 0 -83 33.5t-36 83.5z" />
<glyph unicode="&#xc0;" horiz-adv-x="1226" d="M61 0l441 1384h223l440 -1384h-198l-115 373h-479l-115 -373h-197zM379 1647l61 149l406 -176l-51 -125zM422 537h381l-131 428q-20 65 -60 219q-20 -98 -57 -219z" />
<glyph unicode="&#xc1;" horiz-adv-x="1226" d="M61 0l441 1384h223l440 -1384h-198l-115 373h-479l-115 -373h-197zM379 1620l405 176l62 -149l-416 -152zM422 537h381l-131 428q-20 65 -60 219q-20 -98 -57 -219z" />
<glyph unicode="&#xc2;" horiz-adv-x="1226" d="M61 0l441 1384h223l440 -1384h-198l-115 373h-479l-115 -373h-197zM334 1626l278 166l281 -166l-78 -127l-201 135l-202 -135zM422 537h381l-131 428q-20 65 -60 219q-20 -98 -57 -219z" />
<glyph unicode="&#xc3;" horiz-adv-x="1226" d="M61 0l441 1384h223l440 -1384h-198l-115 373h-479l-115 -373h-197zM317 1649q19 44 65.5 81t111.5 37q44 0 88 -24t82 -48t67 -24q52 0 96 60l80 -89q-19 -44 -65 -81t-111 -37q-44 0 -88 24t-82 48t-67 24q-53 0 -97 -59zM422 537h381l-131 428q-20 65 -60 219 q-20 -98 -57 -219z" />
<glyph unicode="&#xc4;" horiz-adv-x="1226" d="M61 0l441 1384h223l440 -1384h-198l-115 373h-479l-115 -373h-197zM315 1645q0 44 33 76t76 32t74.5 -32t31.5 -76q0 -43 -31.5 -74t-74.5 -31t-76 31.5t-33 73.5zM422 537h381l-131 428q-20 65 -60 219q-20 -98 -57 -219zM694 1645q0 44 32.5 76t74.5 32 q45 0 76.5 -31.5t31.5 -76.5q0 -43 -32 -74t-76 -31q-42 0 -74.5 31.5t-32.5 73.5z" />
<glyph unicode="&#xc5;" horiz-adv-x="1226" d="M61 0l441 1384h223l440 -1384h-198l-115 373h-479l-115 -373h-197zM422 537h381l-131 428q-20 65 -60 219q-20 -98 -57 -219zM426 1683q0 75 55 130t133 55q75 0 130 -55t55 -130q0 -76 -55 -132t-130 -56q-78 0 -133 55.5t-55 132.5zM545 1683q0 -29 20 -50t49 -21 q28 0 48 21t20 50t-20 49.5t-48 20.5q-29 0 -49 -20.5t-20 -49.5z" />
<glyph unicode="&#xc6;" horiz-adv-x="1849" d="M61 0l820 1384h776l10 -172h-545l33 -432h492l-31 -166h-451l33 -442h561l10 -172h-747l-27 373h-499l-215 -373h-220zM590 537h393l-43 608z" />
<glyph unicode="&#xc7;" horiz-adv-x="1153" d="M131 528v328q0 137 40.5 244t113 174.5t169.5 102t214 34.5q189 0 393 -65l-37 -164q-188 57 -354 57q-161 0 -252.5 -97.5t-91.5 -297.5v-303q0 -204 91 -300t253 -96q175 0 354 58l37 -168q-155 -47 -295 -58v-180q0 -62 -21 -108.5t-57.5 -71.5t-78.5 -37t-89 -12 q-75 0 -135 16l21 144q54 -13 102 -13q54 0 77 25t23 76v159q-216 18 -346.5 159t-130.5 394z" />
<glyph unicode="&#xc8;" d="M170 0v1384h758v-172h-563v-432h479l-13 -166h-466v-442h581v-172h-776zM324 1647l61 149l403 -176l-49 -125z" />
<glyph unicode="&#xc9;" d="M170 0v1384h758v-172h-563v-432h479l-13 -166h-466v-442h581v-172h-776zM305 1620l404 176l61 -149l-416 -152z" />
<glyph unicode="&#xca;" d="M170 0v1384h758v-172h-563v-432h479l-13 -166h-466v-442h581v-172h-776zM264 1626l281 166l280 -166l-80 -127l-200 135l-203 -135z" />
<glyph unicode="&#xcb;" d="M170 0v1384h758v-172h-563v-432h479l-13 -166h-466v-442h581v-172h-776zM258 1645q0 44 33 76t76 32t74.5 -32t31.5 -76q0 -43 -31.5 -74t-74.5 -31t-76 31.5t-33 73.5zM637 1645q0 44 32 76t74 32q45 0 77 -31.5t32 -76.5q0 -43 -32.5 -74t-76.5 -31q-42 0 -74 31.5 t-32 73.5z" />
<glyph unicode="&#xcc;" horiz-adv-x="534" d="M33 1647l61 149l406 -176l-51 -125zM170 0v1384h195v-1384h-195z" />
<glyph unicode="&#xcd;" horiz-adv-x="534" d="M33 1620l405 176l62 -149l-416 -152zM170 0v1384h195v-1384h-195z" />
<glyph unicode="&#xce;" horiz-adv-x="534" d="M-14 1626l280 166l281 -166l-78 -127l-203 135l-200 -135zM170 0v1384h195v-1384h-195z" />
<glyph unicode="&#xcf;" horiz-adv-x="534" d="M-29 1645q0 44 32 76t75 32q44 0 75 -32t31 -76q0 -43 -31 -74t-75 -31q-43 0 -75 31t-32 74zM170 0v1384h195v-1384h-195zM350 1645q0 44 32 76t75 32q44 0 76 -32t32 -76q0 -43 -32 -74t-76 -31q-43 0 -75 31t-32 74z" />
<glyph unicode="&#xd0;" horiz-adv-x="1282" d="M41 631v135h129v534q303 111 492 111q134 0 243 -57.5t176.5 -174.5t67.5 -276v-409q0 -242 -126.5 -368t-360.5 -126h-492v631h-129zM365 172h297q152 0 223 78.5t71 255.5v385q0 168 -80.5 258t-216.5 90q-135 0 -294 -55v-418h292v-135h-292v-459z" />
<glyph unicode="&#xd1;" horiz-adv-x="1284" d="M170 0v1384h154l602 -1011q-4 148 -4 202v809h192v-1384h-160l-598 995q9 -111 9 -202v-793h-195zM348 1649q19 44 64.5 81t111.5 37q44 0 88.5 -24t82.5 -48t67 -24q54 0 94 60l80 -89q-19 -44 -64.5 -81t-109.5 -37q-36 0 -72 15t-60 33t-53 33t-53 15q-57 0 -96 -59z " />
<glyph unicode="&#xd2;" horiz-adv-x="1290" d="M131 530v322q0 136 40.5 244t111 176t162.5 103.5t200 35.5t200 -35.5t162.5 -103.5t111 -176t40.5 -244v-322q0 -137 -40 -244.5t-111 -175t-163 -102.5t-200 -35t-200 35t-163 102.5t-111 175t-40 244.5zM326 541q0 -199 86.5 -297.5t232.5 -98.5q147 0 234.5 98.5 t87.5 297.5v299q0 201 -87.5 300t-234.5 99t-233 -99t-86 -300v-299zM412 1647l61 149l404 -176l-50 -125z" />
<glyph unicode="&#xd3;" horiz-adv-x="1290" d="M131 530v322q0 136 40.5 244t111 176t162.5 103.5t200 35.5t200 -35.5t162.5 -103.5t111 -176t40.5 -244v-322q0 -137 -40 -244.5t-111 -175t-163 -102.5t-200 -35t-200 35t-163 102.5t-111 175t-40 244.5zM326 541q0 -199 86.5 -297.5t232.5 -98.5q147 0 234.5 98.5 t87.5 297.5v299q0 201 -87.5 300t-234.5 99t-233 -99t-86 -300v-299zM408 1620l405 176l61 -149l-415 -152z" />
<glyph unicode="&#xd4;" horiz-adv-x="1290" d="M131 530v322q0 136 40.5 244t111 176t162.5 103.5t200 35.5t200 -35.5t162.5 -103.5t111 -176t40.5 -244v-322q0 -137 -40 -244.5t-111 -175t-163 -102.5t-200 -35t-200 35t-163 102.5t-111 175t-40 244.5zM326 541q0 -199 86.5 -297.5t232.5 -98.5q147 0 234.5 98.5 t87.5 297.5v299q0 201 -87.5 300t-234.5 99t-233 -99t-86 -300v-299zM365 1626l278 166l281 -166l-78 -127l-201 135l-203 -135z" />
<glyph unicode="&#xd5;" horiz-adv-x="1290" d="M131 530v322q0 136 40.5 244t111 176t162.5 103.5t200 35.5t200 -35.5t162.5 -103.5t111 -176t40.5 -244v-322q0 -137 -40 -244.5t-111 -175t-163 -102.5t-200 -35t-200 35t-163 102.5t-111 175t-40 244.5zM326 541q0 -199 86.5 -297.5t232.5 -98.5q147 0 234.5 98.5 t87.5 297.5v299q0 201 -87.5 300t-234.5 99t-233 -99t-86 -300v-299zM350 1649q19 44 64.5 81t111.5 37q44 0 88.5 -24t82.5 -48t67 -24q54 0 94 60l80 -89q-19 -44 -64.5 -81t-109.5 -37q-36 0 -72 15t-60 33t-53 33t-53 15q-57 0 -96 -59z" />
<glyph unicode="&#xd6;" horiz-adv-x="1290" d="M131 530v322q0 136 40.5 244t111 176t162.5 103.5t200 35.5t200 -35.5t162.5 -103.5t111 -176t40.5 -244v-322q0 -137 -40 -244.5t-111 -175t-163 -102.5t-200 -35t-200 35t-163 102.5t-111 175t-40 244.5zM326 541q0 -199 86.5 -297.5t232.5 -98.5q147 0 234.5 98.5 t87.5 297.5v299q0 201 -87.5 300t-234.5 99t-233 -99t-86 -300v-299zM350 1645q0 44 32 76t75 32q44 0 75 -32t31 -76q0 -43 -31 -74t-75 -31q-43 0 -75 31t-32 74zM729 1645q0 44 32 76t75 32q44 0 76 -32t32 -76q0 -43 -32 -74t-76 -31q-43 0 -75 31t-32 74z" />
<glyph unicode="&#xd7;" horiz-adv-x="1015" d="M139 313l254 252l-252 254l115 115l252 -254l252 254l114 -115l-251 -254l251 -252l-114 -114l-252 252l-252 -254z" />
<glyph unicode="&#xd8;" horiz-adv-x="1290" d="M131 530v322q0 136 40.5 244t111 176t162.5 103.5t200 35.5q132 0 238 -53l73 149l131 -61l-83 -170q155 -152 155 -424v-322q0 -137 -40 -244.5t-111 -175t-163 -102.5t-200 -35q-132 0 -250 56l-73 -152l-132 62l86 178q-145 152 -145 413zM326 541q0 -142 47 -228 l434 887q-68 39 -162 39q-147 0 -233 -99t-86 -300v-299zM473 188q68 -43 172 -43q147 0 234.5 98.5t87.5 297.5v299q0 151 -58 243z" />
<glyph unicode="&#xd9;" horiz-adv-x="1292" d="M160 444v940h194v-927q0 -138 82.5 -225t212.5 -87q129 0 210 87t81 225v927h193v-940q0 -205 -141 -338t-343 -133q-134 0 -245.5 59t-177.5 167.5t-66 244.5zM412 1647l61 149l406 -176l-52 -125z" />
<glyph unicode="&#xda;" horiz-adv-x="1292" d="M160 444v940h194v-927q0 -138 82.5 -225t212.5 -87q129 0 210 87t81 225v927h193v-940q0 -205 -141 -338t-343 -133q-134 0 -245.5 59t-177.5 167.5t-66 244.5zM412 1620l405 176l62 -149l-416 -152z" />
<glyph unicode="&#xdb;" horiz-adv-x="1292" d="M160 444v940h194v-927q0 -138 82.5 -225t212.5 -87q129 0 210 87t81 225v927h193v-940q0 -205 -141 -338t-343 -133q-134 0 -245.5 59t-177.5 167.5t-66 244.5zM365 1626l280 166l281 -166l-80 -127l-201 135l-203 -135z" />
<glyph unicode="&#xdc;" horiz-adv-x="1292" d="M160 444v940h194v-927q0 -138 82.5 -225t212.5 -87q129 0 210 87t81 225v927h193v-940q0 -205 -141 -338t-343 -133q-134 0 -245.5 59t-177.5 167.5t-66 244.5zM350 1645q0 44 32 76t75 32q44 0 76 -32t32 -76q0 -43 -32 -74t-76 -31q-43 0 -75 31t-32 74zM729 1645 q0 44 32 76t75 32q44 0 76 -32t32 -76q0 -43 -32 -74t-76 -31q-42 0 -74.5 31.5t-32.5 73.5z" />
<glyph unicode="&#xdd;" horiz-adv-x="1148" d="M51 1384h205l317 -657l320 657h205l-426 -854v-530h-195v530zM340 1620l405 176l62 -149l-416 -152z" />
<glyph unicode="&#xde;" horiz-adv-x="1128" d="M170 0v1384h195v-272h266q186 0 302 -122.5t116 -297.5q0 -84 -30 -160t-83.5 -133.5t-132.5 -91t-172 -33.5h-266v-274h-195zM365 442h264q104 0 163.5 69.5t59.5 180.5t-59.5 180.5t-163.5 69.5h-264v-500z" />
<glyph unicode="&#xdf;" horiz-adv-x="1232" d="M51 920v135h139v127q0 165 101 254.5t248 89.5q71 0 134 -20.5t113.5 -60t80.5 -104.5t30 -147q0 -58 -23 -110t-55.5 -89.5t-64.5 -71.5t-55 -71t-23 -74q0 -43 26 -74.5t67 -52t91 -39.5t99.5 -44t90.5 -58.5t67 -91t26 -133.5q0 -59 -23 -114t-67 -99.5t-116.5 -71.5 t-164.5 -27q-152 0 -303 56l35 159q149 -49 268 -49q81 0 132.5 40t51.5 102q0 47 -25.5 81t-65.5 55.5t-89 41t-98 44t-89 57t-65.5 88.5t-25.5 130q0 62 22.5 114t54 88t63.5 68t54.5 67.5t22.5 72.5q0 85 -50.5 128.5t-121.5 43.5q-68 0 -117 -45.5t-49 -140.5v-1174 h-187v920h-139z" />
<glyph unicode="&#xe0;" horiz-adv-x="993" d="M94 315q0 152 104.5 236t278.5 84h207v57q0 108 -52 165.5t-151 57.5q-125 0 -278 -47l-41 156q176 57 319 57q178 0 283.5 -104.5t105.5 -284.5v-377q0 -144 -113 -243t-272 -99q-167 0 -279 98.5t-112 243.5zM248 1348l61 149l404 -176l-49 -125zM287 317 q0 -73 54 -125.5t144 -52.5q87 0 143 51.5t56 124.5v172h-207q-96 0 -143 -47t-47 -123z" />
<glyph unicode="&#xe1;" horiz-adv-x="993" d="M94 315q0 152 104.5 236t278.5 84h207v57q0 108 -52 165.5t-151 57.5q-125 0 -278 -47l-41 156q176 57 319 57q178 0 283.5 -104.5t105.5 -284.5v-377q0 -144 -113 -243t-272 -99q-167 0 -279 98.5t-112 243.5zM229 1321l406 176l61 -149l-415 -152zM287 317 q0 -73 54 -125.5t144 -52.5q87 0 143 51.5t56 124.5v172h-207q-96 0 -143 -47t-47 -123z" />
<glyph unicode="&#xe2;" horiz-adv-x="993" d="M94 315q0 152 104.5 236t278.5 84h207v57q0 108 -52 165.5t-151 57.5q-125 0 -278 -47l-41 156q176 57 319 57q178 0 283.5 -104.5t105.5 -284.5v-377q0 -144 -113 -243t-272 -99q-167 0 -279 98.5t-112 243.5zM197 1327l280 166l281 -166l-80 -127l-201 135l-203 -135z M287 317q0 -73 54 -125.5t144 -52.5q87 0 143 51.5t56 124.5v172h-207q-96 0 -143 -47t-47 -123z" />
<glyph unicode="&#xe3;" horiz-adv-x="993" d="M94 315q0 152 104.5 236t278.5 84h207v57q0 108 -52 165.5t-151 57.5q-125 0 -278 -47l-41 156q176 57 319 57q178 0 283.5 -104.5t105.5 -284.5v-377q0 -144 -113 -243t-272 -99q-167 0 -279 98.5t-112 243.5zM184 1350q19 44 64.5 81t111.5 37q44 0 88.5 -24t82.5 -48 t67 -24q54 0 94 60l80 -89q-19 -44 -64.5 -81t-109.5 -37q-36 0 -72 15t-60 33t-53 33t-53 15q-57 0 -96 -59zM287 317q0 -73 54 -125.5t144 -52.5q87 0 143 51.5t56 124.5v172h-207q-96 0 -143 -47t-47 -123z" />
<glyph unicode="&#xe4;" horiz-adv-x="993" d="M94 315q0 152 104.5 236t278.5 84h207v57q0 108 -52 165.5t-151 57.5q-125 0 -278 -47l-41 156q176 57 319 57q178 0 283.5 -104.5t105.5 -284.5v-377q0 -144 -113 -243t-272 -99q-167 0 -279 98.5t-112 243.5zM176 1346q0 44 32 76t75 32q44 0 76 -32t32 -76 q0 -43 -32 -74t-76 -31q-43 0 -75 31t-32 74zM287 317q0 -73 54 -125.5t144 -52.5q87 0 143 51.5t56 124.5v172h-207q-96 0 -143 -47t-47 -123zM555 1346q0 44 32 76t75 32q44 0 76 -32t32 -76q0 -43 -32 -74t-76 -31q-42 0 -74.5 31.5t-32.5 73.5z" />
<glyph unicode="&#xe5;" horiz-adv-x="993" d="M94 315q0 152 104.5 236t278.5 84h207v57q0 108 -52 165.5t-151 57.5q-125 0 -278 -47l-41 156q176 57 319 57q178 0 283.5 -104.5t105.5 -284.5v-377q0 -144 -113 -243t-272 -99q-167 0 -279 98.5t-112 243.5zM287 317q0 -73 54 -125.5t144 -52.5q87 0 143 51.5 t56 124.5v172h-207q-96 0 -143 -47t-47 -123zM295 1384q0 75 56 130t134 55q75 0 130 -55t55 -130q0 -76 -55 -132t-130 -56q-78 0 -134 55.5t-56 132.5zM416 1384q0 -29 20 -50t49 -21q28 0 48 21t20 50t-20 49.5t-48 20.5q-29 0 -49 -20.5t-20 -49.5z" />
<glyph unicode="&#xe6;" horiz-adv-x="1605" d="M94 315q0 152 104.5 235t278.5 83h207v59q0 108 -52 165.5t-151 57.5q-121 0 -278 -47l-41 156q176 57 319 57q197 0 301 -135q110 135 301 135q172 0 290 -110t118 -281v-217h-625v-61q0 -138 64 -205.5t182 -67.5q133 0 285 49l37 -161q-167 -54 -322 -54 q-213 0 -324 129q-116 -129 -303 -129q-167 0 -279 98.5t-112 243.5zM287 317q0 -73 54 -125.5t144 -52.5q75 0 126.5 25t95.5 84q-23 81 -23 164v73h-207q-96 0 -143 -46.5t-47 -121.5zM866 621h437v69q0 100 -61 162.5t-159 62.5t-157.5 -64.5t-59.5 -184.5v-45z" />
<glyph unicode="&#xe7;" horiz-adv-x="964" d="M121 436v185q0 117 32 206t91.5 144t139 82.5t177.5 27.5q144 0 299 -49l-35 -160q-161 43 -256 43q-131 0 -195.5 -73t-64.5 -232v-166q0 -158 64.5 -231.5t195.5 -73.5q115 0 256 41l35 -157q-106 -34 -209 -46v-180q0 -62 -21 -108.5t-57 -71.5t-77 -37t-88 -12 q-79 0 -136 16l19 144q54 -13 102 -13q54 0 78.5 25t24.5 76v161q-175 18 -275 132.5t-100 326.5z" />
<glyph unicode="&#xe8;" horiz-adv-x="1044" d="M121 412v239q0 203 115 316.5t290 113.5q172 0 290 -110t118 -281v-217h-625v-61q0 -138 64 -205.5t182 -67.5q126 0 285 49l37 -161q-168 -54 -322 -54q-196 0 -315 114.5t-119 324.5zM289 1348l61 149l406 -176l-51 -125zM309 621h436v69q0 100 -60.5 162.5 t-158.5 62.5t-157.5 -64.5t-59.5 -184.5v-45z" />
<glyph unicode="&#xe9;" horiz-adv-x="1044" d="M121 412v239q0 203 115 316.5t290 113.5q172 0 290 -110t118 -281v-217h-625v-61q0 -138 64 -205.5t182 -67.5q126 0 285 49l37 -161q-168 -54 -322 -54q-196 0 -315 114.5t-119 324.5zM283 1321l403 176l62 -149l-416 -152zM309 621h436v69q0 100 -60.5 162.5 t-158.5 62.5t-157.5 -64.5t-59.5 -184.5v-45z" />
<glyph unicode="&#xea;" horiz-adv-x="1044" d="M121 412v239q0 203 115 316.5t290 113.5q172 0 290 -110t118 -281v-217h-625v-61q0 -138 64 -205.5t182 -67.5q126 0 285 49l37 -161q-168 -54 -322 -54q-196 0 -315 114.5t-119 324.5zM242 1327l280 166l281 -166l-78 -127l-203 135l-200 -135zM309 621h436v69 q0 100 -60.5 162.5t-158.5 62.5t-157.5 -64.5t-59.5 -184.5v-45z" />
<glyph unicode="&#xeb;" horiz-adv-x="1044" d="M121 412v239q0 203 115 316.5t290 113.5q172 0 290 -110t118 -281v-217h-625v-61q0 -138 64 -205.5t182 -67.5q126 0 285 49l37 -161q-168 -54 -322 -54q-196 0 -315 114.5t-119 324.5zM225 1346q0 44 32 76t75 32q44 0 75 -32t31 -76q0 -43 -31 -74t-75 -31 q-43 0 -75 31t-32 74zM309 621h436v69q0 100 -60.5 162.5t-158.5 62.5t-157.5 -64.5t-59.5 -184.5v-45zM604 1346q0 44 32 76t75 32q44 0 76 -32t32 -76q0 -43 -32 -74t-76 -31q-43 0 -75 31t-32 74z" />
<glyph unicode="&#xec;" horiz-adv-x="507" d="M20 1348l62 149l403 -176l-49 -125zM160 0v1055h188v-1055h-188z" />
<glyph unicode="&#xed;" horiz-adv-x="507" d="M20 1321l406 176l61 -149l-415 -152zM160 0v1055h188v-1055h-188z" />
<glyph unicode="&#xee;" horiz-adv-x="507" d="M-27 1327l281 166l281 -166l-80 -127l-201 135l-203 -135zM160 0v1055h188v-1055h-188z" />
<glyph unicode="&#xef;" horiz-adv-x="507" d="M-45 1346q0 44 32.5 76t75.5 32t75 -32t32 -76q0 -43 -32 -74t-75 -31t-75.5 31.5t-32.5 73.5zM160 0v1055h188v-1055h-188zM334 1346q0 44 32 76t74 32q46 0 77.5 -32t31.5 -76q0 -43 -32.5 -74t-76.5 -31q-42 0 -74 31.5t-32 73.5z" />
<glyph unicode="&#xf0;" horiz-adv-x="1097" d="M121 430v133q0 114 33 203t91.5 143.5t133 82.5t162.5 28q145 0 258 -76v113q0 263 -187 293l-71 -203l-127 45l57 162q-110 -9 -211 -43l-33 147q176 56 299 58l66 180l125 -45l-51 -148q146 -31 228.5 -140.5t82.5 -299.5v-633q0 -220 -120.5 -338.5t-307.5 -118.5 t-307.5 118.5t-120.5 338.5zM309 440q0 -157 65.5 -229t174.5 -72q108 0 173.5 72.5t65.5 228.5v336q-48 34 -112.5 56t-126.5 22q-109 0 -174.5 -71t-65.5 -232v-111z" />
<glyph unicode="&#xf1;" horiz-adv-x="1112" d="M150 0v653q0 201 116.5 314.5t290.5 113.5q176 0 291 -113t115 -315v-653h-189v643q0 132 -59 202t-158 70q-100 0 -159.5 -69.5t-59.5 -202.5v-643h-188zM262 1350q19 44 64.5 81t111.5 37q44 0 88.5 -24t82.5 -48t67 -24q54 0 94 60l80 -89q-19 -44 -64.5 -81 t-109.5 -37q-36 0 -72 15t-60 33t-53 33t-53 15q-57 0 -96 -59z" />
<glyph unicode="&#xf2;" horiz-adv-x="1097" d="M121 436v182q0 225 118 344t310 119t310 -119.5t118 -343.5v-182q0 -224 -118 -343.5t-310 -119.5t-310 119.5t-118 343.5zM309 446q0 -307 240 -307q239 0 239 307v162q0 307 -239 307q-240 0 -240 -307v-162zM315 1348l62 149l403 -176l-49 -125z" />
<glyph unicode="&#xf3;" horiz-adv-x="1097" d="M121 436v182q0 225 118 344t310 119t310 -119.5t118 -343.5v-182q0 -224 -118 -343.5t-310 -119.5t-310 119.5t-118 343.5zM309 446q0 -307 240 -307q239 0 239 307v162q0 307 -239 307q-240 0 -240 -307v-162zM315 1321l406 176l61 -149l-415 -152z" />
<glyph unicode="&#xf4;" horiz-adv-x="1097" d="M121 436v182q0 225 118 344t310 119t310 -119.5t118 -343.5v-182q0 -224 -118 -343.5t-310 -119.5t-310 119.5t-118 343.5zM268 1327l281 166l280 -166l-79 -127l-201 135l-203 -135zM309 446q0 -307 240 -307q239 0 239 307v162q0 307 -239 307q-240 0 -240 -307v-162z " />
<glyph unicode="&#xf5;" horiz-adv-x="1097" d="M121 436v182q0 225 118 344t310 119t310 -119.5t118 -343.5v-182q0 -224 -118 -343.5t-310 -119.5t-310 119.5t-118 343.5zM254 1350q19 44 64.5 81t111.5 37q44 0 88.5 -24t82.5 -48t67 -24q54 0 94 60l80 -89q-19 -44 -64.5 -81t-109.5 -37q-36 0 -72 15t-60 33t-53 33 t-53 15q-57 0 -96 -59zM309 446q0 -307 240 -307q239 0 239 307v162q0 307 -239 307q-240 0 -240 -307v-162z" />
<glyph unicode="&#xf6;" horiz-adv-x="1097" d="M121 436v182q0 225 118 344t310 119t310 -119.5t118 -343.5v-182q0 -224 -118 -343.5t-310 -119.5t-310 119.5t-118 343.5zM252 1346q0 44 31.5 76t74.5 32q44 0 76.5 -32t32.5 -76q0 -43 -32.5 -74t-76.5 -31q-43 0 -74.5 31t-31.5 74zM309 446q0 -307 240 -307 q239 0 239 307v162q0 307 -239 307q-240 0 -240 -307v-162zM631 1346q0 44 31.5 76t74.5 32q44 0 76.5 -32t32.5 -76q0 -43 -32.5 -74t-76.5 -31q-42 0 -74 31.5t-32 73.5z" />
<glyph unicode="&#xf8;" horiz-adv-x="1095" d="M121 436v182q0 225 117.5 344t308.5 119q95 0 178 -30l70 143l123 -61l-76 -156q133 -120 133 -359v-182q0 -225 -117.5 -344t-310.5 -119q-102 0 -178 33l-70 -141l-121 61l74 152q-131 125 -131 358zM307 446q0 -112 39 -176l303 627q-43 18 -102 18q-240 0 -240 -307 v-162zM442 158q49 -19 105 -19q241 0 241 307v162q0 116 -38 178z" />
<glyph unicode="&#xf9;" horiz-adv-x="1112" d="M150 401v654h188v-643q0 -133 59 -203t158 -70q100 0 159.5 70t59.5 203v643h189v-654q0 -201 -116.5 -314.5t-291.5 -113.5q-176 0 -290.5 113t-114.5 315zM324 1348l61 149l403 -176l-49 -125z" />
<glyph unicode="&#xfa;" horiz-adv-x="1112" d="M150 401v654h188v-643q0 -133 59 -203t158 -70q100 0 159.5 70t59.5 203v643h189v-654q0 -201 -116.5 -314.5t-291.5 -113.5q-176 0 -290.5 113t-114.5 315zM313 1321l406 176l61 -149l-415 -152z" />
<glyph unicode="&#xfb;" horiz-adv-x="1112" d="M150 401v654h188v-643q0 -133 59 -203t158 -70q100 0 159.5 70t59.5 203v643h189v-654q0 -201 -116.5 -314.5t-291.5 -113.5q-176 0 -290.5 113t-114.5 315zM276 1327l279 166l281 -166l-78 -127l-201 135l-203 -135z" />
<glyph unicode="&#xfc;" horiz-adv-x="1112" d="M150 401v654h188v-643q0 -133 59 -203t158 -70q100 0 159.5 70t59.5 203v643h189v-654q0 -201 -116.5 -314.5t-291.5 -113.5q-176 0 -290.5 113t-114.5 315zM258 1346q0 44 32 76t75 32q44 0 76 -32t32 -76q0 -43 -32 -74t-76 -31q-43 0 -75 31t-32 74zM637 1346 q0 44 31.5 76t74.5 32q44 0 76.5 -32t32.5 -76q0 -43 -32.5 -74t-76.5 -31q-42 0 -74 31.5t-32 73.5z" />
<glyph unicode="&#xfd;" horiz-adv-x="1001" d="M61 1055h189l94 -668q14 -107 59 -163t132 -56h104l111 887h188l-193 -1487h-186l57 432h-86q-321 0 -372 369zM266 1321l404 176l61 -149l-416 -152z" />
<glyph unicode="&#xfe;" horiz-adv-x="1116" d="M160 -430v1929h188v-489q95 71 230 71q176 0 295.5 -117.5t119.5 -322.5v-225q0 -89 -21.5 -162.5t-59 -124.5t-88.5 -87t-110 -52.5t-124 -16.5q-121 0 -242 74v-477h-188zM348 211q124 -72 227 -72t167.5 68.5t64.5 218.5v205q0 139 -64.5 211.5t-164.5 72.5 t-165 -68.5t-65 -197.5v-438z" />
<glyph unicode="&#xff;" horiz-adv-x="1001" d="M61 1055h189l94 -668q14 -107 59 -163t132 -56h104l111 887h188l-193 -1487h-186l57 432h-86q-321 0 -372 369zM207 1346q0 44 32.5 76t75.5 32t75 -32t32 -76q0 -43 -32 -74t-75 -31t-75.5 31.5t-32.5 73.5zM586 1346q0 44 32 76t74 32q46 0 77.5 -32t31.5 -76 q0 -43 -32.5 -74t-76.5 -31q-42 0 -74 31.5t-32 73.5z" />
<glyph unicode="&#x152;" horiz-adv-x="1830" d="M131 530v322q0 136 40.5 244t111 176t162.5 103.5t200 35.5q85 0 174 -27h862v-172h-628q106 -141 106 -360v-72h438l-12 -166h-426v-84q0 -216 -104 -358h645v-172h-879q-93 -27 -176 -27q-108 0 -200 35t-163 102.5t-111 175t-40 244.5zM326 541q0 -199 86.5 -297.5 t232.5 -98.5q147 0 234.5 98.5t87.5 297.5v299q0 201 -87.5 300t-234.5 99t-233 -99t-86 -300v-299z" />
<glyph unicode="&#x153;" horiz-adv-x="1712" d="M121 436v182q0 225 118 344t310 119q218 0 330 -153q54 75 135 114t180 39q172 0 290 -110t118 -281v-217h-625v-61q0 -138 64 -205.5t182 -67.5q132 0 284 49l37 -161q-167 -54 -321 -54q-232 0 -344 154q-110 -154 -330 -154q-192 0 -310 119.5t-118 343.5zM309 446 q0 -307 240 -307q239 0 239 307v162q0 307 -239 307q-240 0 -240 -307v-162zM977 621h436v69q0 100 -60.5 162.5t-158.5 62.5t-157.5 -64.5t-59.5 -184.5v-45z" />
<glyph unicode="&#x178;" horiz-adv-x="1148" d="M51 1384h205l317 -657l320 657h205l-426 -854v-530h-195v530zM276 1645q0 44 32 76t75 32q44 0 76.5 -32t32.5 -76q0 -43 -32.5 -74t-76.5 -31q-43 0 -75 31t-32 74zM655 1645q0 44 32 76t75 32q44 0 76 -32t32 -76q0 -43 -32 -74t-76 -31q-42 0 -74.5 31.5t-32.5 73.5z " />
<glyph unicode="&#x2c6;" horiz-adv-x="956" d="M199 1327l278 166l281 -166l-78 -127l-201 135l-203 -135z" />
<glyph unicode="&#x2dc;" horiz-adv-x="919" d="M166 1350q19 44 65 81t111 37q44 0 88.5 -24t82.5 -48t67 -24q52 0 96 60l80 -89q-19 -44 -65 -81t-111 -37q-44 0 -88.5 24t-82.5 48t-67 24q-52 0 -96 -59z" />
<glyph unicode="&#x2000;" horiz-adv-x="934" />
<glyph unicode="&#x2001;" horiz-adv-x="1868" />
<glyph unicode="&#x2002;" horiz-adv-x="934" />
<glyph unicode="&#x2003;" horiz-adv-x="1868" />
<glyph unicode="&#x2004;" horiz-adv-x="622" />
<glyph unicode="&#x2005;" horiz-adv-x="467" />
<glyph unicode="&#x2006;" horiz-adv-x="311" />
<glyph unicode="&#x2007;" horiz-adv-x="311" />
<glyph unicode="&#x2008;" horiz-adv-x="233" />
<glyph unicode="&#x2009;" horiz-adv-x="373" />
<glyph unicode="&#x200a;" horiz-adv-x="103" />
<glyph unicode="&#x2010;" horiz-adv-x="1003" d="M170 483v164h661v-164h-661z" />
<glyph unicode="&#x2011;" horiz-adv-x="1003" d="M170 483v164h661v-164h-661z" />
<glyph unicode="&#x2012;" horiz-adv-x="1003" d="M170 483v164h661v-164h-661z" />
<glyph unicode="&#x2013;" horiz-adv-x="1024" d="M0 483v164h1024v-164h-1024z" />
<glyph unicode="&#x2014;" horiz-adv-x="2048" d="M0 483v164h2048v-164h-2048z" />
<glyph unicode="&#x2018;" horiz-adv-x="495" d="M137 1034l133 465l129 -20l-80 -445h-182z" />
<glyph unicode="&#x2019;" horiz-adv-x="497" d="M141 1055l80 444h182l-135 -465z" />
<glyph unicode="&#x201a;" horiz-adv-x="524" d="M119 -240l80 445h182l-133 -465z" />
<glyph unicode="&#x201c;" horiz-adv-x="800" d="M135 1034l135 465l127 -20l-80 -445h-182zM438 1034l133 465l129 -20l-79 -445h-183z" />
<glyph unicode="&#x201d;" horiz-adv-x="800" d="M135 1055l80 444h182l-135 -465zM436 1055l82 444h180l-133 -465z" />
<glyph unicode="&#x201e;" horiz-adv-x="819" d="M119 -240l80 445h182l-133 -465zM416 -240l80 445h182l-135 -465z" />
<glyph unicode="&#x2022;" horiz-adv-x="989" d="M182 571q0 129 91.5 221.5t220.5 92.5t221 -92.5t92 -221.5t-92 -220t-221 -91t-220.5 91t-91.5 220z" />
<glyph unicode="&#x2026;" horiz-adv-x="1652" d="M139 98q0 50 35.5 83.5t85.5 33.5q49 0 85 -33.5t36 -83.5q0 -49 -36.5 -85t-84.5 -36q-50 0 -85.5 35.5t-35.5 85.5zM705 98q0 50 36 83.5t84 33.5q50 0 85.5 -33.5t35.5 -83.5t-36 -85.5t-85 -35.5q-48 0 -84 36t-36 85zM1274 98q0 50 35.5 83.5t85.5 33.5 q48 0 83 -33.5t35 -83.5q0 -49 -35.5 -85t-82.5 -36q-51 0 -86 35.5t-35 85.5z" />
<glyph unicode="&#x202f;" horiz-adv-x="373" />
<glyph unicode="&#x2039;" horiz-adv-x="675" d="M125 573l291 365l131 -102l-211 -263l211 -264l-131 -100z" />
<glyph unicode="&#x203a;" horiz-adv-x="679" d="M129 311l211 262l-211 265l131 100l291 -365l-291 -364z" />
<glyph unicode="&#x205f;" horiz-adv-x="467" />
<glyph unicode="&#x20ac;" horiz-adv-x="1083" d="M76 467v129h162v192h-162v130h162q3 229 138 361t349 132q139 0 297 -37l-33 -168q-147 35 -262 35q-134 0 -214 -86.5t-83 -236.5h416l-27 -130h-389v-192h356l-26 -129h-330q3 -150 83 -237t214 -87q115 0 262 35l33 -168q-158 -37 -297 -37q-214 0 -349 132t-138 362 h-162z" />
<glyph unicode="&#x2122;" horiz-adv-x="1574" d="M170 1262v120h494l-15 -120h-164v-494h-139v494h-176zM698 768l78 614h146l129 -352l131 352h145l78 -614h-135l-43 375l-111 -289h-129l-110 289l-46 -375h-133z" />
<glyph unicode="&#x25fc;" horiz-adv-x="1054" d="M0 0v1055h1055v-1055h-1055z" />
</font>
</defs>
</svg>
