<?xml version="1.0" standalone="no"?>
<!DOCTYPE svg PUBLIC "-//W3C//DTD SVG 1.1//EN" "http://www.w3.org/Graphics/SVG/1.1/DTD/svg11.dtd" >
<svg>
<metadata>
Created by FontForge 20090622 at Wed May 20 14:34:03 2015
 By deploy user
Copyright (C) 2005 Emigre Inc.; Designed by Xavier Dupre
</metadata>
<defs>
<font id="VistaSansBlack" horiz-adv-x="500" >
  <font-face 
    font-family="VistaSansBlack"
    font-weight="500"
    font-stretch="normal"
    units-per-em="1000"
    panose-1="2 0 6 3 4 0 0 2 0 4"
    ascent="800"
    descent="-200"
    x-height="522"
    cap-height="674"
    bbox="-112 -216 1162 850"
    underline-thickness="20"
    underline-position="-123"
    unicode-range="U+0020-U+FB02"
  />
<missing-glyph 
 />
    <glyph glyph-name=".notdef" 
 />
    <glyph glyph-name=".null" horiz-adv-x="0" 
 />
    <glyph glyph-name="nonmarkingreturn" 
 />
    <glyph glyph-name="space" unicode=" " horiz-adv-x="204" 
 />
    <glyph glyph-name="parenleft" unicode="(" horiz-adv-x="305" 
d="M301 -162q-12 -3 -29.5 -5t-37.5 -4t-39.5 -3t-36.5 -1q-64 100 -95.5 220t-31.5 241q0 124 31 233t97 215q30 0 67.5 -3.5t72.5 -11.5q-22 -41 -41.5 -92t-33.5 -107t-22 -114t-8 -114q0 -55 8.5 -118t23 -124.5t34 -116.5t41.5 -95z" />
    <glyph glyph-name="parenright" unicode=")" horiz-adv-x="305" 
d="M3 721q12 3 29.5 5t37.5 4t40 3t36 1q64 -100 95.5 -220t31.5 -241q0 -124 -31 -233t-97 -215q-30 0 -67.5 3.5t-72.5 11.5q23 41 42 92t33 107t22 114.5t8 113.5q0 56 -8.5 118.5t-23 124t-34 116.5t-41.5 95z" />
    <glyph glyph-name="asterisk" unicode="*" horiz-adv-x="458" 
d="M320 458l81 -79q-26 -26 -58 -50.5l-64 -47.5l-55 101l-51 -89q-37 17 -71.5 37.5t-63.5 41.5l87 86l-114 21q5 33 15 69.5t23 73.5l112 -54l-17 105q37 5 78.5 8t84.5 3l-20 -117l102 48q18 -35 32.5 -69.5t25.5 -66.5z" />
    <glyph glyph-name="plus" unicode="+" horiz-adv-x="499" 
d="M315 216v-171h-129v171h-153v116h153v168h129v-168h151v-116h-151z" />
    <glyph glyph-name="comma" unicode="," horiz-adv-x="261" 
d="M212 62q0 -59 -33.5 -116t-90.5 -119l-147 32q33 39 54.5 67.5t34 53t17.5 48t5 52.5v33h154q4 -14 5 -27.5t1 -23.5z" />
    <glyph glyph-name="hyphen" unicode="-" horiz-adv-x="250" 
d="M23 231v131h204v-131h-204z" />
    <glyph glyph-name="hyphen" unicode="&#xad;" horiz-adv-x="250" 
d="M23 231v131h204v-131h-204z" />
    <glyph glyph-name="period" unicode="." horiz-adv-x="261" 
d="M220 74q0 -44 -25.5 -64t-63.5 -20q-39 0 -64.5 20t-25.5 64q0 43 26 64.5t64 21.5t63.5 -21.5t25.5 -64.5z" />
    <glyph glyph-name="slash" unicode="/" horiz-adv-x="390" 
d="M77 -113q-30 6 -64 14.5t-63 22.5l302 761q15 0 33 -1.5t36.5 -3.5t36 -5.5t30.5 -6.5z" />
    <glyph glyph-name="zero" unicode="0" 
d="M481 273q0 -75 -16 -128.5t-46 -88t-73 -50.5t-96 -16q-51 0 -93.5 14t-73 47t-47.5 87t-17 135q0 77 17.5 131t48.5 87.5t73.5 48.5t91.5 15q53 0 95.5 -14.5t72.5 -47.5t46.5 -87t16.5 -133zM308 273q0 47 -4 75t-11.5 43t-18.5 20t-24 5t-23.5 -5t-18 -20t-11.5 -43
t-4 -75q0 -45 3.5 -73t10 -43.5t17.5 -21.5t26 -6t25.5 6.5t18 23t11 44t3.5 70.5z" />
    <glyph glyph-name="one" unicode="1" 
d="M48 0v149h161v244q-34 -3 -72.5 -8t-69.5 -8q-6 27 -10 63.5t-4 69.5l175 35h146v-396h114q0 -33 -3 -75t-9 -74h-428z" />
    <glyph glyph-name="two" unicode="2" 
d="M466 149q0 -31 -1.5 -72.5t-7.5 -76.5h-401l-9 123q61 41 102.5 73t67 58t37 48.5t11.5 44.5q0 57 -61 57q-12 0 -27 -2t-31.5 -6t-32.5 -9.5t-30 -13.5q-10 38 -18.5 77.5t-10.5 72.5q38 15 82 23.5t86 8.5q102 0 163 -46.5t61 -144.5q0 -57 -35.5 -109t-107.5 -106h163
v0z" />
    <glyph glyph-name="three" unicode="3" 
d="M470 70q0 -55 -22.5 -94.5t-59.5 -65t-84 -37.5t-96 -12q-19 0 -42.5 2t-47.5 6t-46.5 10t-41.5 14q5 38 12 75.5t19 77.5q34 -17 75.5 -26t73.5 -9q39 0 57 16t18 51q0 21 -5.5 34.5t-16 21t-25 10t-31.5 2.5h-109v148h99q44 0 58.5 14.5t14.5 45.5q0 51 -70 51
q-28 0 -62 -6.5t-69 -20.5q-8 37 -13.5 76t-7.5 75q49 15 93 20.5t86 5.5q45 0 85 -9.5t70.5 -31t48.5 -55t18 -81.5q0 -21 -5.5 -42t-17.5 -40.5t-30.5 -36t-44.5 -27.5v-8q56 -16 87.5 -55t31.5 -99z" />
    <glyph glyph-name="four" unicode="4" 
d="M482 166q0 -30 -3.5 -69.5t-9.5 -73.5h-43v-152h-168v152h-237v150q42 95 97 194.5t110 187.5q34 -3 75 -10.5t71 -18.5l-198 -367h90v128h160v-121h56v0z" />
    <glyph glyph-name="five" unicode="5" 
d="M466 90q0 -51 -19.5 -93.5t-54 -72.5t-81 -46.5t-100.5 -16.5q-35 0 -78.5 7t-85.5 22q5 32 12.5 72t17.5 79q35 -14 72.5 -21.5t69.5 -7.5q35 0 53 19t18 53q0 37 -20.5 53.5t-68.5 16.5q-13 0 -32.5 -0.5t-39.5 -2t-39 -2.5t-33 -3q2 103 11 208t21 191h364
q0 -35 -3 -74.5t-8 -74.5h-211q-2 -27 -4 -50.5t-5 -51.5q47 -1 91 -11t78 -33.5t54.5 -62.5t20.5 -97z" />
    <glyph glyph-name="six" unicode="6" 
d="M476 232q0 -59 -16 -104t-46 -76t-72 -46.5t-94 -15.5q-53 0 -95 15.5t-71 51.5t-44.5 96t-15.5 149q0 99 18.5 171t54 119t86 69.5t114.5 22.5q14 0 33 -1t39 -3.5t39 -5.5t33 -7q-3 -33 -8.5 -74t-13.5 -79q-29 8 -63.5 13.5t-58.5 5.5q-19 0 -36 -5.5t-30.5 -19.5
t-22.5 -39.5t-12 -66.5h8q20 22 44 30.5t54 8.5q38 0 70.5 -11t56 -36t36.5 -65t13 -97zM312 228q0 52 -17 70.5t-46 18.5t-44 -22t-15 -72q0 -29 4 -48t11.5 -29.5t18.5 -14.5t24 -4q32 0 48 23.5t16 77.5z" />
    <glyph glyph-name="seven" unicode="7" 
d="M471 412l-58.5 -131l-66 -140l-72 -142l-76.5 -138q-18 1 -39.5 3.5t-44 6t-43.5 7.5t-39 10l255 508h-244q-4 37 -5.5 75t-1.5 74h435v-133z" />
    <glyph glyph-name="eight" unicode="8" 
d="M480 194q0 -95 -60 -149.5t-178 -54.5q-50 0 -91 11.5t-70 34.5t-45 59.5t-16 85.5q0 48 22 90t75 74q-43 26 -65.5 65t-22.5 85t16 81t45.5 59t70.5 36.5t90 12.5q103 0 161.5 -44.5t58.5 -132.5q0 -48 -24.5 -83t-69.5 -60q48 -32 75.5 -72.5t27.5 -97.5zM307 202
q0 68 -67 92q-24 -11 -36.5 -36.5t-12.5 -57.5q0 -38 12.5 -56t44.5 -18t45.5 19.5t13.5 56.5zM300 493q0 31 -14 44t-38 13q-23 0 -37 -13t-14 -42q0 -61 57 -83q20 10 33 33t13 48z" />
    <glyph glyph-name="nine" unicode="9" 
d="M476 243q0 -99 -18.5 -171t-54 -119t-86 -69.5t-114.5 -22.5q-14 0 -33 1t-39 3.5t-39 5.5t-33 7q3 33 8.5 74t13.5 79q29 -8 63.5 -13.5t58.5 -5.5q20 0 36.5 5.5t30 19.5t22.5 40t12 66h-8q-20 -22 -44 -30.5t-54 -8.5q-38 0 -70.5 11t-56 36t-36.5 65t-13 97
q0 59 16 104t46 76t72 46.5t94 15.5q53 0 95 -15.5t71 -51.5t44.5 -96t15.5 -149zM308 322q0 29 -4 48t-11.5 29.5t-18 14.5t-24.5 4q-32 0 -48 -23.5t-16 -77.5q0 -52 17 -70.5t46 -18.5t44 22t15 72z" />
    <glyph glyph-name="colon" unicode=":" horiz-adv-x="261" 
d="M220 74q0 -44 -25.5 -64t-63.5 -20q-39 0 -64.5 20t-25.5 64q0 43 26 64.5t64 21.5t63.5 -21.5t25.5 -64.5zM220 402q0 -44 -25.5 -64t-63.5 -20q-39 0 -64.5 20t-25.5 64q0 43 26 64.5t64 21.5t63.5 -21.5t25.5 -64.5z" />
    <glyph glyph-name="semicolon" unicode=";" horiz-adv-x="261" 
d="M220 402q0 -44 -25.5 -64t-63.5 -20q-39 0 -64.5 20t-25.5 64q0 43 26 64.5t64 21.5t63.5 -21.5t25.5 -64.5zM212 62q0 -59 -33.5 -116t-90.5 -119l-147 32q33 39 54.5 67.5t34 53t17.5 48t5 52.5v33h154q4 -14 5 -27.5t1 -23.5z" />
    <glyph glyph-name="less" unicode="&#x3c;" horiz-adv-x="434" 
d="M234 45l-202 229l202 226h150v-15l-193 -209l193 -216v-15h-150z" />
    <glyph glyph-name="equal" unicode="=" horiz-adv-x="497" 
d="M49 323v115h399v-115h-399zM49 104v115h399v-115h-399z" />
    <glyph glyph-name="greater" unicode="&#x3e;" horiz-adv-x="434" 
d="M200 45h-150v15l193 209l-193 216v15h150l202 -229z" />
    <glyph glyph-name="question" unicode="?" horiz-adv-x="404" 
d="M380 489q0 -67 -43 -116.5t-126 -84.5v-80q-37 -7 -75 -10.5t-71 -5.5q-8 45 -13.5 88t-5.5 88q81 20 125 49t44 64t-17.5 47.5t-62.5 12.5q-9 0 -22.5 -0.5t-29 -2t-31 -2.5t-26.5 -3q-5 34 -8 70t-3 71q31 6 67 8t68 2q48 0 90 -12t73 -36t49 -60.5t18 -86.5zM226 74
q0 -44 -25.5 -64t-63.5 -20q-39 0 -64.5 20t-25.5 64q0 43 26 64.5t64 21.5t63.5 -21.5t25.5 -64.5z" />
    <glyph glyph-name="at" unicode="@" horiz-adv-x="830" 
d="M785 353q0 -121 -45.5 -190.5t-134.5 -69.5q-42 0 -69 10.5t-48 32.5h-4q-26 -23 -54.5 -33.5t-64.5 -10.5q-65 0 -100.5 32t-35.5 100q0 70 39 97.5t115 31.5l65 3v47q-12 4 -28 5.5t-31 1.5q-23 0 -50.5 -4.5t-50.5 -13.5q-7 27 -11.5 60t-4.5 59q33 9 65 13.5t67 4.5
q51 0 98 -10t87 -38v-259q0 -18 6.5 -24t21.5 -6q12 0 21 8t15 26.5t9.5 49t3.5 75.5q0 116 -65.5 173t-176.5 57q-125 0 -192.5 -72t-67.5 -204q0 -63 14 -113t43 -85t75 -53.5t109 -18.5q14 0 33 2.5t38.5 6.5t38 9.5t33.5 11.5q8 -28 13 -58.5t5 -50.5q-38 -12 -81 -19
t-85 -7q-88 0 -154.5 26.5t-111 75.5t-67 118t-22.5 154q0 95 30 166t82 118.5t122 71.5t150 24t145.5 -22.5t112 -65.5t72.5 -104t26 -139zM448 270l-49 -2q-18 -1 -25.5 -10.5t-7.5 -30.5q0 -37 32 -37q12 0 25.5 3.5t24.5 9.5v67z" />
    <glyph glyph-name="A" unicode="A" horiz-adv-x="597" 
d="M593 10q-35 -8 -81.5 -11.5t-91.5 -3.5l-41 161h-167l-40 -161q-42 0 -86 3.5t-82 11.5q41 170 89.5 333.5t104.5 330.5h204q55 -169 104 -340.5t87 -323.5zM309 430q-5 17 -6.5 34.5t-2.5 36.5h-12q-1 -19 -2.5 -36.5t-6.5 -34.5l-32 -132h96z" />
    <glyph glyph-name="B" unicode="B" horiz-adv-x="611" 
d="M563 195q0 -55 -20 -94t-54.5 -63.5t-80 -35.5t-95.5 -11q-48 0 -110 4t-128 12v658q24 3 53.5 6t60.5 5.5t61.5 3.5t57.5 1q52 0 94.5 -10t73 -32t47 -56.5t16.5 -82.5q0 -49 -23.5 -86t-60.5 -56v-10q54 -17 81 -57t27 -96zM380 205q0 38 -17.5 55.5t-47.5 17.5h-66
v-151q15 -1 33 -1h30q34 0 51 18t17 61zM365 482q0 35 -15.5 50.5t-45.5 15.5h-26q-11 0 -29 -1v-138h62q25 0 39.5 16t14.5 57z" />
    <glyph glyph-name="C" unicode="C" horiz-adv-x="591" 
d="M554 40q-19 -11 -44 -20.5t-52.5 -16t-54.5 -10t-50 -3.5q-152 0 -230 88t-78 260q0 90 23 155.5t63.5 108t95 62.5t117.5 20q24 0 51.5 -2.5t54 -7.5t50 -12t39.5 -15q0 -15 -2 -35.5t-6 -42.5t-9 -43t-10 -38q-42 20 -83.5 31t-76.5 11q-25 0 -46.5 -8t-37.5 -29
t-25 -58t-9 -96q0 -56 7.5 -93.5t23 -60t38.5 -32t54 -9.5q39 0 84.5 16.5t81.5 40.5q5 -16 9.5 -36.5l9 -42.5t8 -43.5t4.5 -38.5z" />
    <glyph glyph-name="D" unicode="D" horiz-adv-x="676" 
d="M631 351q0 -86 -23 -153t-64.5 -113t-99 -70t-126.5 -24q-28 0 -60.5 1t-65.5 3t-63 5t-54 7v658q24 3 56 6t66 5.5t66 3.5t54 1q63 0 120 -18.5t100 -58.5t68.5 -102.5t25.5 -150.5zM442 339q0 59 -9.5 96.5t-27 59.5t-41 30t-50.5 8h-33q-15 0 -30 -1v-388q14 -1 32 -1
h30q33 0 57 8.5t40 31t24 60.5t8 96z" />
    <glyph glyph-name="E" unicode="E" horiz-adv-x="546" 
d="M507 148q0 -32 -3.5 -72.5t-8.5 -75.5h-420v674h416q0 -32 -3.5 -73.5t-8.5 -75.5h-226v-108h166v-147h-166v-122h254v0z" />
    <glyph glyph-name="F" unicode="F" horiz-adv-x="527" 
d="M492 674q0 -27 -3 -68.5t-9 -80.5h-227v-129h190v-148h-190v-248h-178v674h417v0z" />
    <glyph glyph-name="G" unicode="G" horiz-adv-x="640" 
d="M580 41q-20 -11 -47 -20.5t-57.5 -16t-64 -10.5t-65.5 -4q-149 0 -225 90t-76 258q0 91 23.5 156.5t65 107.5t98.5 62t123 20q26 0 54 -2.5t56.5 -7.5t55 -12t47.5 -16q-2 -35 -11.5 -79t-21.5 -82q-40 20 -85 32.5t-85 12.5q-30 0 -54 -7.5t-41.5 -29t-26.5 -59.5
t-9 -100q0 -103 29 -148.5t84 -45.5q15 0 31.5 1.5t28.5 3.5v93h-82q-5 34 -8.5 72t-3.5 74h267v-343v0z" />
    <glyph glyph-name="H" unicode="H" horiz-adv-x="691" 
d="M438 0v273h-185v-273h-178v674h178v-250h185v250h178v-674h-178z" />
    <glyph glyph-name="I" unicode="I" horiz-adv-x="328" 
d="M75 0v674h178v-674h-178z" />
    <glyph glyph-name="J" unicode="J" horiz-adv-x="321" 
d="M248 105q0 -49 -11.5 -93.5t-39 -80t-74 -59.5t-116.5 -31q-12 32 -19 72.5t-9 78.5q25 3 42.5 8.5t28.5 15.5t16 25.5t5 38.5v594h177v-569v0z" />
    <glyph glyph-name="K" unicode="K" horiz-adv-x="623" 
d="M627 9q-17 -3 -40.5 -6t-49 -5t-50 -3.5t-44.5 -1.5l-143 272l-53 -67v-198h-172v674h172v-243h8l178 249q17 0 41 -1t49.5 -3.5t50 -5.5t42.5 -7l-206 -265l55 -90l56.5 -98.5l55 -101.5z" />
    <glyph glyph-name="L" unicode="L" horiz-adv-x="517" 
d="M487 153q0 -35 -3 -77.5t-8 -75.5h-401v674h178v-521h234v0z" />
    <glyph glyph-name="M" unicode="M" horiz-adv-x="874" 
d="M814 10q-16 -3 -36.5 -5.5t-43 -4.5t-45 -3t-41.5 -1l-20 332q0 8 -0.5 19l-1 22t-0.5 20v15h-12q-1 -20 -4 -41t-7 -35l-87 -328h-163l-91 328q-5 16 -7.5 37t-3.5 39h-12v-15t-0.5 -21.5l-1 -22t-0.5 -17.5l-25 -332q-19 0 -39.5 1t-40.5 2.5t-38.5 4t-33.5 5.5
q11 163 26 331.5t34 333.5h192l110 -383q5 -14 8.5 -37t6.5 -49h12q2 26 5 49t7 38l100 382h195q18 -165 32.5 -333.5t25.5 -330.5z" />
    <glyph glyph-name="N" unicode="N" horiz-adv-x="693" 
d="M618 8q-16 -3 -37.5 -5.5t-44 -4t-43.5 -2.5t-37 -1l-187 347q-7 13 -13.5 32.5t-11.5 38.5l-12 -2q2 -15 3 -36t1 -38v-337h-161v665q20 3 43.5 5t47.5 3.5t46.5 2.5t40.5 1l171 -317q7 -13 13.5 -31.5t11.5 -39.5l12 2q-2 20 -3 38.5t-1 35.5v309h161v-666v0z" />
    <glyph glyph-name="O" unicode="O" horiz-adv-x="685" 
d="M640 337q0 -87 -22 -152.5t-61.5 -108.5t-94 -64.5t-119.5 -21.5q-67 0 -122 20.5t-94 62.5t-60.5 107t-21.5 154q0 87 21.5 152.5t61 109.5t94.5 66t121 22q68 0 123 -20.5t93.5 -63t59.5 -108t21 -155.5zM452 337q0 59 -7.5 98t-21.5 62t-34.5 32.5t-46.5 9.5
q-27 0 -47.5 -9.5t-34 -32.5t-20.5 -62t-7 -98q0 -57 6.5 -95.5t20 -62t34.5 -34t49 -10.5q29 0 49.5 10t33.5 33.5t19.5 62t6.5 96.5z" />
    <glyph glyph-name="P" unicode="P" horiz-adv-x="584" 
d="M544 452q0 -67 -20.5 -114t-54.5 -77t-78 -43.5t-91 -13.5h-49v-204h-176v665q57 7 115 11.5t116 4.5q54 0 97.5 -14.5t75 -43.5t48.5 -71.5t17 -99.5zM368 452q0 50 -18.5 71t-51.5 21h-27q-10 0 -20 -1v-199h38q40 0 59.5 24t19.5 84z" />
    <glyph glyph-name="Q" unicode="Q" horiz-adv-x="685" 
d="M640 337q0 -143 -57 -225t-153 -107q2 -33 17.5 -48t41.5 -15q10 0 23.5 2t28.5 5.5t29 7.5t25 9q8 -32 13 -70.5t7 -75.5q-18 -6 -38 -10t-39 -7t-36.5 -4.5t-29.5 -1.5q-41 0 -78 12.5t-65 38t-45 63.5t-19 89q-105 24 -162.5 104.5t-57.5 229.5q0 86 21.5 151.5
t60.5 109.5t94 66.5t122 22.5t122 -20t94 -62.5t60 -108t21 -156.5zM452 336q0 60 -7.5 99t-21.5 62t-34.5 32.5t-46.5 9.5q-28 0 -48.5 -9.5t-34 -32.5t-20 -62.5t-6.5 -98.5q0 -55 6.5 -93.5t20 -62.5t34 -34.5t49.5 -10.5t49.5 10t33.5 33.5t19.5 62t6.5 95.5z" />
    <glyph glyph-name="R" unicode="R" horiz-adv-x="618" 
d="M603 10q-18 -4 -41 -7t-48 -5.5t-50 -3.5t-46 -1l-47 106q-23 51 -45 89t-39 60h-38v-248h-174v665q74 8 131.5 12t107.5 4q48 0 91.5 -11.5t75.5 -36t51 -63.5t19 -94q0 -31 -9 -58.5t-24 -50t-35.5 -39.5t-43.5 -28q52 -55 88 -130l76 -160v0zM372 465q0 42 -17 59.5
t-50 17.5h-31q-11 0 -25 -1v-163h44q34 0 56.5 18t22.5 69z" />
    <glyph glyph-name="S" unicode="S" horiz-adv-x="541" 
d="M496 204q0 -54 -19 -94t-53.5 -67t-82 -40t-103.5 -13q-44 0 -95.5 7.5t-100.5 28.5q5 35 14.5 74t20.5 73q44 -18 92.5 -29t86.5 -11q30 0 44.5 16t14.5 39q0 25 -20 42t-50 32l-64.5 31t-64.5 40t-50 58.5t-20 85.5t20.5 89.5t56.5 64.5t85 39.5t106 13.5
q32 0 71.5 -4.5t83.5 -16.5q-2 -34 -6.5 -72.5t-12.5 -73.5q-21 5 -44 9.5t-45 7.5t-41.5 4.5t-33.5 1.5q-32 0 -45 -15.5t-13 -35.5q0 -24 20 -41t49.5 -32.5l64.5 -32.5t64.5 -40.5t49.5 -56.5t20 -82z" />
    <glyph glyph-name="T" unicode="T" horiz-adv-x="508" 
d="M493 674q0 -15 -1 -33.5t-3 -39l-4 -40t-5 -36.5h-137v-525h-178v525h-145v149h473v0z" />
    <glyph glyph-name="U" unicode="U" horiz-adv-x="679" 
d="M609 281q0 -139 -64.5 -215t-205.5 -76q-63 0 -112.5 14.5t-84.5 48.5t-53.5 90t-18.5 138v393h178v-413q0 -34 4.5 -56.5t15.5 -35.5t28.5 -18.5t44.5 -5.5q51 0 74 25t23 91v413h171v-393v0z" />
    <glyph glyph-name="V" unicode="V" horiz-adv-x="589" 
d="M582 667q-43 -167 -92.5 -336t-103.5 -331h-189q-53 161 -101 330t-89 334q20 4 44.5 6.5t48.5 4.5t46 3t38 1l96 -392q4 -15 7 -40t4 -48h12q1 24 4.5 49t6.5 39l97 392q17 0 40.5 -0.5t48.5 -2t47 -4t35 -5.5z" />
    <glyph glyph-name="W" unicode="W" horiz-adv-x="930" 
d="M880 664q-25 -164 -57.5 -332t-68.5 -332h-183l-94 363q-8 30 -11 79h-12q-2 -23 -4.5 -43t-6.5 -37l-87 -362h-184q-37 162 -68 327t-54 337q43 8 87.5 11.5t80.5 3.5l53 -358q4 -26 5.5 -45.5t2.5 -40.5h12q2 19 6 43t8 41l84 355h161l84 -353q5 -20 9 -43t6 -43h12
q1 21 3 45t4 39l55 360q18 0 39.5 -1t43 -3.5t41 -5t33.5 -5.5z" />
    <glyph glyph-name="X" unicode="X" horiz-adv-x="646" 
d="M629 10q-21 -4 -47.5 -7t-54.5 -5t-53.5 -3t-44.5 -1l-92 184q-13 26 -20 55h-10q-4 -16 -7.5 -28.5t-10.5 -26.5l-84 -184q-18 0 -42.5 1t-50.5 3.5t-51.5 5.5t-43.5 7l184 336l-174 316q20 3 46.5 6t54.5 5t54 3t44 1l82 -172q6 -12 10 -24l9 -28h10q4 16 8 28.5
t10 26.5l78 169q16 0 39.5 -1t50 -3t52 -5t45.5 -7l-175 -312l184 -340v0z" />
    <glyph glyph-name="Y" unicode="Y" horiz-adv-x="576" 
d="M566 664q-40 -107 -87 -212t-100 -208v-244h-178v243q-54 101 -100 202t-91 219q20 4 45 6.5t50.5 4.5t49 3t39.5 1l78 -211q5 -14 10 -32.5t9 -36.5h12q4 19 8.5 37.5t9.5 33.5l76 209q18 0 40.5 -1t46 -3.5l45 -5t37.5 -5.5z" />
    <glyph glyph-name="Z" unicode="Z" horiz-adv-x="564" 
d="M527 149q0 -15 -0.5 -33.5t-2 -39t-3.5 -40t-5 -36.5h-469l-9 126l275 399h-251q-4 38 -6 73.5t-2 75.5h460l9 -126l-275 -399h279v0z" />
    <glyph glyph-name="bracketleft" unicode="[" horiz-adv-x="338" 
d="M60 -175v910h255q0 -33 -2.5 -66t-7.5 -68h-87v-643h87q5 -34 7.5 -67.5t2.5 -65.5h-255z" />
    <glyph glyph-name="backslash" unicode="\" horiz-adv-x="390" 
d="M428 -76q-31 -14 -64.5 -22.5t-62.5 -14.5l-312 781l31 6.5t36 5.5t37 3.5t33 1.5l302 -761v0z" />
    <glyph glyph-name="bracketright" unicode="]" horiz-adv-x="338" 
d="M12 -175q0 32 2.5 65.5t7.5 67.5h87v643h-87q-5 35 -7.5 68t-2.5 66h255v-910h-255z" />
    <glyph glyph-name="asciicircum" unicode="^" horiz-adv-x="492" 
d="M454 367q-28 -4 -69.5 -7t-80.5 -3l-56 223l-56 -223q-37 0 -76.5 2.5t-77.5 6.5q9 36 22.5 79.5l27.5 86t28.5 80.5t24.5 62h215l22 -61.5l27 -80.5l27 -86.5t22 -78.5z" />
    <glyph glyph-name="underscore" unicode="_" horiz-adv-x="475" 
d="M0 -139v117h491q0 -30 -4 -61t-11 -56h-476z" />
    <glyph glyph-name="grave" unicode="`" 
d="M348 582q-12 -2 -28.5 -4t-34.5 -3.5t-37 -2.5t-35 -1q-28 31 -53.5 75t-38.5 85h178l49 -149v0z" />
    <glyph glyph-name="a" unicode="a" horiz-adv-x="536" 
d="M536 89q0 -48 -26 -73.5t-81 -25.5q-33 0 -58.5 10.5t-43.5 43.5h-7q-60 -54 -136 -54q-73 0 -115.5 38t-42.5 120q0 44 12.5 72.5t37 46t60.5 25.5t83 10l74 3v64q-16 8 -37 11t-43 3q-29 0 -60.5 -5t-60.5 -19q-4 15 -8.5 34t-7.5 39.5t-5 40t-2 35.5q39 13 79.5 18.5
t74.5 5.5q30 0 61 -3.5t61 -11t57 -19.5t49 -29v-301q0 -22 22 -22h63v-57v0zM293 212l-58 -3q-24 -2 -34.5 -13t-10.5 -40q0 -28 9.5 -39.5t30.5 -11.5q16 0 33.5 4t29.5 12v91z" />
    <glyph glyph-name="b" unicode="b" horiz-adv-x="579" 
d="M539 281q0 -68 -16.5 -122t-48.5 -91.5t-77.5 -57.5t-104.5 -20q-63 0 -122 17.5t-105 53.5v671q35 5 79.5 8.5t85.5 3.5v-267h8q26 29 55 42t62 13q39 0 72.5 -13.5t58 -43.5t39 -77.5t14.5 -116.5zM365 270q0 37 -4.5 61t-13 38t-21.5 19.5t-30 5.5q-38 0 -66 -22v-231
q12 -7 26 -9t28 -2q45 0 63 30.5t18 109.5z" />
    <glyph glyph-name="c" unicode="c" horiz-adv-x="474" 
d="M439 21q-11 -6 -28.5 -11.5t-37 -10t-39.5 -7t-36 -2.5q-122 0 -190 64t-68 198q0 74 20 127t53.5 87t77.5 50t93 16q38 0 76 -6t73 -19q-2 -14 -5.5 -33t-8.5 -39.5t-10.5 -40.5t-11.5 -35q-62 25 -104 25q-40 0 -59 -25.5t-19 -94.5q0 -39 5 -63.5t15.5 -38.5t27.5 -19
t41 -5q22 0 48.5 9t52.5 23q5 -16 10.5 -35.5t10 -39.5t8 -39.5t5.5 -34.5z" />
    <glyph glyph-name="d" unicode="d" horiz-adv-x="578" 
d="M348 0v44h-8q-30 -35 -57.5 -44.5t-56.5 -9.5q-89 0 -137.5 64t-48.5 193q0 139 60 212t169 73q16 0 39 -3t40 -7v210q35 5 79.5 8.5t85.5 3.5v-744h-165zM348 383q-11 5 -26 8.5t-30 3.5q-21 0 -36 -6.5t-24 -22t-13.5 -42t-4.5 -65.5t3.5 -64.5t12 -40t21.5 -20.5
t31 -6q22 0 38 3.5t28 9.5v242z" />
    <glyph glyph-name="e" unicode="e" horiz-adv-x="537" 
d="M497 302q0 -18 -1 -41.5t-3 -45.5h-275v-8q0 -41 21.5 -56t69.5 -15q31 0 66 8.5t81 31.5q12 -35 21.5 -75.5t14.5 -72.5q-57 -23 -103.5 -30.5t-81.5 -7.5q-129 0 -198 67t-69 200q0 70 18 121.5t50 85.5t75.5 51t93.5 17q58 0 99.5 -16t68.5 -46t39.5 -72.5t12.5 -95.5
zM278 417q-26 0 -42.5 -23t-16.5 -82h111q1 7 1 13v13q0 79 -53 79z" />
    <glyph glyph-name="f" unicode="f" horiz-adv-x="379" 
d="M363 737q0 -29 -2 -66.5t-7 -74.5l-17.5 2.5t-20.5 2.5t-19 1.5t-13 0.5q-18 0 -24 -10t-6 -31v-40h108q0 -76 -9 -139h-99v-383h-165v383h-57v139h57v29q0 45 15 80.5t40.5 60.5t60.5 38.5t75 13.5q8 0 19 -0.5t23 -1.5l23 -2t18 -3z" />
    <glyph glyph-name="g" unicode="g" horiz-adv-x="534" 
d="M512 -25q0 -43 -15 -78t-45.5 -60t-77 -39t-110.5 -14q-63 0 -106.5 11t-70.5 30.5t-39 47t-12 59.5q0 25 11 47.5t40 42.5q-9 14 -20.5 36.5t-17.5 39.5q2 14 7 31.5t12 35.5t15.5 35.5t18.5 32.5q-25 21 -39 50.5t-14 68.5q0 81 50 130.5t147 49.5q24 0 47.5 -2.5
t42.5 -7.5h173q0 -29 -2 -59t-7 -56l-47 -5l-1 -8q10 -22 10 -47q0 -86 -52 -125.5t-138 -39.5q-14 0 -31.5 1t-32.5 6q-10 -21 -10 -37q0 -24 20 -24h126q38 0 69 -7t53 -24t34 -47t12 -75zM359 -34q0 15 -5.5 19.5t-17.5 4.5h-147q-2 -5 -3 -12t-1 -12q0 -16 3.5 -26
t13 -15.5t26 -7.5t41.5 -2q49 0 69.5 11t20.5 40zM311 358q0 35 -13.5 47.5t-39.5 12.5t-39 -12.5t-13 -47.5t12 -49t40 -14q27 0 40 14t13 49z" />
    <glyph glyph-name="h" unicode="h" horiz-adv-x="579" 
d="M352 0v340q0 10 -1.5 18.5t-6.5 14.5t-15.5 9.5t-27.5 3.5t-35.5 -4.5t-35.5 -13.5v-368h-165v732q35 5 79.5 8.5t85.5 3.5v-271h8q16 15 30.5 26t30.5 18.5t34.5 11t40.5 3.5q69 0 106 -41t37 -122v-369h-165z" />
    <glyph glyph-name="i" unicode="i" horiz-adv-x="295" 
d="M65 0v522h165v-522h-165zM238 656q0 -35 -22.5 -60.5t-68.5 -25.5q-45 0 -67.5 26t-22.5 60q0 33 22.5 60.5t68.5 27.5t68 -27t22 -61z" />
    <glyph glyph-name="j" unicode="j" horiz-adv-x="301" 
d="M237 10q0 -54 -16 -95t-44.5 -68.5t-69 -43t-89.5 -19.5q-11 29 -20 69t-14 73q48 0 68 20t20 57v519h165v-512v0zM244 656q0 -35 -22.5 -60.5t-68.5 -25.5q-45 0 -67.5 26t-22.5 60q0 33 22.5 60.5t68.5 27.5t68 -27t22 -61z" />
    <glyph glyph-name="k" unicode="k" horiz-adv-x="544" 
d="M541 5q-12 -2 -34 -4t-47 -3.5t-49 -2t-41 -0.5l-96 206l-44 -52v-149h-165v732q35 5 79.5 8.5t85.5 3.5v-377h8l139 168q19 -2 41 -5t44 -6.5t41.5 -7.5t34.5 -9l-157 -183q41 -72 81 -152.5z" />
    <glyph glyph-name="l" unicode="l" horiz-adv-x="295" 
d="M65 0v732q35 5 79.5 8.5t85.5 3.5v-744h-165z" />
    <glyph glyph-name="m" unicode="m" horiz-adv-x="829" 
d="M602 0v341q0 21 -8 33t-34 12q-17 0 -33 -4.5t-29 -13.5v-368h-165v340q0 23 -7.5 34.5t-30.5 11.5q-15 0 -32 -4.5t-33 -13.5v-368h-165v515q35 5 80 7.5t85 2.5v-52h8q35 32 65.5 45.5t70.5 13.5t65.5 -14t42.5 -40q34 29 69 41.5t73 12.5q64 0 103.5 -39t39.5 -124
v-369h-165z" />
    <glyph glyph-name="n" unicode="n" horiz-adv-x="579" 
d="M352 0v340q0 24 -10 35t-41 11q-17 0 -35.5 -4.5t-35.5 -13.5v-368h-165v515q35 5 80 7.5t85 2.5v-52h8q37 35 68 47t68 12q31 0 57 -9t45 -28.5t30 -50.5t11 -75v-369h-165z" />
    <glyph glyph-name="o" unicode="o" horiz-adv-x="577" 
d="M537 261q0 -66 -19.5 -117t-53 -85t-79 -51.5t-98.5 -17.5q-55 0 -100.5 16t-78 49t-50.5 84t-18 122q0 64 18.5 114t51.5 85t78.5 53.5t100.5 18.5q53 0 98.5 -15t78.5 -47.5t52 -84t19 -124.5zM363 261q0 41 -4.5 67t-14 42t-23.5 22t-32 6t-31.5 -6t-23 -22t-14 -42
t-4.5 -67t4 -67.5t12.5 -42t22 -21.5t32.5 -6t33 6t23.5 21.5t14.5 42t5 67.5z" />
    <glyph glyph-name="p" unicode="p" horiz-adv-x="579" 
d="M539 281q0 -73 -18.5 -128t-51 -91t-75.5 -54t-93 -18q-14 0 -32 2.5t-39 7.5v-206h-165v721q35 5 80 7.5t85 2.5v-48h8q28 31 56.5 43t60.5 12q83 0 133.5 -60.5t50.5 -190.5zM365 270q0 38 -4.5 62.5t-13.5 38t-22 18.5t-29 5q-20 0 -36.5 -6t-29.5 -16v-231
q11 -7 25.5 -9t28.5 -2q44 0 62.5 30t18.5 110z" />
    <glyph glyph-name="q" unicode="q" horiz-adv-x="578" 
d="M348 -206v250h-8q-28 -32 -55 -43t-59 -11q-40 0 -74 14t-59 44.5t-39 79.5t-14 118q0 144 65.5 215t181.5 71q55 0 115 -11.5t111 -31.5v-695h-165zM348 388q-12 3 -26 5t-25 2q-45 0 -64 -30t-19 -108q0 -40 4 -65t12.5 -39.5t21 -19.5t29.5 -5t34.5 2.5t32.5 10.5v247
z" />
    <glyph glyph-name="r" unicode="r" horiz-adv-x="402" 
d="M387 526q0 -36 -4 -80.5t-9 -84.5q-32 8 -63 8q-42 0 -81 -17v-352h-165v515q35 5 80 7.5t85 2.5v-67h8q17 24 31.5 38.5t27.5 22.5t24.5 10.5t23.5 2.5q10 0 21.5 -1.5t20.5 -4.5z" />
    <glyph glyph-name="s" unicode="s" horiz-adv-x="469" 
d="M433 165q0 -44 -16 -77t-45 -54.5t-69 -32.5t-87 -11q-52 0 -98.5 10.5t-84.5 33.5q6 34 16.5 72.5t22.5 70.5q19 -10 40.5 -18.5t43.5 -14.5t42.5 -9.5t36.5 -3.5q28 0 28 27q0 13 -16.5 20t-41.5 14t-53.5 16.5t-53.5 26.5t-41.5 45t-16.5 72q0 46 19 80t51.5 56t74 33
t86.5 11q27 0 67 -4.5t77 -15.5q-2 -32 -7.5 -70.5t-13.5 -70.5q-18 5 -38.5 9.5t-41.5 8t-40 5.5t-34 2q-29 0 -29 -28q0 -13 16.5 -20t41 -14.5l53.5 -17t53.5 -28t41 -48t16.5 -75.5z" />
    <glyph glyph-name="t" unicode="t" horiz-adv-x="413" 
d="M397 16q-10 -5 -27.5 -10t-36 -8.5t-36 -5.5t-29.5 -2q-99 0 -145.5 47t-46.5 146v200h-57v139h57v101q33 8 76.5 15t88.5 11v-127h131q0 -35 -1.5 -70t-5.5 -69h-124v-203q0 -28 11.5 -35t35.5 -7q16 0 41.5 8t44.5 18q8 -32 14 -72.5t9 -75.5z" />
    <glyph glyph-name="u" unicode="u" horiz-adv-x="579" 
d="M349 0v45h-8q-31 -27 -62.5 -41t-73.5 -14q-65 0 -104 38.5t-39 124.5v363q36 5 80 7.5t85 2.5v-344q0 -26 10.5 -36t40.5 -10q14 0 34 4.5t37 13.5v362q37 5 80.5 7.5t84.5 2.5v-526h-165z" />
    <glyph glyph-name="v" unicode="v" horiz-adv-x="513" 
d="M508 515q-33 -133 -75.5 -258t-93.5 -257h-169q-46 118 -88 246t-77 269q35 5 80.5 7.5t84.5 2.5l75 -269q4 -12 7 -31.5t5 -39.5h8q2 20 4.5 39t6.5 33l75 268q17 0 38.5 -0.5t43.5 -2t42 -3.5t33 -4z" />
    <glyph glyph-name="w" unicode="w" horiz-adv-x="778" 
d="M751 514q-17 -119 -45.5 -245.5t-69.5 -268.5h-158l-76 250q-4 11 -6.5 29.5l-4.5 34.5h-8q-2 -16 -5.5 -34t-7.5 -30l-74 -250h-159q-38 130 -65 256t-45 259q36 5 80.5 7.5t82.5 2.5l35 -242q2 -13 4.5 -32t4.5 -37h8q2 20 6 38t8 32l62 238h155l62 -239q3 -13 7 -33
t6 -36h8q2 20 5 38t5 32l34 241q17 0 37.5 -1t41 -2.5t40 -3.5t32.5 -4z" />
    <glyph glyph-name="x" unicode="x" horiz-adv-x="544" 
d="M541 7q-18 -2 -41.5 -4t-49 -3.5t-51 -2.5t-47.5 -1l-64 129q-5 9 -9.5 20.5t-7.5 22.5h-8q-8 -24 -19 -43l-66 -129q-41 0 -87 3.5t-88 8.5l153 271l-144 235q53 6 99.5 8.5t88.5 2.5l65 -128q3 -6 6.5 -17.5t5.5 -19.5h8q2 8 6 19.5t7 17.5l65 128q42 0 85.5 -2.5
t89.5 -8.5l-148 -237l151 -270v0z" />
    <glyph glyph-name="y" unicode="y" horiz-adv-x="524" 
d="M360 36q-23 -71 -50.5 -119t-59 -77.5t-66.5 -42.5t-73 -13q-20 0 -53.5 4.5t-62.5 19.5q3 32 11 70t18 73q23 -9 49.5 -13.5t45.5 -4.5t30.5 8t21.5 33l13 35q-21 47 -45 106.5t-46.5 125.5t-42.5 136t-34 138q18 2 38.5 4t42 3.5t42 2t37.5 0.5l73 -265q4 -12 7 -29.5
t5 -33.5h8q2 16 5.5 33.5t7.5 29.5l77 265q32 0 76 -2.5t84 -8.5z" />
    <glyph glyph-name="z" unicode="z" horiz-adv-x="510" 
d="M45 0l-12 124l226 259h-195q-4 32 -6.5 68t-2.5 71h395l12 -124l-226 -259h215q7 -29 10.5 -68t4.5 -71h-421z" />
    <glyph glyph-name="braceleft" unicode="{" horiz-adv-x="346" 
d="M314 -47q0 -12 -1 -29t-2.5 -35.5t-3.5 -36.5t-4 -32q-73 0 -124 8t-82.5 25t-45.5 42t-14 60q0 33 15 65t33.5 60l33.5 51t15 38q0 11 -4.5 19t-17 13t-34 7.5t-56.5 2.5v139q34 0 56 2t34.5 6.5t17 12.5t4.5 19q0 16 -15 39l-33.5 51t-33.5 59t-15 64q0 67 64 102
t204 35q2 -14 3.5 -31.5l3 -35.5t2 -35.5t0.5 -30.5q-36 0 -58.5 -0.5t-35 -3t-17 -7.5t-4.5 -14q0 -13 14.5 -36l32 -50t32 -55.5t14.5 -53.5q0 -16 -4.5 -31.5t-16 -29t-32.5 -24t-54 -17.5v-9q32 -7 52.5 -17t32.5 -23t17 -29t5 -35q0 -22 -14.5 -50t-32 -55.5l-32 -51.5
t-14.5 -38q0 -8 4.5 -13t17 -7.5t35 -3t58.5 -0.5z" />
    <glyph glyph-name="bar" unicode="|" horiz-adv-x="260" 
d="M65 -206v938h130v-938h-130z" />
    <glyph glyph-name="braceright" unicode="}" horiz-adv-x="346" 
d="M22 607q0 12 1 29t2.5 35.5t3.5 36.5t4 32q73 0 124 -8t82.5 -25t45.5 -42t14 -60q0 -33 -15 -65t-33.5 -60l-33.5 -51t-15 -38q0 -11 4.5 -19t17 -13t34.5 -7.5t56 -2.5v-139q-34 0 -56 -2t-34.5 -6.5t-17 -12.5t-4.5 -19q0 -16 15 -39l33.5 -51t33.5 -59t15 -64
q0 -67 -64 -102t-204 -35q-2 14 -3.5 31.5l-3 35.5t-2 35.5t-0.5 30.5q36 0 58.5 0.5t35 3t17 7.5t4.5 14q0 13 -14.5 36l-32 50t-32 55.5t-14.5 53.5q0 16 4.5 31.5t16 29t32.5 24t54 17.5v9q-32 7 -52.5 17t-32.5 23t-17 29t-5 35q0 22 14.5 50t32 55.5l32 51.5t14.5 38
q0 8 -4.5 13t-17 7.5t-35 3t-58.5 0.5z" />
    <glyph glyph-name="asciitilde" unicode="~" horiz-adv-x="497" 
d="M477 382q-8 -65 -20.5 -104.5t-29 -61t-37.5 -28.5t-45 -7q-30 0 -55 12t-45.5 26.5l-37 26.5t-28.5 12q-8 0 -13 -2.5t-8.5 -11t-5.5 -23.5t-5 -41q-10 0 -26.5 1.5t-35 4t-36 6.5t-29.5 8q8 64 20.5 103.5t29 61t37 29t45.5 7.5q30 0 55 -12t45 -26.5l36.5 -26.5
t29.5 -12q9 0 14 2.5t8 11t5 24l5 40.5q10 0 28 -1.5t37 -4.5t36 -6.5t26 -7.5z" />
    <glyph glyph-name="Adieresis" unicode="&#xc4;" horiz-adv-x="597" 
d="M278 773q0 -29 -18 -49.5t-56 -20.5q-39 0 -55 20.5t-16 49.5t16 49.5t55 20.5q38 0 56 -20.5t18 -49.5zM462 773q0 -29 -18 -49.5t-56 -20.5q-39 0 -55.5 20.5t-16.5 49.5t16.5 49.5t55.5 20.5q38 0 56 -20.5t18 -49.5zM593 10q-35 -8 -81.5 -11.5t-91.5 -3.5l-41 161
h-167l-40 -161q-42 0 -86 3.5t-82 11.5q41 170 89.5 333.5t104.5 330.5h204q55 -169 104 -340.5t87 -323.5zM309 430q-5 17 -6.5 34.5t-2.5 36.5h-12q-1 -19 -2.5 -36.5t-6.5 -34.5l-32 -132h96z" />
    <glyph glyph-name="Aring" unicode="&#xc5;" horiz-adv-x="597" 
d="M593 10q-35 -8 -81.5 -11.5t-91.5 -3.5l-41 161h-167l-40 -161q-42 0 -86 3.5t-82 11.5q41 170 88.5 332.5t104.5 330.5q-20 13 -28.5 32t-8.5 45q0 48 35 74t108 26q75 0 108 -24.5t33 -75.5t-42 -77q55 -169 104 -340.5t87 -322.5zM309 430q-5 17 -6.5 34.5t-2.5 36.5
h-12q-1 -19 -2.5 -36.5t-6.5 -34.5l-32 -132h96zM333 751q0 29 -30 29q-14 0 -23 -6t-9 -23t8.5 -23t22.5 -6q12 0 21.5 5.5t9.5 23.5z" />
    <glyph glyph-name="Ccedilla" unicode="&#xc7;" horiz-adv-x="591" 
d="M554 40q-19 -11 -44 -20.5t-52.5 -16t-54.5 -10t-50 -3.5q-152 0 -230 88t-78 260q0 90 23 155.5t63.5 108t95 62.5t117.5 20q24 0 51.5 -2.5t54 -7.5t50 -12t39.5 -15q0 -15 -2 -35.5t-6 -42.5t-9 -43t-10 -38q-42 20 -83.5 31t-76.5 11q-25 0 -46.5 -8t-37.5 -29
t-25 -58t-9 -96q0 -56 7.5 -93.5t23 -60t38.5 -32t54 -9.5q39 0 84.5 16.5t81.5 40.5q5 -16 9.5 -36.5l9 -42.5t8 -43.5t4.5 -38.5zM446 -113q0 -54 -37 -78.5t-115 -24.5q-13 0 -37 2t-47 5q-3 25 -4 39.5t-1 38.5q9 -1 21 -2t25 -1.5t24.5 -1t18.5 -0.5q20 0 27.5 5.5
t7.5 16.5q0 22 -30 22q-14 0 -36.5 -0.5t-37.5 -1.5q2 18 7 36.5t11 32.5h72q68 0 99.5 -21.5t31.5 -66.5z" />
    <glyph glyph-name="Eacute" unicode="&#xc9;" horiz-adv-x="546" 
d="M175 714l45 101h186q-10 -31 -25.5 -55.5t-47.5 -53.5q-16 0 -37 0.5t-43 1.5t-42.5 2.5t-35.5 3.5zM507 148h-254v122h166v147h-166v108h226q5 34 8.5 75.5t3.5 73.5h-416v-674h420q5 35 8.5 75.5t3.5 72.5z" />
    <glyph glyph-name="Ntilde" unicode="&#xd1;" horiz-adv-x="693" 
d="M526 821q-10 -65 -34.5 -90t-59.5 -25q-14 0 -32 4.5t-35.5 9.5l-32.5 9.5t-24 4.5q-14 0 -19.5 -5.5t-8.5 -25.5q-7 0 -19.5 1t-27 3t-28.5 4.5t-25 6.5q14 64 38 89.5t62 25.5q14 0 31 -4.5t33.5 -9.5l31 -9.5t24.5 -4.5q14 0 19 5.5t7 25.5q8 0 21.5 -1.5t28.5 -3.5
t29 -4.5t21 -5.5zM618 8q-16 -3 -37.5 -5.5t-44 -4t-43.5 -2.5t-37 -1l-187 347q-7 13 -13.5 32.5t-11.5 38.5l-12 -2q2 -15 3 -36t1 -38v-337h-161v665q20 3 43.5 5t47.5 3.5t46.5 2.5t40.5 1l171 -317q7 -13 13.5 -31.5t11.5 -39.5l12 2q-2 20 -3 38.5t-1 35.5v309h161
v-666v0z" />
    <glyph glyph-name="Odieresis" unicode="&#xd6;" horiz-adv-x="685" 
d="M325 773q0 -29 -18 -49.5t-56 -20.5q-39 0 -55 20.5t-16 49.5t16 49.5t55 20.5q38 0 56 -20.5t18 -49.5zM509 773q0 -29 -18 -49.5t-56 -20.5q-39 0 -55.5 20.5t-16.5 49.5t16.5 49.5t55.5 20.5q38 0 56 -20.5t18 -49.5zM640 337q0 -87 -22 -152.5t-61.5 -108.5
t-94 -64.5t-119.5 -21.5q-67 0 -122 20.5t-94 62.5t-60.5 107t-21.5 154q0 87 21.5 152.5t61 109.5t94.5 66t121 22q68 0 123 -20.5t93.5 -63t59.5 -108t21 -155.5zM452 337q0 59 -7.5 98t-21.5 62t-34.5 32.5t-46.5 9.5q-27 0 -47.5 -9.5t-34 -32.5t-20.5 -62t-7 -98
q0 -57 6.5 -95.5t20 -62t34.5 -34t49 -10.5q29 0 49.5 10t33.5 33.5t19.5 62t6.5 96.5z" />
    <glyph glyph-name="Udieresis" unicode="&#xdc;" horiz-adv-x="679" 
d="M326 773q0 -29 -18 -49.5t-56 -20.5q-39 0 -55 20.5t-16 49.5t16 49.5t55 20.5q38 0 56 -20.5t18 -49.5zM510 773q0 -29 -18 -49.5t-56 -20.5q-39 0 -55.5 20.5t-16.5 49.5t16.5 49.5t55.5 20.5q38 0 56 -20.5t18 -49.5zM609 281q0 -139 -64.5 -215t-205.5 -76
q-63 0 -112.5 14.5t-84.5 48.5t-53.5 90t-18.5 138v393h178v-413q0 -34 4.5 -56.5t15.5 -35.5t28.5 -18.5t44.5 -5.5q51 0 74 25t23 91v413h171v-393v0z" />
    <glyph glyph-name="aacute" unicode="&#xe1;" horiz-adv-x="536" 
d="M170 582l49 149h178q-13 -41 -38.5 -85t-53.5 -75q-16 0 -35 1t-37 2.5t-34.5 3.5t-28.5 4zM536 89v57h-63q-22 0 -22 22v301q-22 17 -49 29t-57 19.5t-61 11t-61 3.5q-34 0 -74.5 -5.5t-79.5 -18.5q0 -16 2 -35.5t5 -40t7.5 -39.5t8.5 -34q29 14 60.5 19t60.5 5
q22 0 43 -3t37 -11v-64l-74 -3q-47 -2 -83 -10t-60.5 -25.5t-37 -46t-12.5 -72.5q0 -82 42.5 -120t115.5 -38q76 0 136 54h7q18 -33 43.5 -43.5t58.5 -10.5q55 0 81 25.5t26 73.5zM293 121q-12 -8 -29.5 -12t-33.5 -4q-21 0 -30.5 11.5t-9.5 39.5q0 29 10.5 40t34.5 13l58 3
v-91z" />
    <glyph glyph-name="copyright" unicode="&#xa9;" horiz-adv-x="721" 
d="M492 162q-20 -11 -50 -17.5t-64 -6.5q-88 0 -137.5 49t-49.5 148q0 52 15 88.5t40 60t58 34t70 10.5q27 0 58 -3.5t53 -14.5q0 -9 -1.5 -22.5l-3 -27.5t-3.5 -28t-4 -25q-23 11 -49.5 15.5t-46.5 4.5q-12 0 -22.5 -3.5t-18.5 -13.5t-12.5 -28t-4.5 -47q0 -56 15.5 -75.5
t46.5 -19.5q20 0 48 7t51 19q6 -25 9 -54.5t3 -49.5zM664 338q0 -72 -22.5 -130t-63 -99.5t-96.5 -64t-122 -22.5t-121.5 22t-96 63.5t-63 100t-22.5 130.5q0 70 22.5 127.5t63 99t96 64t121.5 22.5q64 0 119.5 -21.5t96.5 -62t64.5 -98.5t23.5 -131zM601 335
q0 63 -18.5 112t-51 82t-76.5 50.5t-95 17.5q-55 0 -99 -17t-75.5 -50t-48.5 -82t-17 -113q0 -59 17 -107t48.5 -81.5t75.5 -52t99 -18.5q53 0 97 17t76 49.5t50 81t18 111.5z" />
    <glyph glyph-name="trademark" unicode="&#x2122;" horiz-adv-x="815" 
d="M304 674q0 -17 -2.5 -46t-7.5 -54h-78v-249h-117v249h-87v100h292v0zM785 328q-10 -1 -24.5 -2l-30 -2t-31.5 -1h-27l-16 150q-1 7 -1 16v14h-5q-1 -18 -6 -30l-51 -148h-98l-49 148q-2 6 -3.5 14.5t-2.5 15.5h-5v-15t-1 -15l-17 -150q-24 0 -53 2t-49 6q6 84 16 171
t21 172h124l66 -179q3 -8 4.5 -16t3.5 -17h5q3 19 9 34l60 178h126q11 -85 19.5 -173.5t15.5 -172.5z" />
    <glyph glyph-name="acute" unicode="&#xb4;" 
d="M141 582l49 149h178q-13 -41 -38.5 -85t-53.5 -75q-16 0 -35 1t-37 2.5t-34.5 3.5t-28.5 4z" />
    <glyph glyph-name="dieresis" unicode="&#xa8;" 
d="M230 652q0 -35 -20.5 -58.5t-64.5 -23.5q-43 0 -63.5 24t-20.5 58q0 33 20 58.5t65 25.5q44 0 64 -24.5t20 -59.5zM440 652q0 -35 -20.5 -58.5t-64.5 -23.5q-43 0 -63.5 24t-20.5 58q0 33 20 58.5t65 25.5q44 0 64 -24.5t20 -59.5z" />
    <glyph glyph-name="notequal" unicode="&#x2260;" horiz-adv-x="496" 
d="M179 104l-51 -78h-81l50 78h-48v115h123l67 104h-190v115h265l53 81h82l-53 -81h52v-115h-127l-67 -104h194v-115h-269z" />
    <glyph glyph-name="AE" unicode="&#xc6;" horiz-adv-x="827" 
d="M788 148q0 -40 -3.5 -76.5t-8.5 -71.5h-411v171h-148l-70 -178q-38 0 -83 4.5t-87 12.5q68 177 140.5 339.5t154.5 324.5h500q0 -33 -3.5 -74.5t-8.5 -74.5h-226v-108h166v-147h-166v-122h254v0zM354 517l-81 -204h92v204h-11z" />
    <glyph glyph-name="Oslash" unicode="&#xd8;" horiz-adv-x="685" 
d="M640 337q0 -87 -22 -152.5t-61.5 -108.5t-94 -64.5t-119.5 -21.5q-86 0 -149 32l-44 -83h-48l56 105q-54 41 -83.5 112.5t-29.5 177.5q0 87 21.5 152.5t61 109.5t94.5 66t121 22q80 0 140 -28l40 76h50l-52 -98q57 -40 88 -113t31 -184zM452 337q0 90 -18 136l-164 -309
q13 -16 31.5 -22.5t41.5 -6.5q29 0 49.5 10t33.5 33.5t19.5 62t6.5 96.5zM233 337q0 -81 13 -126l162 305q-13 12 -29.5 17.5t-36.5 5.5q-27 0 -47.5 -9.5t-34 -32.5t-20.5 -62t-7 -98z" />
    <glyph glyph-name="infinity" unicode="&#x221e;" horiz-adv-x="904" 
d="M854 260q0 -49 -14.5 -91t-41.5 -73t-65.5 -48t-86.5 -17q-55 0 -107.5 27t-87.5 72q-29 -41 -78.5 -70t-119.5 -29q-44 0 -81 15t-64 44.5t-42.5 74t-15.5 103.5q0 50 13.5 92t40 72t65 47t89.5 17q55 0 106 -24t89 -75q35 50 82 74.5t113 24.5q47 0 85 -17t65 -47.5
t41.5 -74t14.5 -97.5zM275 185q39 0 66.5 23t43.5 54q-20 38 -50 60t-65 22q-40 0 -54 -22t-14 -59q0 -16 2.5 -30.5t10.5 -25t22 -16.5t38 -6zM702 267q0 38 -15.5 57.5t-53.5 19.5t-65 -21t-47 -59q21 -42 51.5 -60.5t67.5 -18.5q35 0 48.5 22.5t13.5 59.5z" />
    <glyph glyph-name="plusminus" unicode="&#xb1;" horiz-adv-x="487" 
d="M306 292v-121h-126v121h-120v112h120v118h126v-118h121v-112h-121zM60 23v116h367v-116h-367z" />
    <glyph glyph-name="lessequal" unicode="&#x2264;" horiz-adv-x="486" 
d="M260 171l-195 174l195 177h166v-15l-187 -156l187 -165v-15h-166zM60 23v116h366v-116h-366z" />
    <glyph glyph-name="greaterequal" unicode="&#x2265;" horiz-adv-x="485" 
d="M60 23v116h365v-116h-365zM226 171h-166v15l187 156l-187 165v15h166l195 -174z" />
    <glyph glyph-name="yen" unicode="&#xa5;" horiz-adv-x="499" 
d="M465 320q0 -12 -0.5 -27.5t-2 -32t-3.5 -33t-5 -30.5h-116v-197h-175v197h-116v123h80q-40 88 -70.5 170t-56.5 175q20 4 44.5 7t49 5t47 3t38.5 1l63 -235q5 -16 7.5 -33.5t3.5 -28.5h8q1 11 3.5 28.5t7.5 34.5l59 234q18 0 40.5 -1.5t45.5 -3.5t44.5 -5t37.5 -6
q-25 -91 -56.5 -176.5t-69.5 -168.5h92v0z" />
    <glyph glyph-name="mu" unicode="&#xb5;" horiz-adv-x="592" 
d="M70 -206v722q36 5 80 7.5t85 2.5v-344q0 -23 9.5 -34.5t41.5 -11.5q14 0 35.5 5t35.5 13v362q37 5 80.5 7.5t84.5 2.5v-526h-165v45h-8q-26 -32 -46 -43.5t-40 -11.5q-19 0 -28 6v-202h-165z" />
    <glyph glyph-name="mu" unicode="&#x3bc;" horiz-adv-x="592" 
d="M70 -206v722q36 5 80 7.5t85 2.5v-344q0 -23 9.5 -34.5t41.5 -11.5q14 0 35.5 5t35.5 13v362q37 5 80.5 7.5t84.5 2.5v-526h-165v45h-8q-26 -32 -46 -43.5t-40 -11.5q-19 0 -28 6v-202h-165z" />
    <glyph glyph-name="partialdiff" unicode="&#x2202;" horiz-adv-x="566" 
d="M526 362q0 -178 -62 -275t-186 -97q-57 0 -101.5 13t-74.5 42t-46 76.5t-16 117.5q0 74 15.5 126t45 86t70.5 49.5t92 15.5q19 0 41.5 -2t41.5 -6q0 50 -32.5 70.5t-94.5 20.5q-35 0 -72 -6t-63 -14q0 37 2.5 78.5t7.5 68.5q30 8 69 13t76 5q58 0 110 -16t91.5 -58
t62.5 -116.5t23 -191.5zM356 296v38q0 22 -1 37q-16 7 -31 10t-36 3q-17 0 -30.5 -6.5t-23.5 -22t-15 -41.5t-5 -64q0 -67 13 -94t53 -27q20 0 34.5 8.5t23.5 28t13.5 51.5t4.5 79z" />
    <glyph glyph-name="summation" unicode="&#x2211;" horiz-adv-x="544" 
d="M505 148l-11 -148h-455v130l210 222l-191 193v129h431l-11 -149h-193l125 -131v-100l-144 -146h239z" />
    <glyph glyph-name="product" unicode="&#x220f;" horiz-adv-x="691" 
d="M438 0v514h-185v-514h-178v674h541v-674h-178z" />
    <glyph glyph-name="pi" unicode="&#x3c0;" horiz-adv-x="644" 
d="M631 10q-21 -11 -50 -15.5t-51 -4.5q-42 0 -71 11.5t-46.5 33t-25.5 52.5t-8 69v209h-129v-365h-142v365h-72v157h587q0 -14 -1 -34.5t-2.5 -42.5l-3 -43.5t-3.5 -36.5h-92v-183q0 -26 9.5 -35.5t31.5 -9.5q14 0 28.5 4.5t26.5 10.5q3 -13 5.5 -32t4.5 -39.5t3 -39.5
t1 -31z" />
    <glyph glyph-name="integral" unicode="&#x222b;" horiz-adv-x="336" 
d="M66 553q0 44 15 79.5t40.5 60.5t60 38t74.5 13q8 0 19.5 -0.5t23.5 -1.5l23 -2t17 -2q0 -32 -2 -67t-6 -72q-7 1 -17 2l-20 2t-18.5 1.5t-13.5 0.5q-17 0 -23.5 -10.5t-6.5 -31.5v-587q0 -45 -15 -80.5t-40.5 -60t-60 -38t-73.5 -13.5q-8 0 -20 0.5t-24 1.5l-23 2t-18 2
q0 33 2.5 68t7.5 71q7 -1 17 -2l20 -2t19 -1.5t13 -0.5q17 0 23 10.5t6 31.5v588v0z" />
    <glyph glyph-name="ordfeminine" unicode="&#xaa;" horiz-adv-x="380" 
d="M363 403q0 -68 -71 -68q-20 0 -38 9t-28 26h-5q-17 -16 -42 -25.5t-50 -9.5q-45 0 -74.5 21.5t-29.5 71.5t25 72.5t77 26.5l74 5v28q-8 3 -22 4.5t-24 1.5q-17 0 -42.5 -4t-43.5 -12q-8 25 -13.5 56t-6.5 51q23 8 53 12.5t55 4.5q43 0 84 -8t75 -29v-195q0 -11 11 -11h36
v-28v0zM201 469l-36 -2q-11 -1 -16.5 -6.5t-5.5 -22.5t6.5 -22t16.5 -5q8 0 18.5 2.5t16.5 6.5v49z" />
    <glyph glyph-name="ordmasculine" unicode="&#xba;" horiz-adv-x="378" 
d="M366 504q0 -84 -50 -126.5t-129 -42.5q-82 0 -128.5 40t-46.5 129q0 82 48 126t129 44q39 0 71.5 -9t56 -29t36.5 -52.5t13 -79.5zM228 502q0 43 -11 57.5t-29 14.5q-17 0 -28 -15.5t-11 -56.5t10 -53.5t28 -12.5q20 0 30.5 12.5t10.5 53.5z" />
    <glyph glyph-name="Omega" unicode="&#x3a9;" horiz-adv-x="688" 
d="M375 0l-6 125q26 15 43.5 36.5t28 51t14.5 67.5t4 87q0 89 -27.5 125.5t-88.5 36.5t-88.5 -36.5t-27.5 -126.5q0 -91 19 -151t73 -90l-5 -125h-260v148h117v9q-59 41 -86 97.5t-27 138.5q0 66 18.5 119.5t54.5 92t89.5 59t123.5 20.5q71 0 124.5 -20.5t89.5 -58.5
t54 -91.5t18 -119.5q0 -43 -6.5 -77t-20 -62.5t-35 -52t-51.5 -45.5v-9h117v-148h-259z" />
    <glyph glyph-name="ae" unicode="&#xe6;" horiz-adv-x="780" 
d="M740 302q0 -20 -1 -36.5t-4 -42.5l-274 -9v-7q0 -43 23 -57t68 -14q35 0 69.5 8.5t77.5 31.5q5 -14 10.5 -33.5t10.5 -39.5t9 -40t6 -35q-49 -21 -99.5 -29.5t-85.5 -8.5q-50 0 -97.5 12t-88.5 55h-3q-38 -32 -81.5 -49.5t-94.5 -17.5q-78 0 -118.5 39.5t-40.5 117.5
q0 44 11.5 73t35.5 47t60.5 26.5t85.5 10.5l86 4q1 15 2.5 31t5.5 31q-20 7 -49 10t-51 3q-29 0 -60 -5t-61 -19q-5 15 -9 34.5t-7 40t-5 39.5t-2 34q44 13 80 19t77 6q22 0 46 -2t47.5 -6.5t45 -11.5t38.5 -17q24 17 54 27t63 10q50 0 91 -13t69.5 -41t44 -71.5
t15.5 -104.5zM230 105q43 0 85 34q-5 13 -8 35t-4 39l-68 -3q-23 -1 -34 -13t-11 -41t10 -40t30 -11zM574 338q0 79 -53 79q-59 0 -59 -106l112 4v23v0z" />
    <glyph glyph-name="oslash" unicode="&#xf8;" horiz-adv-x="577" 
d="M537 261q0 -66 -19.5 -117t-53 -85t-79 -51.5t-98.5 -17.5q-62 0 -109 19l-43 -81h-48l54 100q-48 31 -74.5 88t-26.5 145q0 64 18.5 114t51.5 85t78.5 53.5t100.5 18.5q60 0 111 -20l43 80h48l-54 -100q46 -30 73 -86.5t27 -144.5zM216 261q0 -26 1 -46t5 -35l110 204
q-17 14 -43 14q-18 0 -31.5 -6t-23 -22t-14 -42t-4.5 -67zM363 261q0 51 -7 79l-110 -205q14 -11 41 -11q19 0 33 6t23.5 21.5t14.5 42t5 67.5z" />
    <glyph glyph-name="questiondown" unicode="&#xbf;" horiz-adv-x="404" 
d="M6 51q0 67 43 116.5t126 84.5v80q37 7 75 10.5t71 5.5q8 -45 13.5 -88t5.5 -88q-81 -20 -125 -49t-44 -64t17.5 -47.5t62.5 -12.5q9 0 22.5 0.5t29 2l31 3l26.5 2.5q5 -34 8 -70t3 -71q-31 -6 -67 -8t-68 -2q-48 0 -90 12t-73 36t-49 61t-18 86zM160 466q0 44 25.5 64
t63.5 20q39 0 64.5 -20t25.5 -64q0 -43 -26 -64.5t-64 -21.5t-63.5 21.5t-25.5 64.5z" />
    <glyph glyph-name="exclamdown" unicode="&#xa1;" horiz-adv-x="252" 
d="M40 -134q2 115 7 234.5t13 232.5q30 5 63 7.5t68 3.5q8 -114 13.5 -237t7.5 -241h-172v0zM37 466q0 44 25.5 64t63.5 20q39 0 64.5 -20t25.5 -64q0 -43 -26 -64.5t-64 -21.5t-63.5 21.5t-25.5 64.5z" />
    <glyph glyph-name="logicalnot" unicode="&#xac;" horiz-adv-x="498" 
d="M459 140q-12 -2 -28.5 -4t-35 -3.5t-37.5 -2.5t-36 -1v119h-306v128h443v-236v0z" />
    <glyph glyph-name="radical" unicode="&#x221a;" horiz-adv-x="523" 
d="M535 674q0 -14 -0.5 -31.5t-2 -36l-3 -36t-3.5 -30.5h-85l-82 -540h-167q-55 127 -102 256t-92 272q13 2 34.5 4.5t45 4t46 2.5t37.5 1l85 -265q4 -11 8.5 -26.5t7.5 -29.5h8q0 11 1 28.5t3 29.5l44 397h217v0z" />
    <glyph glyph-name="florin" unicode="&#x192;" 
d="M436 679q0 -29 -2.5 -69t-6.5 -76q-6 1 -16 2t-21 1.5t-20 1t-14 0.5q-26 0 -36 -14t-10 -39v-93h143q0 -72 -9 -135h-134v-390h-165v390h-116v135h116v88q0 48 15.5 86t43.5 64t65.5 39.5t82.5 13.5q17 0 39 -1t45 -4z" />
    <glyph glyph-name="approxequal" unicode="&#x2248;" horiz-adv-x="497" 
d="M448 134q-20 -17 -43 -26t-49 -9q-27 0 -52.5 6.5t-50.5 15t-50 15t-52 6.5q-30 0 -54.5 -11t-47.5 -30v110q23 20 47.5 30.5t54.5 10.5q26 0 51.5 -6.5t50.5 -14.5t50.5 -14.5t50.5 -6.5q53 0 94 35v-111v0zM448 352q-20 -17 -43 -26t-49 -9q-27 0 -52.5 6.5t-50.5 15
t-50 15t-52 6.5q-30 0 -54.5 -11t-47.5 -30v110q23 20 47.5 30.5t54.5 10.5q26 0 51.5 -6.5t50.5 -14.5t50.5 -14.5t50.5 -6.5q53 0 94 35v-111v0z" />
    <glyph glyph-name="Delta" unicode="&#x394;" horiz-adv-x="596" 
d="M2 0q42 164 92 336t104 338h204q53 -165 101.5 -333t90.5 -341h-592zM309 434q-1 7 -3 16t-3 18.5t-2 18t-1 14.5h-12q0 -11 -2 -32t-6 -35l-73 -278h168z" />
    <glyph glyph-name="guillemotleft" unicode="&#xab;" horiz-adv-x="518" 
d="M154 41l-143 225l143 225l141 -16l-124 -210l124 -208zM366 41l-143 225l143 225l141 -16l-124 -210l124 -208z" />
    <glyph glyph-name="guillemotright" unicode="&#xbb;" horiz-adv-x="518" 
d="M151 41l-140 16l123 209l-123 208l140 17l144 -226zM363 41l-140 16l123 209l-123 208l140 17l144 -226z" />
    <glyph glyph-name="ellipsis" unicode="&#x2026;" horiz-adv-x="741" 
d="M220 74q0 -44 -25.5 -64t-63.5 -20q-39 0 -64.5 20t-25.5 64q0 43 26 64.5t64 21.5t63.5 -21.5t25.5 -64.5zM460 74q0 -44 -25.5 -64t-63.5 -20q-39 0 -64.5 20t-25.5 64q0 43 26 64.5t64 21.5t63.5 -21.5t25.5 -64.5zM700 74q0 -44 -25.5 -64t-63.5 -20q-39 0 -64.5 20
t-25.5 64q0 43 26 64.5t64 21.5t63.5 -21.5t25.5 -64.5z" />
    <glyph glyph-name="nonbreakingspace" unicode="&#xa0;" horiz-adv-x="204" 
 />
    <glyph glyph-name="Agrave" unicode="&#xc0;" horiz-adv-x="597" 
d="M593 10q-35 -8 -81.5 -11.5t-91.5 -3.5l-41 161h-167l-40 -161q-42 0 -86 3.5t-82 11.5q41 170 89.5 333.5t104.5 330.5h204q55 -169 104 -340.5t87 -323.5zM309 430q-5 17 -6.5 34.5t-2.5 36.5h-12q-1 -19 -2.5 -36.5t-6.5 -34.5l-32 -132h96zM389 714
q-15 -2 -35.5 -3.5t-42.5 -2.5t-43 -1.5t-37 -0.5q-32 29 -47.5 53.5t-25.5 55.5h186l45 -101v0z" />
    <glyph glyph-name="Atilde" unicode="&#xc3;" horiz-adv-x="597" 
d="M593 10q-35 -8 -81.5 -11.5t-91.5 -3.5l-41 161h-167l-40 -161q-42 0 -86 3.5t-82 11.5q41 170 89.5 333.5t104.5 330.5h204q55 -169 104 -340.5t87 -323.5zM309 430q-5 17 -6.5 34.5t-2.5 36.5h-12q-1 -19 -2.5 -36.5t-6.5 -34.5l-32 -132h96zM473 821
q-10 -65 -34.5 -90t-59.5 -25q-14 0 -32 4.5t-35.5 9.5l-32.5 9.5t-24 4.5q-14 0 -19.5 -5.5t-8.5 -25.5q-7 0 -19.5 1t-27 3t-28.5 4.5t-25 6.5q14 64 38 89.5t62 25.5q14 0 31 -4.5t33.5 -9.5l31 -9.5t24.5 -4.5q14 0 19 5.5t7 25.5q8 0 21.5 -1.5t28.5 -3.5t29 -4.5
t21 -5.5z" />
    <glyph glyph-name="Otilde" unicode="&#xd5;" horiz-adv-x="685" 
d="M640 337q0 -87 -22 -152.5t-61.5 -108.5t-94 -64.5t-119.5 -21.5q-67 0 -122 20.5t-94 62.5t-60.5 107t-21.5 154q0 87 21.5 152.5t61 109.5t94.5 66t121 22q68 0 123 -20.5t93.5 -63t59.5 -108t21 -155.5zM452 337q0 59 -7.5 98t-21.5 62t-34.5 32.5t-46.5 9.5
q-27 0 -47.5 -9.5t-34 -32.5t-20.5 -62t-7 -98q0 -57 6.5 -95.5t20 -62t34.5 -34t49 -10.5q29 0 49.5 10t33.5 33.5t19.5 62t6.5 96.5zM519 821q-10 -65 -34.5 -90t-59.5 -25q-14 0 -32 4.5t-35.5 9.5l-32.5 9.5t-24 4.5q-14 0 -19.5 -5.5t-8.5 -25.5q-7 0 -19.5 1t-27 3
t-28.5 4.5t-25 6.5q14 64 38 89.5t62 25.5q14 0 31 -4.5t33.5 -9.5l31 -9.5t24.5 -4.5q14 0 19 5.5t7 25.5q8 0 21.5 -1.5t28.5 -3.5t29 -4.5t21 -5.5z" />
    <glyph glyph-name="OE" unicode="&#x152;" horiz-adv-x="902" 
d="M863 148q0 -32 -3.5 -72.5t-8.5 -75.5h-386v31h-8q-25 -23 -57 -32t-68 -9q-142 0 -214.5 86t-72.5 258q0 83 19.5 148t56 110t90 68.5t122.5 23.5q38 0 69.5 -8.5t54.5 -30.5h8v29h382q0 -33 -3.5 -74.5t-8.5 -74.5h-226v-108h166v-147h-166v-122h254v0zM435 337
q0 108 -23.5 155t-76.5 47q-27 0 -46 -10t-31.5 -33.5t-18 -62t-5.5 -96.5q0 -56 5.5 -94.5t17.5 -62.5t31 -34.5t47 -10.5q57 0 78.5 49.5t21.5 152.5z" />
    <glyph glyph-name="oe" unicode="&#x153;" horiz-adv-x="843" 
d="M803 302q0 -19 -1 -43.5t-3 -43.5h-275v-8q0 -41 21.5 -56t69.5 -15q72 0 147 40q6 -17 12 -37.5t10.5 -40.5l8.5 -38t5 -32q-47 -20 -97.5 -29t-85.5 -9q-61 0 -100 15t-65 48q-34 -36 -74.5 -49.5t-88.5 -13.5q-55 0 -100.5 16t-78 50t-50.5 85.5t-18 122.5
q0 64 18.5 113.5t51.5 84t78.5 52.5t100.5 18q47 0 87.5 -12.5t70.5 -41.5q48 54 136 54q60 0 101.5 -17t68 -47.5t38.5 -73t12 -92.5zM363 264q0 73 -18 103.5t-56 30.5q-36 0 -54.5 -29t-18.5 -105q0 -42 4 -69.5t12.5 -43t22 -21.5t32.5 -6t33 6.5t23.5 22t14.5 42.5
t5 69zM584 417q-26 0 -42.5 -23t-16.5 -82h111q1 7 1 13v13q0 79 -53 79z" />
    <glyph glyph-name="endash" unicode="&#x2013;" 
d="M56 209v117h398q0 -31 -3.5 -61.5t-8.5 -55.5h-386z" />
    <glyph glyph-name="emdash" unicode="&#x2014;" horiz-adv-x="1000" 
d="M71 209v117h869q0 -33 -3.5 -64.5t-8.5 -52.5h-857z" />
    <glyph glyph-name="quotedblleft" unicode="&#x201c;" horiz-adv-x="467" 
d="M432 642q-40 -14 -58 -33.5t-20 -42.5h38q11 -35 14.5 -73t3.5 -71h-184v77q0 81 37 140.5t118 91.5q17 -20 30 -42t21 -47zM221 642q-40 -14 -58 -33.5t-20 -42.5h38q11 -35 14.5 -73t3.5 -71h-184v77q0 81 37 140.5t118 91.5q17 -20 30 -42t21 -47z" />
    <glyph glyph-name="quotedblright" unicode="&#x201d;" horiz-adv-x="467" 
d="M437 636q0 -81 -37 -140.5t-119 -91.5q-15 20 -28.5 42.5t-22.5 46.5q39 14 57.5 33.5t20.5 42.5h-38q-11 35 -14.5 73t-3.5 71h185v-77v0zM225 636q0 -81 -37 -140.5t-118 -91.5q-17 20 -30 42t-21 47q40 14 58 33.5t20 42.5h-38q-11 35 -14.5 73t-3.5 71h184v-77v0z
" />
    <glyph glyph-name="quoteleft" unicode="&#x2018;" horiz-adv-x="249" 
d="M221 642q-40 -14 -58 -33.5t-20 -42.5h38q11 -35 14.5 -73t3.5 -71h-184v77q0 81 37 140.5t118 91.5q17 -20 30 -42t21 -47z" />
    <glyph glyph-name="quoteright" unicode="&#x2019;" horiz-adv-x="249" 
d="M225 636q0 -81 -37 -140.5t-118 -91.5q-17 20 -30 42t-21 47q40 14 58 33.5t20 42.5h-38q-11 35 -14.5 73t-3.5 71h184v-77v0z" />
    <glyph glyph-name="divide" unicode="&#xf7;" horiz-adv-x="410" 
d="M295 96q0 -43 -25.5 -63.5t-63.5 -20.5t-64.5 20.5t-26.5 63.5q0 45 26.5 65t64.5 20t63.5 -20.5t25.5 -64.5zM295 452q0 -44 -25.5 -64t-63.5 -20t-64.5 20t-26.5 64t26.5 64.5t64.5 20.5t63.5 -21t25.5 -64zM354 228v93h-298v-93h298z" />
    <glyph glyph-name="lozenge" unicode="&#x25ca;" horiz-adv-x="443" 
d="M435 213q-65 -113 -147 -223h-134q-41 54 -77 109t-69 114v97q32 61 67.5 118t79.5 117h132l75.5 -112.5t72.5 -122.5v-97v0zM220 393l-74 -125l77 -125l76 122z" />
    <glyph glyph-name="ydieresis" unicode="&#xff;" horiz-adv-x="524" 
d="M360 36q-23 -71 -50.5 -119t-59 -77.5t-66.5 -42.5t-73 -13q-20 0 -53.5 4.5t-62.5 19.5q3 32 11 70t18 73q23 -9 49.5 -13.5t45.5 -4.5t30.5 8t21.5 33l13 35q-21 47 -45 106.5t-46.5 125.5t-42.5 136t-34 138q18 2 38.5 4t42 3.5t42 2t37.5 0.5l73 -265q4 -12 7 -29.5
t5 -33.5h8q2 16 5.5 33.5t7.5 29.5l77 265q32 0 76 -2.5t84 -8.5zM243 652q0 -35 -20.5 -58.5t-64.5 -23.5q-43 0 -63.5 24t-20.5 58q0 33 20 58.5t65 25.5q44 0 64 -24.5t20 -59.5zM453 652q0 -35 -20.5 -58.5t-64.5 -23.5q-43 0 -63.5 24t-20.5 58q0 33 20 58.5t65 25.5
q44 0 64 -24.5t20 -59.5z" />
    <glyph glyph-name="Ydieresis" unicode="&#x178;" horiz-adv-x="576" 
d="M566 664q-40 -107 -87 -212t-100 -208v-244h-178v243q-54 101 -100 202t-91 219q20 4 45 6.5t50.5 4.5t49 3t39.5 1l78 -211q5 -14 10 -32.5t9 -36.5h12q4 19 8.5 37.5t9.5 33.5l76 209q18 0 40.5 -1t46 -3.5l45 -5t37.5 -5.5zM275 773q0 -29 -18 -49.5t-56 -20.5
q-39 0 -55 20.5t-16 49.5t16 49.5t55 20.5q38 0 56 -20.5t18 -49.5zM459 773q0 -29 -18 -49.5t-56 -20.5q-39 0 -55.5 20.5t-16.5 49.5t16.5 49.5t55.5 20.5q38 0 56 -20.5t18 -49.5z" />
    <glyph glyph-name="fraction" unicode="&#x2215;" horiz-adv-x="159" 
d="M-3 -13q-31 5 -55 14t-54 22l267 661q11 0 25.5 -1.5t30.5 -3.5t31.5 -5.5l28.5 -6.5z" />
    <glyph glyph-name="currency" unicode="&#xa4;" 
d="M248 213q3 -44 22.5 -59t55.5 -15q29 0 64 6.5t69 25.5q8 -36 13.5 -77t7.5 -78q-35 -14 -78.5 -20t-79.5 -6q-114 0 -173.5 54t-79.5 169h-58v103h48v32h-48v104h57q10 65 32 109t53.5 71.5t72 39.5t87.5 12q36 0 77.5 -3.5t76.5 -11.5q-2 -35 -7 -75.5t-12 -77.5
q-30 10 -64 14.5t-64 4.5q-31 0 -50.5 -16.5t-23.5 -66.5h193q0 -22 -3.5 -49.5t-9.5 -54.5h-187v-32h178q0 -26 -3.5 -51t-9.5 -52h-156z" />
    <glyph glyph-name="guilsinglleft" unicode="&#x2039;" horiz-adv-x="306" 
d="M154 41l-143 225l143 225l141 -16l-124 -210l124 -208z" />
    <glyph glyph-name="guilsinglright" unicode="&#x203a;" horiz-adv-x="306" 
d="M151 41l-140 16l123 209l-123 208l140 17l144 -226z" />
    <glyph glyph-name="fi" unicode="&#xfb01;" horiz-adv-x="644" 
d="M414 0v383h-160v-383h-165v383h-57v139h57v29q0 45 15 81t40.5 60.5t60.5 38t75 13.5q17 0 41.5 -2t41.5 -5q0 -27 -2 -65.5t-7 -75.5l-37.5 4.5t-32.5 2.5q-18 0 -24 -10t-6 -31v-40h325v-522h-165zM587 656q0 -35 -22.5 -60.5t-68.5 -25.5q-45 0 -67.5 26t-22.5 60
q0 33 22.5 60.5t68.5 27.5t68 -27t22 -61z" />
    <glyph glyph-name="fl" unicode="&#xfb02;" horiz-adv-x="644" 
d="M414 0v603q-20 3 -50.5 5t-54.5 2q-31 0 -43 -12t-12 -36v-40h101q0 -76 -9 -139h-92v-383h-165v383h-57v139h57v29q0 90 55.5 141.5t164.5 51.5q22 0 55 -1.5t70.5 -4.5t75.5 -7t69 -10v-721h-165z" />
    <glyph glyph-name="daggerdbl" unicode="&#x2021;" horiz-adv-x="522" 
d="M344 9v-136q-39 -8 -81.5 -10t-84.5 -2v148h-151v149h151v102h-151v150h151v135h166v-135h151v-150h-151v-102h151v-149h-151z" />
    <glyph glyph-name="periodcentered" unicode="&#xb7;" horiz-adv-x="239" 
d="M209 297q0 -44 -25.5 -64t-63.5 -20q-39 0 -64.5 20t-25.5 64q0 43 26 64.5t64 21.5t63.5 -21.5t25.5 -64.5z" />
    <glyph glyph-name="quotesinglbase" unicode="&#x201a;" horiz-adv-x="249" 
d="M225 89q0 -81 -37 -140.5t-118 -91.5q-17 20 -30 42t-21 47q40 14 58 34t20 43h-38q-11 34 -14.5 72t-3.5 71h184v-77v0z" />
    <glyph glyph-name="quotedblbase" unicode="&#x201e;" horiz-adv-x="467" 
d="M437 89q0 -81 -37 -140.5t-119 -91.5q-15 20 -28.5 42.5t-22.5 46.5q39 15 57.5 34.5t20.5 42.5h-38q-11 34 -14.5 72t-3.5 71h185v-77v0zM225 89q0 -81 -37 -140.5t-118 -91.5q-17 20 -30 42t-21 47q40 14 58 34t20 43h-38q-11 34 -14.5 72t-3.5 71h184v-77v0z" />
    <glyph glyph-name="perthousand" unicode="&#x2030;" horiz-adv-x="1184" 
d="M369 493q0 -92 -46.5 -140.5t-125.5 -48.5q-38 0 -70 10.5t-55.5 33t-36.5 58.5t-13 87t13.5 87.5t37.5 59.5t56 33.5t68 10.5q78 0 125 -45t47 -146zM231 493q0 51 -6.5 70.5t-27.5 19.5q-10 0 -17.5 -3.5t-11.5 -13.5t-6 -27.5t-2 -45.5q0 -27 2 -44.5t6 -27t11.5 -13
t17.5 -3.5q21 0 27.5 18t6.5 70zM318 -12q-23 4 -43 11t-43 16l264 669q22 0 47 -4t46 -9zM794 179q0 -92 -46.5 -140.5t-125.5 -48.5q-38 0 -70 10.5t-55.5 33t-36.5 58.5t-13 87t13.5 87.5t37.5 59.5t56 33.5t68 10.5q78 0 125 -45t47 -146zM656 179q0 51 -6.5 70.5
t-27.5 19.5q-10 0 -17.5 -3.5t-11.5 -13.5t-6 -27.5t-2 -45.5q0 -27 2 -44.5t6 -27t11.5 -13t17.5 -3.5q21 0 27.5 18t6.5 70zM1162 179q0 -92 -47 -140.5t-126 -48.5q-38 0 -70 10.5t-55.5 33t-36.5 58.5t-13 87t13.5 87.5t37.5 59.5t56 33.5t68 10.5q78 0 125.5 -45
t47.5 -146zM1023 179q0 51 -6.5 70.5t-27.5 19.5q-10 0 -17.5 -3.5t-11.5 -13.5t-6 -27.5t-2 -45.5q0 -27 2 -44.5t6 -27t11.5 -13t17.5 -3.5q21 0 27.5 18t6.5 70z" />
    <glyph glyph-name="Acircumflex" unicode="&#xc2;" horiz-adv-x="597" 
d="M593 10q-35 -8 -81.5 -11.5t-91.5 -3.5l-41 161h-167l-40 -161q-42 0 -86 3.5t-82 11.5q41 170 89.5 333.5t104.5 330.5h204q55 -169 104 -340.5t87 -323.5zM309 430q-5 17 -6.5 34.5t-2.5 36.5h-12q-1 -19 -2.5 -36.5t-6.5 -34.5l-32 -132h96zM464 712l-29 -2.5t-35 -2
l-35.5 -1t-31.5 -0.5l-35 55l-35 -55q-13 0 -30 0.5l-35 1t-35 1.5t-31 2q14 33 26.5 57.5t26.5 46.5h228q15 -26 27.5 -50t23.5 -53z" />
    <glyph glyph-name="Ecircumflex" unicode="&#xca;" horiz-adv-x="546" 
d="M507 148q0 -32 -3.5 -72.5t-8.5 -75.5h-420v674h416q0 -32 -3.5 -73.5t-8.5 -75.5h-226v-108h166v-147h-166v-122h254v0zM445 712l-29 -2.5t-35 -2l-35.5 -1t-31.5 -0.5l-35 55l-35 -55q-13 0 -30 0.5l-35 1t-35 1.5t-31 2q14 33 26.5 57.5t26.5 46.5h228
q15 -26 27.5 -50t23.5 -53z" />
    <glyph glyph-name="Aacute" unicode="&#xc1;" horiz-adv-x="597" 
d="M593 10q-38 152 -87 323.5t-104 340.5h-204q-56 -167 -104.5 -330.5t-89.5 -333.5q38 -8 82 -11.5t86 -3.5l40 161h167l41 -161q45 0 91.5 3.5t81.5 11.5zM343 298h-96l32 132q5 17 6.5 34.5t2.5 36.5h12q1 -19 2.5 -36.5t6.5 -34.5zM216 714l45 101h186
q-10 -31 -25.5 -55.5t-47.5 -53.5q-16 0 -37 0.5t-43 1.5t-42.5 2.5t-35.5 3.5z" />
    <glyph glyph-name="Edieresis" unicode="&#xcb;" horiz-adv-x="546" 
d="M507 148q0 -32 -3.5 -72.5t-8.5 -75.5h-420v674h416q0 -32 -3.5 -73.5t-8.5 -75.5h-226v-108h166v-147h-166v-122h254v0zM259 773q0 -29 -18 -49.5t-56 -20.5q-39 0 -55 20.5t-16 49.5t16 49.5t55 20.5q38 0 56 -20.5t18 -49.5zM443 773q0 -29 -18 -49.5t-56 -20.5
q-39 0 -55.5 20.5t-16.5 49.5t16.5 49.5t55.5 20.5q38 0 56 -20.5t18 -49.5z" />
    <glyph glyph-name="Egrave" unicode="&#xc8;" horiz-adv-x="546" 
d="M507 148q0 -32 -3.5 -72.5t-8.5 -75.5h-420v674h416q0 -32 -3.5 -73.5t-8.5 -75.5h-226v-108h166v-147h-166v-122h254v0zM374 714q-15 -2 -35.5 -3.5t-42.5 -2.5t-43 -1.5t-37 -0.5q-32 29 -47.5 53.5t-25.5 55.5h186l45 -101v0z" />
    <glyph glyph-name="Iacute" unicode="&#xcd;" horiz-adv-x="328" 
d="M75 714l45 101h186q-10 -31 -25.5 -55.5t-47.5 -53.5q-16 0 -37 0.5t-43 1.5t-42.5 2.5t-35.5 3.5zM253 0v674h-178v-674h178z" />
    <glyph glyph-name="Icircumflex" unicode="&#xce;" horiz-adv-x="328" 
d="M325 711q-12 -2 -28 -3.5t-33.5 -2l-34.5 -1t-31 -0.5l-34 56l-34 -56q-13 0 -29 0.5l-33.5 1t-34 2t-30.5 2.5q14 33 26 57.5t26 46.5h221l26 -50t23 -53zM75 0v674h178v-674h-178z" />
    <glyph glyph-name="Idieresis" unicode="&#xcf;" horiz-adv-x="328" 
d="M145 773q0 -29 -17.5 -49.5t-54.5 -20.5q-38 0 -53.5 20.5t-15.5 49.5t15.5 49.5t53.5 20.5q37 0 54.5 -20.5t17.5 -49.5zM323 773q0 -29 -17.5 -49.5t-53.5 -20.5q-38 0 -54 20.5t-16 49.5t16 49.5t54 20.5q36 0 53.5 -20.5t17.5 -49.5zM75 0v674h178v-674h-178z" />
    <glyph glyph-name="Igrave" unicode="&#xcc;" horiz-adv-x="328" 
d="M252 714q-15 -2 -35.5 -3.5t-42.5 -2.5t-43 -1.5t-37 -0.5q-32 29 -47.5 53.5t-25.5 55.5h186l45 -101v0zM75 0v674h178v-674h-178z" />
    <glyph glyph-name="Oacute" unicode="&#xd3;" horiz-adv-x="685" 
d="M640 337q0 90 -21 155.5t-59.5 108t-93.5 63t-123 20.5q-66 0 -121 -22t-94.5 -66t-61 -109.5t-21.5 -152.5q0 -89 21.5 -154t60.5 -107t94 -62.5t122 -20.5q65 0 119.5 21.5t94 64.5t61.5 108.5t22 152.5zM452 337q0 -58 -6.5 -96.5t-19.5 -62t-33.5 -33.5t-49.5 -10
q-28 0 -49 10.5t-34.5 34t-20 62t-6.5 95.5q0 59 7 98t20.5 62t34 32.5t47.5 9.5q26 0 46.5 -9.5t34.5 -32.5t21.5 -62t7.5 -98zM253 714l45 101h186q-10 -31 -25.5 -55.5t-47.5 -53.5q-16 0 -37 0.5t-43 1.5t-42.5 2.5t-35.5 3.5z" />
    <glyph glyph-name="Ocircumflex" unicode="&#xd4;" horiz-adv-x="685" 
d="M640 337q0 -87 -22 -152.5t-61.5 -108.5t-94 -64.5t-119.5 -21.5q-67 0 -122 20.5t-94 62.5t-60.5 107t-21.5 154q0 87 21.5 152.5t61 109.5t94.5 66t121 22q68 0 123 -20.5t93.5 -63t59.5 -108t21 -155.5zM452 337q0 59 -7.5 98t-21.5 62t-34.5 32.5t-46.5 9.5
q-27 0 -47.5 -9.5t-34 -32.5t-20.5 -62t-7 -98q0 -57 6.5 -95.5t20 -62t34.5 -34t49 -10.5q29 0 49.5 10t33.5 33.5t19.5 62t6.5 96.5zM510 712l-29 -2.5t-35 -2l-35.5 -1t-31.5 -0.5l-35 55l-35 -55q-13 0 -30 0.5l-35 1t-35 1.5t-31 2q14 33 26.5 57.5t26.5 46.5h228
q15 -26 27.5 -50t23.5 -53z" />
    <glyph glyph-name="Ograve" unicode="&#xd2;" horiz-adv-x="685" 
d="M640 337q0 -87 -22 -152.5t-61.5 -108.5t-94 -64.5t-119.5 -21.5q-67 0 -122 20.5t-94 62.5t-60.5 107t-21.5 154q0 87 21.5 152.5t61 109.5t94.5 66t121 22q68 0 123 -20.5t93.5 -63t59.5 -108t21 -155.5zM452 337q0 59 -7.5 98t-21.5 62t-34.5 32.5t-46.5 9.5
q-27 0 -47.5 -9.5t-34 -32.5t-20.5 -62t-7 -98q0 -57 6.5 -95.5t20 -62t34.5 -34t49 -10.5q29 0 49.5 10t33.5 33.5t19.5 62t6.5 96.5zM436 714q-15 -2 -35.5 -3.5t-42.5 -2.5t-43 -1.5t-37 -0.5q-32 29 -47.5 53.5t-25.5 55.5h186l45 -101v0z" />
    <glyph glyph-name="Uacute" unicode="&#xda;" horiz-adv-x="679" 
d="M609 281v393h-171v-413q0 -66 -23 -91t-74 -25q-27 0 -44.5 5.5t-28.5 18.5t-15.5 35.5t-4.5 56.5v413h-178v-393q0 -82 18.5 -138t53.5 -90t84.5 -48.5t112.5 -14.5q141 0 205.5 76t64.5 215zM256 714l45 101h186q-10 -31 -25.5 -55.5t-47.5 -53.5q-16 0 -37 0.5
t-43 1.5t-42.5 2.5t-35.5 3.5z" />
    <glyph glyph-name="Ucircumflex" unicode="&#xdb;" horiz-adv-x="679" 
d="M609 281q0 -139 -64.5 -215t-205.5 -76q-63 0 -112.5 14.5t-84.5 48.5t-53.5 90t-18.5 138v393h178v-413q0 -34 4.5 -56.5t15.5 -35.5t28.5 -18.5t44.5 -5.5q51 0 74 25t23 91v413h171v-393v0zM514 712l-29 -2.5t-35 -2l-35.5 -1t-31.5 -0.5l-35 55l-35 -55
q-13 0 -30 0.5l-35 1t-35 1.5t-31 2q14 33 26.5 57.5t26.5 46.5h228q15 -26 27.5 -50t23.5 -53z" />
    <glyph glyph-name="Ugrave" unicode="&#xd9;" horiz-adv-x="679" 
d="M609 281q0 -139 -64.5 -215t-205.5 -76q-63 0 -112.5 14.5t-84.5 48.5t-53.5 90t-18.5 138v393h178v-413q0 -34 4.5 -56.5t15.5 -35.5t28.5 -18.5t44.5 -5.5q51 0 74 25t23 91v413h171v-393v0zM434 714q-15 -2 -35.5 -3.5t-42.5 -2.5t-43 -1.5t-37 -0.5
q-32 29 -47.5 53.5t-25.5 55.5h186l45 -101v0z" />
    <glyph glyph-name="dotlessi" unicode="&#x131;" horiz-adv-x="295" 
d="M65 0v522h165v-522h-165z" />
    <glyph glyph-name="circumflex" unicode="&#x2c6;" 
d="M434 582q-28 -4 -70 -7t-80 -3l-42 76l-41 -76q-37 0 -75 2.5t-76 6.5q20 44 38.5 78.5t41.5 71.5h224q23 -35 42.5 -71.5t37.5 -77.5z" />
    <glyph glyph-name="tilde" unicode="&#x2dc;" 
d="M446 717q-8 -45 -19.5 -73t-26.5 -43.5t-34 -21.5t-43 -6q-16 0 -35 6t-37 13l-33 13t-23 6q-15 0 -19.5 -8.5t-9.5 -32.5q-27 0 -62.5 7t-64.5 18q6 44 18 71.5t27.5 43.5t35.5 22t43 6q17 0 35 -6t35.5 -12.5t31.5 -12.5t23 -6q14 0 19 7t9 33q11 0 29 -2.5t37.5 -6
t37 -7.5t26.5 -8z" />
    <glyph glyph-name="macron" unicode="&#xaf;" 
d="M105 591v131h279q0 -32 -3 -65.5t-9 -65.5h-267z" />
    <glyph glyph-name="macron" unicode="&#x2c9;" 
d="M105 591v131h279q0 -32 -3 -65.5t-9 -65.5h-267z" />
    <glyph glyph-name="breve" unicode="&#x2d8;" 
d="M446 734q-9 -49 -28 -80.5t-46 -50t-60 -26t-71 -7.5q-41 0 -73.5 7t-57 25t-42 49.5t-28.5 81.5q30 11 70 17.5t72 6.5q2 -35 17 -48t44 -13q30 0 45.5 13t18.5 49q17 0 36 -2t37.5 -5t36 -7.5t29.5 -9.5z" />
    <glyph glyph-name="dotaccent" unicode="&#x2d9;" 
d="M333 656q0 -35 -22.5 -60.5t-68.5 -25.5q-45 0 -67.5 26t-22.5 60q0 33 22.5 60.5t68.5 27.5t68 -27t22 -61z" />
    <glyph glyph-name="ring" unicode="&#x2da;" 
d="M384 670q0 -48 -36.5 -74t-105.5 -26q-77 0 -109.5 26t-32.5 74q0 47 35 74t108 27q75 0 108 -25.5t33 -75.5zM273 671q0 28 -30 28q-14 0 -23 -5.5t-9 -22.5t8.5 -23t22.5 -6q12 0 21.5 5.5t9.5 23.5z" />
    <glyph glyph-name="cedilla" unicode="&#xb8;" 
d="M387 -113q0 -54 -37 -78.5t-115 -24.5q-13 0 -37 2t-47 5q-3 25 -4 39.5t-1 38.5q9 -1 21 -2t25 -1.5t24.5 -1t18.5 -0.5q20 0 27.5 5.5t7.5 16.5q0 22 -30 22q-14 0 -36.5 -0.5t-37.5 -1.5q2 18 7 36.5t11 32.5h72q68 0 99.5 -21.5t31.5 -66.5z" />
    <glyph glyph-name="hungarumlaut" unicode="&#x2dd;" 
d="M59 582l44 149h171q-6 -20 -16 -42.5t-22 -43.5t-24.5 -40.5t-24.5 -33.5q-32 0 -68.5 3.5t-59.5 7.5zM249 582l44 149h171q-6 -20 -16 -42.5t-22 -43.5t-24.5 -40.5t-24.5 -33.5q-32 0 -68.5 3.5t-59.5 7.5z" />
    <glyph glyph-name="ogonek" unicode="&#x2db;" 
d="M383 25q-44 -27 -69.5 -44.5t-39 -30.5t-17 -23.5t-3.5 -21.5q0 -33 40 -33q12 0 27 2l29 4q0 -18 -2.5 -44t-5.5 -43q-29 -4 -48 -5.5t-40 -1.5q-27 0 -51 4.5t-41 15.5t-27 29.5t-10 47.5q0 24 8 44t28.5 39.5t57 39.5t93.5 43l71 -22v0z" />
    <glyph glyph-name="caron" unicode="&#x2c7;" 
d="M57 724q28 4 70 7t80 3l42 -76l41 76q37 0 75 -2.5t76 -6.5q-19 -44 -38 -78.5t-42 -71.5h-224q-23 35 -42.5 71.5t-37.5 77.5z" />
    <glyph glyph-name="lslash" unicode="&#x142;" horiz-adv-x="295" 
d="M65 0v279l-31 -10v144l31 10v309q35 5 79.5 8.5t85.5 3.5v-268l38 12q0 -40 -2 -77t-7 -70l-29 -10v-331h-165z" />
    <glyph glyph-name="Scaron" unicode="&#x160;" horiz-adv-x="541" 
d="M132 811q12 2 29 3t35 1.5l35.5 1t31.5 0.5l35 -55l35 55q13 0 30 -0.5l35 -1t35 -1.5t31 -2q-14 -33 -26.5 -57.5t-26.5 -46.5h-228q-15 26 -27.5 50t-23.5 53zM496 204q0 -54 -19 -94t-53.5 -67t-82 -40t-103.5 -13q-44 0 -95.5 7.5t-100.5 28.5q5 35 14.5 74t20.5 73
q44 -18 92.5 -29t86.5 -11q30 0 44.5 16t14.5 39q0 25 -20 42t-50 32l-64.5 31t-64.5 40t-50 58.5t-20 85.5t20.5 89.5t56.5 64.5t85 39.5t106 13.5q32 0 71.5 -4.5t83.5 -16.5q-2 -34 -6.5 -72.5t-12.5 -73.5q-21 5 -44 9.5t-45 7.5t-41.5 4.5t-33.5 1.5q-32 0 -45 -15.5
t-13 -35.5q0 -24 20 -41t49.5 -32.5l64.5 -32.5t64.5 -40.5t49.5 -56.5t20 -82z" />
    <glyph glyph-name="scaron" unicode="&#x161;" horiz-adv-x="469" 
d="M61 724q28 4 70 7t80 3l42 -76l41 76q37 0 75 -2.5t76 -6.5q-19 -44 -38 -78.5t-42 -71.5h-224q-23 35 -42.5 71.5t-37.5 77.5zM433 165q0 -44 -16 -77t-45 -54.5t-69 -32.5t-87 -11q-52 0 -98.5 10.5t-84.5 33.5q6 34 16.5 72.5t22.5 70.5q19 -10 40.5 -18.5t43.5 -14.5
t42.5 -9.5t36.5 -3.5q28 0 28 27q0 13 -16.5 20t-41.5 14t-53.5 16.5t-53.5 26.5t-41.5 45t-16.5 72q0 46 19 80t51.5 56t74 33t86.5 11q27 0 67 -4.5t77 -15.5q-2 -32 -7.5 -70.5t-13.5 -70.5q-18 5 -38.5 9.5t-41.5 8t-40 5.5t-34 2q-29 0 -29 -28q0 -13 16.5 -20
t41 -14.5l53.5 -17t53.5 -28t41 -48t16.5 -75.5z" />
    <glyph glyph-name="Yacute" unicode="&#xdd;" horiz-adv-x="576" 
d="M566 664q-16 3 -37.5 5.5l-45 5t-46 3.5t-40.5 1l-76 -209q-5 -15 -9.5 -33.5t-8.5 -37.5h-12q-4 18 -9 36.5t-10 32.5l-78 211q-16 0 -39.5 -1t-49 -3t-50.5 -4.5t-45 -6.5q45 -118 91 -219t100 -202v-243h178v244q53 103 100 208t87 212zM209 714l45 101h186
q-10 -31 -25.5 -55.5t-47.5 -53.5q-16 0 -37 0.5t-43 1.5t-42.5 2.5t-35.5 3.5z" />
    <glyph glyph-name="yacute" unicode="&#xfd;" horiz-adv-x="524" 
d="M519 514q-40 6 -84 8.5t-76 2.5l-77 -265q-4 -12 -7.5 -29.5t-5.5 -33.5h-8q-2 16 -5 33.5t-7 29.5l-73 265q-17 0 -37.5 -0.5t-42 -2t-42 -3.5t-38.5 -4q14 -68 34 -138t42.5 -136t46.5 -125.5t45 -106.5l-13 -35q-10 -25 -21.5 -33t-30.5 -8t-45.5 4.5t-49.5 13.5
q-10 -35 -18 -73t-11 -70q29 -15 62.5 -19.5t53.5 -4.5q38 0 73 13t66.5 42.5t59 77.5t50.5 119zM193 582l49 149h178q-13 -41 -38.5 -85t-53.5 -75q-16 0 -35 1t-37 2.5t-34.5 3.5t-28.5 4z" />
    <glyph glyph-name="Thorn" unicode="&#xde;" horiz-adv-x="584" 
d="M544 353q0 -67 -20.5 -114t-54.5 -77t-78 -43.5t-91 -13.5h-49v-105h-176v674h176v-95q33 3 55 3q54 0 97.5 -14.5t75 -43.5t48.5 -71.5t17 -99.5zM368 353q0 50 -18.5 71t-51.5 21h-27q-10 0 -20 -1v-199h38q40 0 59.5 24t19.5 84z" />
    <glyph glyph-name="thorn" unicode="&#xfe;" horiz-adv-x="579" 
d="M539 281q0 -73 -18.5 -128t-51 -91t-75.5 -54t-93 -18q-14 0 -32 2.5t-39 7.5v-206h-165v938q36 5 80.5 8.5t84.5 3.5v-267h8q28 31 56.5 43t60.5 12q83 0 133.5 -60.5t50.5 -190.5zM365 270q0 38 -4.5 62.5t-13.5 38t-22 18.5t-29 5q-20 0 -36.5 -6t-29.5 -16v-231
q11 -7 25.5 -9t28.5 -2q44 0 62.5 30t18.5 110z" />
    <glyph glyph-name="Zcaron" unicode="&#x17d;" horiz-adv-x="564" 
d="M527 149q0 -15 -0.5 -33.5t-2 -39t-3.5 -40t-5 -36.5h-469l-9 126l275 399h-251q-4 38 -6 73.5t-2 75.5h460l9 -126l-275 -399h279v0zM127 811q12 2 29 3t35 1.5l35.5 1t31.5 0.5l35 -55l35 55q13 0 30 -0.5l35 -1t35 -1.5t31 -2q-14 -33 -26.5 -57.5t-26.5 -46.5h-228
q-15 26 -27.5 50t-23.5 53z" />
    <glyph glyph-name="zcaron" unicode="&#x17e;" horiz-adv-x="510" 
d="M45 0l-12 124l226 259h-195q-4 32 -6.5 68t-2.5 71h395l12 -124l-226 -259h215q7 -29 10.5 -68t4.5 -71h-421zM66 724q28 4 70 7t80 3l42 -76l41 76q37 0 75 -2.5t76 -6.5q-19 -44 -38 -78.5t-42 -71.5h-224q-23 35 -42.5 71.5t-37.5 77.5z" />
    <glyph glyph-name="DLE" unicode="&#xe000;" horiz-adv-x="563" 
d="M437 19l-51 57q-23 -12 -49.5 -19.5t-52.5 -7.5q-59 0 -104 24l-49 -54l-93 92l48 51q-14 26 -22.5 55.5t-8.5 60.5q0 32 8.5 63t22.5 57l-49 49l92 93l49 -51q48 23 106 23q29 0 56 -6.5t50 -17.5l46 53l92 -93l-47 -50q14 -25 22.5 -53.5t8.5 -61.5q0 -65 -31 -121
l48 -51zM369 282q0 51 -23.5 77.5t-61.5 26.5q-37 0 -61.5 -26.5t-24.5 -77.5t22.5 -78t60.5 -27t63 27t25 78z" />
    <glyph glyph-name="Euro" unicode="&#x20ac;" 
d="M248 213q3 -44 22.5 -59t55.5 -15q29 0 64 6.5t69 25.5q8 -36 13.5 -77t7.5 -78q-35 -14 -78.5 -20t-79.5 -6q-114 0 -173.5 54t-79.5 169h-58v103h48v32h-48v104h57q10 65 32 109t53.5 71.5t72 39.5t87.5 12q36 0 77.5 -3.5t76.5 -11.5q-2 -35 -7 -75.5t-12 -77.5
q-30 10 -64 14.5t-64 4.5q-31 0 -50.5 -16.5t-23.5 -66.5h193q0 -22 -3.5 -49.5t-9.5 -54.5h-187v-32h178q0 -26 -3.5 -51t-9.5 -52h-156z" />
    <glyph glyph-name="onehalf" unicode="&#xbd;" horiz-adv-x="850" 
d="M352 -13q-31 5 -55 14t-54 22l267 661q11 0 25.5 -1.5t30.5 -3.5t31.5 -5.5l28.5 -6.5zM21 287v115h117v154l-104 -11q-2 10 -3.5 23l-3 27t-2.5 27.5t-1 25.5l128 26h110v-272h79q0 -12 -0.5 -27t-2 -30.5l-3 -30.5t-4.5 -27h-310zM823 115q0 -22 -2 -55.5t-4 -59.5
h-283l-5 101l75.5 52.5t46 37.5t22.5 27.5t6 23.5q0 20 -11 28t-33 8q-20 0 -41.5 -6t-39.5 -15q-4 11 -7.5 27t-6.5 32.5t-4.5 32t-1.5 25.5q26 9 61.5 14.5t62.5 5.5q72 0 115.5 -31.5t43.5 -97.5q0 -23 -7.5 -42t-21.5 -37t-33.5 -35t-43.5 -36h112v0z" />
    <glyph glyph-name="onequarter" unicode="&#xbc;" horiz-adv-x="840" 
d="M823 185q0 -9 -0.5 -23.5t-2 -30.5l-3 -31.5t-3.5 -26.5h-32v-73h-121v73h-172v106q26 55 61.5 114.5t70.5 104.5q11 0 26 -2l30.5 -4t30.5 -5t26 -6l-122 -200h61v58h109v-54h41v0zM21 287v115h117v154l-104 -11q-2 10 -3.5 23l-3 27t-2.5 27.5t-1 25.5l128 26h110v-272
h79q0 -12 -0.5 -27t-2 -30.5l-3 -30.5t-4.5 -27h-310zM352 -13q-31 5 -55 14t-54 22l267 661q11 0 25.5 -1.5t30.5 -3.5t31.5 -5.5l28.5 -6.5z" />
    <glyph glyph-name="onesuperior" unicode="&#xb9;" horiz-adv-x="360" 
d="M21 287v115h117v154l-104 -11q-2 10 -3.5 23l-3 27t-2.5 27.5t-1 25.5l128 26h110v-272h79q0 -12 -0.5 -27t-2 -30.5l-3 -30.5t-4.5 -27h-310z" />
    <glyph glyph-name="threequarters" unicode="&#xbe;" horiz-adv-x="840" 
d="M318 577q0 -26 -16.5 -49t-47.5 -33v-5q38 -9 55.5 -32t17.5 -57q0 -64 -47.5 -93t-130.5 -29q-27 0 -62.5 5t-62.5 15q2 24 8 54.5t14 51.5q23 -8 47 -13t44 -5q29 0 40 4t11 21q0 16 -12.5 20t-39.5 4h-65v98h65q28 0 37 3.5t9 16.5q0 11 -10 15.5t-36 4.5
q-20 0 -40.5 -2.5t-43.5 -9.5q-8 23 -11.5 54t-3.5 50q32 9 66.5 12t63.5 3q70 0 110.5 -23.5t40.5 -80.5zM823 185q0 -9 -0.5 -23.5t-2 -30.5l-3 -31.5t-3.5 -26.5h-32v-73h-121v73h-172v106q26 55 61.5 114.5t70.5 104.5q11 0 26 -2l30.5 -4t30.5 -5t26 -6l-122 -200h61
v58h109v-54h41v0zM352 -13q-31 5 -55 14t-54 22l267 661q11 0 25.5 -1.5t30.5 -3.5t31.5 -5.5l28.5 -6.5z" />
    <glyph glyph-name="threesuperior" unicode="&#xb3;" horiz-adv-x="360" 
d="M318 577q0 -26 -16.5 -49t-47.5 -33v-5q38 -9 55.5 -32t17.5 -57q0 -64 -47.5 -93t-130.5 -29q-27 0 -62.5 5t-62.5 15q2 24 8 54.5t14 51.5q23 -8 47 -13t44 -5q29 0 40 4t11 21q0 16 -12.5 20t-39.5 4h-65v98h65q28 0 37 3.5t9 16.5q0 11 -10 15.5t-36 4.5
q-20 0 -40.5 -2.5t-43.5 -9.5q-8 23 -11.5 54t-3.5 50q32 9 66.5 12t63.5 3q70 0 110.5 -23.5t40.5 -80.5z" />
    <glyph glyph-name="twosuperior" unicode="&#xb2;" horiz-adv-x="360" 
d="M333 402q0 -22 -2 -55.5t-4 -59.5h-283l-5 101l75.5 52.5t46 37.5t22.5 27.5t6 23.5q0 20 -11 28t-33 8q-20 0 -41.5 -6t-39.5 -15q-4 11 -7.5 27t-6.5 32.5t-4.5 32t-1.5 25.5q26 9 61.5 14.5t62.5 5.5q72 0 115.5 -31.5t43.5 -97.5q0 -23 -7.5 -42t-21.5 -37t-33.5 -35
t-43.5 -36h112v0z" />
    <glyph glyph-name="brokenbar" unicode="&#xa6;" horiz-adv-x="252" 
d="M61 0v291h130v-291h-130zM61 388v286h130v-286h-130z" />
    <glyph glyph-name="minus" unicode="&#x2212;" 
d="M62 203v118h376v-118h-376z" />
    <glyph glyph-name="multiply" unicode="&#xd7;" horiz-adv-x="499" 
d="M385 15l-136 139l-136 -139l-86 86l139 138l-138 136l85 85l136 -140l136 140l86 -85l-138 -137l139 -139z" />
    <glyph glyph-name="Lslash" unicode="&#x141;" horiz-adv-x="517" 
d="M487 153q0 -35 -3 -77.5t-8 -75.5h-401v249l-40 -14v145l40 14v280h178v-218l59 21q0 -40 -3 -78.5t-13 -72.5l-43 -15v-158h234v0z" />
    <glyph glyph-name="exclam" unicode="!" horiz-adv-x="252" 
d="M207 674q-2 -115 -7 -234.5t-13 -232.5q-30 -5 -63 -7.5t-68 -3.5q-8 114 -13.5 237t-7.5 241h172v0zM210 74q0 -44 -25.5 -64t-63.5 -20q-39 0 -64.5 20t-25.5 64q0 43 26 64.5t64 21.5t63.5 -21.5t25.5 -64.5z" />
    <glyph glyph-name="quotedbl" unicode="&#x22;" horiz-adv-x="428" 
d="M176 444q-26 -11 -56.5 -14.5t-62.5 -3.5l-24 287h169zM369 444q-26 -11 -56.5 -14.5t-62.5 -3.5l-24 287h169z" />
    <glyph glyph-name="numbersign" unicode="#" horiz-adv-x="498" 
d="M486 544q0 -32 -6 -72t-16 -75h-77l-21 -124h84q0 -37 -5.5 -73.5t-14.5 -71.5h-88l-22 -128h-96l22 128h-73l-22 -128h-96l22 128h-65q0 36 6.5 73.5t17.5 71.5h65l21 124h-74q1 36 5.5 72.5t16.5 74.5h77l22 130h96l-22 -130h73l22 130h96l-22 -130h74v0zM218 397
l-21 -124h73l21 124h-73z" />
    <glyph glyph-name="dollar" unicode="$" 
d="M334 622q24 -2 49.5 -5t48.5 -8q0 -12 -2 -30t-4.5 -38t-5.5 -39.5t-7 -34.5q-18 4 -42 7.5t-48.5 5.5t-46.5 3.5t-35 1.5q-26 0 -36.5 -5.5t-10.5 -23.5q0 -15 20 -23.5t49.5 -17l64.5 -19.5t64.5 -30.5t49.5 -50t20 -78.5q0 -69 -46.5 -115.5t-119.5 -62.5l3 -59h-148
l3 56q-31 4 -62.5 10t-57.5 16q2 14 5 32l6.5 37.5t8.5 38t11 33.5q19 -7 44 -13t51 -10t50.5 -6t40.5 -2q26 0 36.5 7t10.5 25q0 16 -20 25.5t-49.5 19l-64.5 21t-64.5 31t-49.5 50t-20 77.5q0 31 12 58t33.5 48.5t51.5 37t65 23.5l-3 59h148z" />
    <glyph glyph-name="percent" unicode="%" horiz-adv-x="816" 
d="M369 493q0 -92 -46.5 -140.5t-125.5 -48.5q-38 0 -70 10.5t-55.5 33t-36.5 58.5t-13 87t13.5 87.5t37.5 59.5t56 33.5t68 10.5q78 0 125 -45t47 -146zM231 493q0 51 -6.5 70.5t-27.5 19.5q-10 0 -17.5 -3.5t-11.5 -13.5t-6 -27.5t-2 -45.5q0 -27 2 -44.5t6 -27t11.5 -13
t17.5 -3.5q21 0 27.5 18t6.5 70zM318 -12q-23 4 -43 11t-43 16l264 669q22 0 47 -4t46 -9zM794 179q0 -92 -46.5 -140.5t-125.5 -48.5q-38 0 -70 10.5t-55.5 33t-36.5 58.5t-13 87t13.5 87.5t37.5 59.5t56 33.5t68 10.5q78 0 125 -45t47 -146zM656 179q0 51 -6.5 70.5
t-27.5 19.5q-10 0 -17.5 -3.5t-11.5 -13.5t-6 -27.5t-2 -45.5q0 -27 2 -44.5t6 -27t11.5 -13t17.5 -3.5q21 0 27.5 18t6.5 70z" />
    <glyph glyph-name="ampersand" unicode="&#x26;" horiz-adv-x="637" 
d="M345 531q0 15 -9.5 26t-29.5 11q-18 0 -29 -11t-11 -34q0 -12 6 -26.5t22 -36.5q29 15 40 33t11 38zM228 289q-30 -17 -40.5 -35t-10.5 -44q0 -42 18 -61t57 -19q17 0 37 5t44 21l-26.5 33l-29 36l-27.5 35zM635 10q-18 -4 -41 -7t-46.5 -5.5t-46.5 -4t-42 -1.5l-41 54
q-47 -32 -90 -44t-85 -12q-55 0 -97.5 14.5t-72 41t-44.5 63t-15 80.5q0 35 6.5 63t22.5 52.5t43.5 46.5t69.5 45q-19 32 -29.5 59.5t-10.5 50.5q0 86 50 132t142 46q87 0 132 -38.5t45 -109.5q0 -46 -24 -91t-93 -88l18.5 -25.5l21.5 -29l21 -27l16 -20.5l57 64l84 100
q7 -50 11 -102.5t4 -93.5q-17 -21 -34 -40t-36 -38l104 -135v0z" />
    <glyph glyph-name="quotesingle" unicode="'" horiz-adv-x="235" 
d="M176 444q-26 -11 -56.5 -14.5t-62.5 -3.5l-24 287h169z" />
    <glyph glyph-name="agrave" unicode="&#xe0;" horiz-adv-x="536" 
d="M333 582q-12 -2 -28.5 -4t-34.5 -3.5t-37 -2.5t-35 -1q-28 31 -53.5 75t-38.5 85h178l49 -149v0zM536 89q0 -48 -26 -73.5t-81 -25.5q-33 0 -58.5 10.5t-43.5 43.5h-7q-60 -54 -136 -54q-73 0 -115.5 38t-42.5 120q0 44 12.5 72.5t37 46t60.5 25.5t83 10l74 3v64
q-16 8 -37 11t-43 3q-29 0 -60.5 -5t-60.5 -19q-4 15 -8.5 34t-7.5 39.5t-5 40t-2 35.5q39 13 79.5 18.5t74.5 5.5q30 0 61 -3.5t61 -11t57 -19.5t49 -29v-301q0 -22 22 -22h63v-57v0zM293 212l-58 -3q-24 -2 -34.5 -13t-10.5 -40q0 -28 9.5 -39.5t30.5 -11.5q16 0 33.5 4
t29.5 12v91z" />
    <glyph glyph-name="acircumflex" unicode="&#xe2;" horiz-adv-x="536" 
d="M447 582q-28 -4 -70 -7t-80 -3l-42 76l-41 -76q-37 0 -75 2.5t-76 6.5q20 44 38.5 78.5t41.5 71.5h224q23 -35 42.5 -71.5t37.5 -77.5zM536 89q0 -48 -26 -73.5t-81 -25.5q-33 0 -58.5 10.5t-43.5 43.5h-7q-60 -54 -136 -54q-73 0 -115.5 38t-42.5 120q0 44 12.5 72.5
t37 46t60.5 25.5t83 10l74 3v64q-16 8 -37 11t-43 3q-29 0 -60.5 -5t-60.5 -19q-4 15 -8.5 34t-7.5 39.5t-5 40t-2 35.5q39 13 79.5 18.5t74.5 5.5q30 0 61 -3.5t61 -11t57 -19.5t49 -29v-301q0 -22 22 -22h63v-57v0zM293 212l-58 -3q-24 -2 -34.5 -13t-10.5 -40
q0 -28 9.5 -39.5t30.5 -11.5q16 0 33.5 4t29.5 12v91z" />
    <glyph glyph-name="adieresis" unicode="&#xe4;" horiz-adv-x="536" 
d="M237 652q0 -35 -20.5 -58.5t-64.5 -23.5q-43 0 -63.5 24t-20.5 58q0 33 20 58.5t65 25.5q44 0 64 -24.5t20 -59.5zM447 652q0 -35 -20.5 -58.5t-64.5 -23.5q-43 0 -63.5 24t-20.5 58q0 33 20 58.5t65 25.5q44 0 64 -24.5t20 -59.5zM536 89q0 -48 -26 -73.5t-81 -25.5
q-33 0 -58.5 10.5t-43.5 43.5h-7q-60 -54 -136 -54q-73 0 -115.5 38t-42.5 120q0 44 12.5 72.5t37 46t60.5 25.5t83 10l74 3v64q-16 8 -37 11t-43 3q-29 0 -60.5 -5t-60.5 -19q-4 15 -8.5 34t-7.5 39.5t-5 40t-2 35.5q39 13 79.5 18.5t74.5 5.5q30 0 61 -3.5t61 -11
t57 -19.5t49 -29v-301q0 -22 22 -22h63v-57v0zM293 212l-58 -3q-24 -2 -34.5 -13t-10.5 -40q0 -28 9.5 -39.5t30.5 -11.5q16 0 33.5 4t29.5 12v91z" />
    <glyph glyph-name="atilde" unicode="&#xe3;" horiz-adv-x="536" 
d="M467 717q-8 -45 -19.5 -73t-26.5 -43.5t-34 -21.5t-43 -6q-16 0 -35 6t-37 13l-33 13t-23 6q-15 0 -19.5 -8.5t-9.5 -32.5q-27 0 -62.5 7t-64.5 18q6 44 18 71.5t27.5 43.5t35.5 22t43 6q17 0 35 -6t35.5 -12.5t31.5 -12.5t23 -6q14 0 19 7t9 33q11 0 29 -2.5t37.5 -6
t37 -7.5t26.5 -8zM536 89q0 -48 -26 -73.5t-81 -25.5q-33 0 -58.5 10.5t-43.5 43.5h-7q-60 -54 -136 -54q-73 0 -115.5 38t-42.5 120q0 44 12.5 72.5t37 46t60.5 25.5t83 10l74 3v64q-16 8 -37 11t-43 3q-29 0 -60.5 -5t-60.5 -19q-4 15 -8.5 34t-7.5 39.5t-5 40t-2 35.5
q39 13 79.5 18.5t74.5 5.5q30 0 61 -3.5t61 -11t57 -19.5t49 -29v-301q0 -22 22 -22h63v-57v0zM293 212l-58 -3q-24 -2 -34.5 -13t-10.5 -40q0 -28 9.5 -39.5t30.5 -11.5q16 0 33.5 4t29.5 12v91z" />
    <glyph glyph-name="aring" unicode="&#xe5;" horiz-adv-x="536" 
d="M390 670q0 -48 -36.5 -74t-105.5 -26q-77 0 -109.5 26t-32.5 74q0 47 35 74t108 27q75 0 108 -25.5t33 -75.5zM279 671q0 28 -30 28q-14 0 -23 -5.5t-9 -22.5t8.5 -23t22.5 -6q12 0 21.5 5.5t9.5 23.5zM536 89q0 -48 -26 -73.5t-81 -25.5q-33 0 -58.5 10.5t-43.5 43.5h-7
q-60 -54 -136 -54q-73 0 -115.5 38t-42.5 120q0 44 12.5 72.5t37 46t60.5 25.5t83 10l74 3v64q-16 8 -37 11t-43 3q-29 0 -60.5 -5t-60.5 -19q-4 15 -8.5 34t-7.5 39.5t-5 40t-2 35.5q39 13 79.5 18.5t74.5 5.5q30 0 61 -3.5t61 -11t57 -19.5t49 -29v-301q0 -22 22 -22h63
v-57v0zM293 212l-58 -3q-24 -2 -34.5 -13t-10.5 -40q0 -28 9.5 -39.5t30.5 -11.5q16 0 33.5 4t29.5 12v91z" />
    <glyph glyph-name="ccedilla" unicode="&#xe7;" horiz-adv-x="474" 
d="M439 21q-11 -6 -28.5 -11.5t-37 -10t-39.5 -7t-36 -2.5q-122 0 -190 64t-68 198q0 74 20 127t53.5 87t77.5 50t93 16q38 0 76 -6t73 -19q-2 -14 -5.5 -33t-8.5 -39.5t-10.5 -40.5t-11.5 -35q-62 25 -104 25q-40 0 -59 -25.5t-19 -94.5q0 -39 5 -63.5t15.5 -38.5t27.5 -19
t41 -5q22 0 48.5 9t52.5 23q5 -16 10.5 -35.5t10 -39.5t8 -39.5t5.5 -34.5zM386 -113q0 -54 -37 -78.5t-115 -24.5q-13 0 -37 2t-47 5q-3 25 -4 39.5t-1 38.5q9 -1 21 -2t25 -1.5t24.5 -1t18.5 -0.5q20 0 27.5 5.5t7.5 16.5q0 22 -30 22q-14 0 -36.5 -0.5t-37.5 -1.5
q2 18 7 36.5t11 32.5h72q68 0 99.5 -21.5t31.5 -66.5z" />
    <glyph glyph-name="eacute" unicode="&#xe9;" horiz-adv-x="537" 
d="M497 302q0 53 -12.5 95.5t-39.5 72.5t-68.5 46t-99.5 16q-50 0 -93.5 -17t-75.5 -51t-50 -85.5t-18 -121.5q0 -133 69 -200t198 -67q35 0 81.5 7.5t103.5 30.5q-5 32 -14.5 72.5t-21.5 75.5q-46 -23 -81 -31.5t-66 -8.5q-48 0 -69.5 15t-21.5 56v8h275q2 22 3 45.5
t1 41.5zM278 417q53 0 53 -79v-13t-1 -13h-111q0 59 16.5 82t42.5 23zM200 582l49 149h178q-13 -41 -38.5 -85t-53.5 -75q-16 0 -35 1t-37 2.5t-34.5 3.5t-28.5 4z" />
    <glyph glyph-name="egrave" unicode="&#xe8;" horiz-adv-x="537" 
d="M497 302q0 -18 -1 -41.5t-3 -45.5h-275v-8q0 -41 21.5 -56t69.5 -15q31 0 66 8.5t81 31.5q12 -35 21.5 -75.5t14.5 -72.5q-57 -23 -103.5 -30.5t-81.5 -7.5q-129 0 -198 67t-69 200q0 70 18 121.5t50 85.5t75.5 51t93.5 17q58 0 99.5 -16t68.5 -46t39.5 -72.5t12.5 -95.5
zM278 417q-26 0 -42.5 -23t-16.5 -82h111q1 7 1 13v13q0 79 -53 79zM364 582q-12 -2 -28.5 -4t-34.5 -3.5t-37 -2.5t-35 -1q-28 31 -53.5 75t-38.5 85h178l49 -149v0z" />
    <glyph glyph-name="ecircumflex" unicode="&#xea;" horiz-adv-x="537" 
d="M497 302q0 -18 -1 -41.5t-3 -45.5h-275v-8q0 -41 21.5 -56t69.5 -15q31 0 66 8.5t81 31.5q12 -35 21.5 -75.5t14.5 -72.5q-57 -23 -103.5 -30.5t-81.5 -7.5q-129 0 -198 67t-69 200q0 70 18 121.5t50 85.5t75.5 51t93.5 17q58 0 99.5 -16t68.5 -46t39.5 -72.5t12.5 -95.5
zM278 417q-26 0 -42.5 -23t-16.5 -82h111q1 7 1 13v13q0 79 -53 79zM467 582q-28 -4 -70 -7t-80 -3l-42 76l-41 -76q-37 0 -75 2.5t-76 6.5q20 44 38.5 78.5t41.5 71.5h224q23 -35 42.5 -71.5t37.5 -77.5z" />
    <glyph glyph-name="edieresis" unicode="&#xeb;" horiz-adv-x="537" 
d="M497 302q0 -18 -1 -41.5t-3 -45.5h-275v-8q0 -41 21.5 -56t69.5 -15q31 0 66 8.5t81 31.5q12 -35 21.5 -75.5t14.5 -72.5q-57 -23 -103.5 -30.5t-81.5 -7.5q-129 0 -198 67t-69 200q0 70 18 121.5t50 85.5t75.5 51t93.5 17q58 0 99.5 -16t68.5 -46t39.5 -72.5t12.5 -95.5
zM278 417q-26 0 -42.5 -23t-16.5 -82h111q1 7 1 13v13q0 79 -53 79zM259 652q0 -35 -20.5 -58.5t-64.5 -23.5q-43 0 -63.5 24t-20.5 58q0 33 20 58.5t65 25.5q44 0 64 -24.5t20 -59.5zM469 652q0 -35 -20.5 -58.5t-64.5 -23.5q-43 0 -63.5 24t-20.5 58q0 33 20 58.5t65 25.5
q44 0 64 -24.5t20 -59.5z" />
    <glyph glyph-name="iacute" unicode="&#xed;" horiz-adv-x="295" 
d="M66 582l49 149h178q-13 -41 -38.5 -85t-53.5 -75q-16 0 -35 1t-37 2.5t-34.5 3.5t-28.5 4zM230 0v522h-165v-522h165z" />
    <glyph glyph-name="igrave" unicode="&#xec;" horiz-adv-x="295" 
d="M65 0v522h165v-522h-165zM230 582q-12 -2 -28.5 -4t-34.5 -3.5t-37 -2.5t-35 -1q-28 31 -53.5 75t-38.5 85h178l49 -149v0z" />
    <glyph glyph-name="icircumflex" unicode="&#xee;" horiz-adv-x="295" 
d="M65 0v522h165v-522h-165zM341 582q-28 -4 -70 -7t-80 -3l-42 76l-41 -76q-37 0 -75 2.5t-76 6.5q19 44 38 78.5t42 71.5h224q23 -35 42.5 -71.5t37.5 -77.5z" />
    <glyph glyph-name="idieresis" unicode="&#xef;" horiz-adv-x="295" 
d="M65 0v522h165v-522h-165zM128 652q0 -35 -20.5 -58.5t-64.5 -23.5q-43 0 -63.5 24t-20.5 58q0 33 20 58.5t65 25.5q44 0 64 -24.5t20 -59.5zM338 652q0 -35 -20.5 -58.5t-64.5 -23.5q-43 0 -63.5 24t-20.5 58q0 33 20 58.5t65 25.5q44 0 64 -24.5t20 -59.5z" />
    <glyph glyph-name="ntilde" unicode="&#xf1;" horiz-adv-x="579" 
d="M352 0v340q0 24 -10 35t-41 11q-17 0 -35.5 -4.5t-35.5 -13.5v-368h-165v515q35 5 80 7.5t85 2.5v-52h8q37 35 68 47t68 12q31 0 57 -9t45 -28.5t30 -50.5t11 -75v-369h-165zM496 717q-8 -45 -19.5 -73t-26.5 -43.5t-34 -21.5t-43 -6q-16 0 -35 6t-37 13l-33 13t-23 6
q-15 0 -19.5 -8.5t-9.5 -32.5q-27 0 -62.5 7t-64.5 18q6 44 18 71.5t27.5 43.5t35.5 22t43 6q17 0 35 -6t35.5 -12.5t31.5 -12.5t23 -6q14 0 19 7t9 33q11 0 29 -2.5t37.5 -6t37 -7.5t26.5 -8z" />
    <glyph glyph-name="oacute" unicode="&#xf3;" horiz-adv-x="577" 
d="M537 261q0 73 -19 124.5t-52 84t-78.5 47.5t-98.5 15q-55 0 -100.5 -18.5t-78.5 -53.5t-51.5 -85t-18.5 -114q0 -71 18 -122t50.5 -84t78 -49t100.5 -16q53 0 98.5 17.5t79 51.5t53 85t19.5 117zM363 261q0 -41 -5 -67.5t-14.5 -42t-23.5 -21.5t-33 -6t-32.5 6t-22 21.5
t-12.5 42t-4 67.5t4.5 67t14 42t23 22t31.5 6t32 -6t23.5 -22t14 -42t4.5 -67zM195 582l49 149h178q-13 -41 -38.5 -85t-53.5 -75q-16 0 -35 1t-37 2.5t-34.5 3.5t-28.5 4z" />
    <glyph glyph-name="ograve" unicode="&#xf2;" horiz-adv-x="577" 
d="M537 261q0 -66 -19.5 -117t-53 -85t-79 -51.5t-98.5 -17.5q-55 0 -100.5 16t-78 49t-50.5 84t-18 122q0 64 18.5 114t51.5 85t78.5 53.5t100.5 18.5q53 0 98.5 -15t78.5 -47.5t52 -84t19 -124.5zM363 261q0 41 -4.5 67t-14 42t-23.5 22t-32 6t-31.5 -6t-23 -22t-14 -42
t-4.5 -67t4 -67.5t12.5 -42t22 -21.5t32.5 -6t33 6t23.5 21.5t14.5 42t5 67.5zM378 582q-12 -2 -28.5 -4t-34.5 -3.5t-37 -2.5t-35 -1q-28 31 -53.5 75t-38.5 85h178l49 -149v0z" />
    <glyph glyph-name="ocircumflex" unicode="&#xf4;" horiz-adv-x="577" 
d="M537 261q0 -66 -19.5 -117t-53 -85t-79 -51.5t-98.5 -17.5q-55 0 -100.5 16t-78 49t-50.5 84t-18 122q0 64 18.5 114t51.5 85t78.5 53.5t100.5 18.5q53 0 98.5 -15t78.5 -47.5t52 -84t19 -124.5zM363 261q0 41 -4.5 67t-14 42t-23.5 22t-32 6t-31.5 -6t-23 -22t-14 -42
t-4.5 -67t4 -67.5t12.5 -42t22 -21.5t32.5 -6t33 6t23.5 21.5t14.5 42t5 67.5zM479 582q-28 -4 -70 -7t-80 -3l-42 76l-41 -76q-37 0 -75 2.5t-76 6.5q20 44 38.5 78.5t41.5 71.5h224q23 -35 42.5 -71.5t37.5 -77.5z" />
    <glyph glyph-name="odieresis" unicode="&#xf6;" horiz-adv-x="577" 
d="M537 261q0 -66 -19.5 -117t-53 -85t-79 -51.5t-98.5 -17.5q-55 0 -100.5 16t-78 49t-50.5 84t-18 122q0 64 18.5 114t51.5 85t78.5 53.5t100.5 18.5q53 0 98.5 -15t78.5 -47.5t52 -84t19 -124.5zM363 261q0 41 -4.5 67t-14 42t-23.5 22t-32 6t-31.5 -6t-23 -22t-14 -42
t-4.5 -67t4 -67.5t12.5 -42t22 -21.5t32.5 -6t33 6t23.5 21.5t14.5 42t5 67.5zM268 652q0 -35 -20.5 -58.5t-64.5 -23.5q-43 0 -63.5 24t-20.5 58q0 33 20 58.5t65 25.5q44 0 64 -24.5t20 -59.5zM478 652q0 -35 -20.5 -58.5t-64.5 -23.5q-43 0 -63.5 24t-20.5 58
q0 33 20 58.5t65 25.5q44 0 64 -24.5t20 -59.5z" />
    <glyph glyph-name="otilde" unicode="&#xf5;" horiz-adv-x="577" 
d="M537 261q0 -66 -19.5 -117t-53 -85t-79 -51.5t-98.5 -17.5q-55 0 -100.5 16t-78 49t-50.5 84t-18 122q0 64 18.5 114t51.5 85t78.5 53.5t100.5 18.5q53 0 98.5 -15t78.5 -47.5t52 -84t19 -124.5zM363 261q0 41 -4.5 67t-14 42t-23.5 22t-32 6t-31.5 -6t-23 -22t-14 -42
t-4.5 -67t4 -67.5t12.5 -42t22 -21.5t32.5 -6t33 6t23.5 21.5t14.5 42t5 67.5zM494 717q-8 -45 -19.5 -73t-26.5 -43.5t-34 -21.5t-43 -6q-16 0 -35 6t-37 13l-33 13t-23 6q-15 0 -19.5 -8.5t-9.5 -32.5q-27 0 -62.5 7t-64.5 18q6 44 18 71.5t27.5 43.5t35.5 22t43 6
q17 0 35 -6t35.5 -12.5t31.5 -12.5t23 -6q14 0 19 7t9 33q11 0 29 -2.5t37.5 -6t37 -7.5t26.5 -8z" />
    <glyph glyph-name="uacute" unicode="&#xfa;" horiz-adv-x="579" 
d="M514 0v526q-41 0 -84.5 -2.5t-80.5 -7.5v-362q-17 -9 -37 -13.5t-34 -4.5q-30 0 -40.5 10t-10.5 36v344q-41 0 -85 -2.5t-80 -7.5v-363q0 -86 39 -124.5t104 -38.5q42 0 73.5 14t62.5 41h8v-45h165zM214 582l49 149h178q-13 -41 -38.5 -85t-53.5 -75q-16 0 -35 1t-37 2.5
t-34.5 3.5t-28.5 4z" />
    <glyph glyph-name="ugrave" unicode="&#xf9;" horiz-adv-x="579" 
d="M349 0v45h-8q-31 -27 -62.5 -41t-73.5 -14q-65 0 -104 38.5t-39 124.5v363q36 5 80 7.5t85 2.5v-344q0 -26 10.5 -36t40.5 -10q14 0 34 4.5t37 13.5v362q37 5 80.5 7.5t84.5 2.5v-526h-165zM374 582q-12 -2 -28.5 -4t-34.5 -3.5t-37 -2.5t-35 -1q-28 31 -53.5 75
t-38.5 85h178l49 -149v0z" />
    <glyph glyph-name="ucircumflex" unicode="&#xfb;" horiz-adv-x="579" 
d="M349 0v45h-8q-31 -27 -62.5 -41t-73.5 -14q-65 0 -104 38.5t-39 124.5v363q36 5 80 7.5t85 2.5v-344q0 -26 10.5 -36t40.5 -10q14 0 34 4.5t37 13.5v362q37 5 80.5 7.5t84.5 2.5v-526h-165zM480 582q-28 -4 -70 -7t-80 -3l-42 76l-41 -76q-37 0 -75 2.5t-76 6.5
q20 44 38.5 78.5t41.5 71.5h224q23 -35 42.5 -71.5t37.5 -77.5z" />
    <glyph glyph-name="udieresis" unicode="&#xfc;" horiz-adv-x="579" 
d="M349 0v45h-8q-31 -27 -62.5 -41t-73.5 -14q-65 0 -104 38.5t-39 124.5v363q36 5 80 7.5t85 2.5v-344q0 -26 10.5 -36t40.5 -10q14 0 34 4.5t37 13.5v362q37 5 80.5 7.5t84.5 2.5v-526h-165zM268 652q0 -35 -20.5 -58.5t-64.5 -23.5q-43 0 -63.5 24t-20.5 58q0 33 20 58.5
t65 25.5q44 0 64 -24.5t20 -59.5zM478 652q0 -35 -20.5 -58.5t-64.5 -23.5q-43 0 -63.5 24t-20.5 58q0 33 20 58.5t65 25.5q44 0 64 -24.5t20 -59.5z" />
    <glyph glyph-name="dagger" unicode="&#x2020;" horiz-adv-x="522" 
d="M344 227v-353q-39 -8 -81.5 -10.5t-84.5 -2.5v366h-151v149h151v169h166v-169h151v-149h-151z" />
    <glyph glyph-name="degree" unicode="&#xb0;" horiz-adv-x="324" 
d="M302 551q0 -60 -37.5 -95t-101.5 -35q-69 0 -105 33.5t-36 94.5t38.5 95t101.5 34q65 0 102.5 -32.5t37.5 -94.5zM202 549q0 28 -11.5 39t-29.5 11q-39 0 -39 -50q0 -49 39 -49q18 0 29.5 11t11.5 38z" />
    <glyph glyph-name="cent" unicode="&#xa2;" 
d="M459 98q-16 -8 -44.5 -16.5t-53.5 -11.5l3 -70h-141l3 73q-88 18 -137.5 80t-49.5 174q0 62 15 108.5t40.5 79.5t59.5 53.5t72 29.5l-3 76h141l-3 -73q24 -2 47.5 -7t43.5 -13q-2 -31 -10.5 -70.5t-18.5 -78.5q-32 14 -65.5 19.5t-55.5 5.5q-42 0 -65.5 -25t-23.5 -94
q0 -39 6.5 -63t18.5 -37.5t30.5 -18.5t42.5 -5q11 0 26 2.5t31 6.5t32 9.5t29 12.5q13 -45 19.5 -81.5t10.5 -65.5z" />
    <glyph glyph-name="sterling" unicode="&#xa3;" 
d="M303 300q5 -16 8 -31.5t3 -32.5q0 -29 -10.5 -51.5t-27.5 -40.5h210q0 -29 -4 -69t-10 -75h-410v130q80 15 80 103q0 17 -5 33.5t-12 33.5h-92v113h41q-4 15 -6.5 31t-2.5 35q0 44 16.5 81.5t48 65t77 43t103.5 15.5q35 0 69 -2.5t70 -11.5q0 -32 -5 -73.5t-12 -72.5
q-12 4 -29.5 7t-36 5.5t-36.5 3.5t-32 1q-38 0 -49.5 -15t-11.5 -53q0 -16 3.5 -31t8.5 -29h184q0 -26 -3 -56.5t-9 -56.5h-118z" />
    <glyph glyph-name="section" unicode="&#xa7;" 
d="M381 149q-13 6 -28.5 15t-30.5 19.5t-28 21.5t-21 19q27 14 39 27t12 29q0 21 -18 36t-45 27.5l-58 26t-58 33.5t-45 48t-18 70q0 36 16 66t44.5 51.5t68 33.5t85.5 12q31 0 65 -3t69 -11q-1 -13 -3 -31t-4.5 -37.5t-6 -39t-6.5 -34.5q-16 4 -35.5 8t-39 7t-37.5 4.5
t-31 1.5q-25 0 -25 -23q0 -11 18 -20.5t45 -21l58.5 -26t58.5 -36t45 -51t18 -71.5q0 -50 -27 -87.5t-77 -63.5zM114 396q13 -6 28.5 -15t30.5 -19.5t28 -21.5t21 -19q-27 -14 -39 -27t-12 -29q0 -21 18 -36t45 -27.5l58 -26t58 -33.5t45 -48t18 -70q0 -36 -16 -66
t-44.5 -51.5t-68 -33.5t-85.5 -12q-31 0 -65 3t-69 11q1 13 3 31t4.5 37.5t6 39t6.5 34.5q17 -4 36 -8t38.5 -7t37.5 -4.5t31 -1.5q25 0 25 21q0 12 -18 22t-45 21.5l-58.5 26t-58.5 36t-45 51.5t-18 71q0 50 27 87.5t77 63.5z" />
    <glyph glyph-name="bullet" unicode="&#x2022;" horiz-adv-x="342" 
d="M299 277q0 -28 -10 -51.5t-27 -39.5t-41 -25t-51 -9q-55 0 -91 34t-36 91t36 92t91 35q27 0 51 -9t41 -26t27 -40t10 -52z" />
    <glyph glyph-name="paragraph" unicode="&#xb6;" 
d="M449 135q0 -50 -9 -90t-29.5 -73t-53.5 -60t-81 -51l-45 60q41 23 66 46.5t39 49t19 54.5t5 62v454q-9 2 -25 3.5t-30 1.5v-459q0 -30 -4 -53t-15.5 -43t-31.5 -37.5t-53 -36.5l-48 66q18 10 30 19t19.5 20t10.5 24t3 31v88h-7q-42 0 -76.5 11t-59 36.5t-38 68
t-13.5 105.5q0 66 17.5 113.5t49 78t74 45.5t93.5 15q52 0 101.5 -7t91.5 -20v-522v0z" />
    <glyph glyph-name="germandbls" unicode="&#xdf;" horiz-adv-x="590" 
d="M235 0h-165v529q0 100 62 157.5t180 57.5q103 0 157 -39.5t54 -105.5q0 -40 -14 -67.5t-31 -50.5t-31 -45.5t-14 -54.5q0 -25 20.5 -47.5l44.5 -48t44.5 -58t20.5 -76.5q0 -40 -13 -70t-36.5 -50.5t-55.5 -30.5t-70 -10q-32 0 -64 5.5t-61 18.5q0 17 1 36.5t3 38t5 36
t6 30.5q20 -11 43 -17t43 -6q29 0 29 27q0 23 -19 42.5l-41.5 42.5t-41.5 53t-19 74q0 34 11.5 60t25 47.5l25 40.5t11.5 40q0 25 -10.5 38t-36.5 13q-34 0 -48.5 -22.5t-14.5 -59.5v-528z" />
    <glyph glyph-name="registered" unicode="&#xae;" horiz-adv-x="721" 
d="M664 338q0 -72 -22.5 -130t-63 -99.5t-96.5 -64t-122 -22.5t-121.5 22t-96 63.5t-63 100t-22.5 130.5q0 70 22.5 127.5t63 99t96 64t121.5 22.5q64 0 119.5 -21.5t96.5 -62t64.5 -98.5t23.5 -131zM601 335q0 63 -18.5 112t-51 82t-76.5 50.5t-95 17.5q-55 0 -99 -17
t-75.5 -50t-48.5 -82t-17 -113q0 -59 17 -107t48.5 -81.5t75.5 -52t99 -18.5q53 0 97 17t76 49.5t50 81t18 111.5zM522 158q-9 -2 -24 -4.5t-32.5 -4t-33.5 -2.5t-26 -1l-32 83q-14 33 -28 49h-15v-130h-114v372q90 9 146 9q30 0 55.5 -5.5t44 -19t29 -35.5t10.5 -55
q0 -35 -16 -60t-43 -39q13 -11 23 -29.5t18 -35.5l38 -92v0zM385 403q0 42 -32 42h-11t-11 -1v-86h16q16 0 27 9.5t11 35.5z" />
    <glyph glyph-name="Eth" unicode="&#xd0;" horiz-adv-x="676" 
d="M631 351q0 -86 -23 -153t-64.5 -113t-99 -70t-126.5 -24q-28 0 -60.5 1t-65.5 3t-63 5t-54 7v268h-35v140h35v250q24 3 56 6t66 5.5t66 3.5t54 1q63 0 120 -18.5t100 -58.5t68.5 -102.5t25.5 -150.5zM442 339q0 59 -9.5 96.5t-27 59.5t-41 30t-50.5 8h-33q-15 0 -30 -1
v-117h97q0 -39 -2.5 -73.5t-7.5 -66.5h-87v-131q14 -1 32 -1h30q33 0 57 8.5t40 31t24 60.5t8 96z" />
    <glyph glyph-name="eth" unicode="&#xf0;" horiz-adv-x="566" 
d="M526 362q0 -178 -62 -275t-186 -97q-57 0 -101.5 13t-74.5 42t-46 76.5t-16 117.5q0 74 15.5 126t45 86t70.5 49.5t92 15.5q19 0 41.5 -2t41.5 -6q0 48 -30 68.5t-87 22.5l-18 -63q-21 1 -40.5 4t-37.5 10l12 42q-17 -2 -32.5 -5.5t-28.5 -7.5q0 37 2.5 78.5t7.5 68.5
q20 5 44.5 9.5t50.5 6.5l20 68q18 0 41 -4.5t37 -12.5l-15 -51q52 -4 98.5 -23t81 -62.5t54.5 -115t20 -179.5zM356 296v38q0 22 -1 37q-16 7 -31 10t-36 3q-17 0 -30.5 -6.5t-23.5 -22t-15 -41.5t-5 -64q0 -67 13 -94t53 -27q20 0 34.5 8.5t23.5 28t13.5 51.5t4.5 79z" />
    </font>
</defs>
</svg>
