<?xml version="1.0" standalone="no"?>
<!DOCTYPE svg PUBLIC "-//W3C//DTD SVG 1.1//EN" "http://www.w3.org/Graphics/SVG/1.1/DTD/svg11.dtd" >
<svg>
<metadata>
Created by FontForge 20090622 at Wed May 20 14:34:36 2015
 By deploy user
Copyright (C) 2005 Emigre Inc.; Designed by Xavier Dupre
</metadata>
<defs>
<font id="VistaSansBookItalic" horiz-adv-x="500" >
  <font-face 
    font-family="VistaSansBookItalic"
    font-weight="500"
    font-style="italic"
    font-stretch="normal"
    units-per-em="1000"
    panose-1="2 0 6 3 5 0 0 9 0 4"
    ascent="800"
    descent="-200"
    x-height="522"
    cap-height="674"
    bbox="-141 -217 1102 846"
    underline-thickness="20"
    underline-position="-123"
    slope="-12"
    unicode-range="U+0020-U+FB02"
  />
<missing-glyph 
 />
    <glyph glyph-name=".notdef" 
 />
    <glyph glyph-name=".null" horiz-adv-x="0" 
 />
    <glyph glyph-name="nonmarkingreturn" 
 />
    <glyph glyph-name="space" unicode=" " horiz-adv-x="204" 
 />
    <glyph glyph-name="parenleft" unicode="(" horiz-adv-x="264" 
d="M314 728q-51 -70 -89 -147.5t-63 -156.5t-37 -158t-12 -154q0 -72 11.5 -144t34.5 -132q-14 -5 -34.5 -8t-34.5 -3q-28 67 -41.5 145.5t-13.5 153.5q0 162 52.5 320.5t157.5 296.5q6 0 15 -1t19 -3l19.5 -4t15.5 -5z" />
    <glyph glyph-name="parenright" unicode=")" horiz-adv-x="264" 
d="M230 442q0 -162 -53 -320.5t-158 -296.5q-11 0 -33.5 4t-35.5 9q52 70 90 147.5t62.5 156.5t36.5 158t12 154q0 72 -11.5 144t-34.5 132q14 5 34.5 8t34.5 3q28 -67 42 -145.5t14 -153.5z" />
    <glyph glyph-name="asterisk" unicode="*" horiz-adv-x="422" 
d="M273 473l85 -124q-14 -14 -32 -25t-40 -22l-55 145l-107 -138q-17 8 -34 18.5t-31 24.5l137 124l-145 34q3 19 10.5 40t16.5 38l141 -68l11 158q20 4 41.5 5t41.5 1l-47 -165l154 62q7 -17 13 -37t9 -40z" />
    <glyph glyph-name="plus" unicode="+" horiz-adv-x="496" 
d="M448 243h-175l-34 -198h-63l35 198h-175l11 60h174l36 197h63l-36 -197h175z" />
    <glyph glyph-name="comma" unicode="," horiz-adv-x="215" 
d="M129 113q0 -10 -2 -27t-4 -27q-5 -29 -16.5 -56.5t-30.5 -55.5t-46 -57.5t-63 -62.5l-55 28l63 65t42.5 53t25.5 50t13 55l5 35h68v0z" />
    <glyph glyph-name="hyphen" unicode="-" horiz-adv-x="250" 
d="M213 266h-183l12 68h183z" />
    <glyph glyph-name="hyphen" unicode="&#xad;" horiz-adv-x="250" 
d="M213 266h-183l12 68h183z" />
    <glyph glyph-name="period" unicode="." horiz-adv-x="215" 
d="M121 46q0 -28 -15.5 -42.5t-36.5 -14.5q-43 0 -43 40q0 27 15.5 42t37.5 15q20 0 31 -11t11 -29z" />
    <glyph glyph-name="slash" unicode="/" horiz-adv-x="370" 
d="M-19 -114q-17 4 -32 8.5t-27 12.5l442 777q14 0 33 -4t33 -9z" />
    <glyph glyph-name="zero" unicode="0" 
d="M466 355q0 -21 -2 -43.5t-6 -47.5q-23 -142 -87 -208t-163 -66q-79 0 -126 47.5t-47 154.5q0 41 9 90q12 74 35.5 125.5t55.5 84.5t72.5 48t86.5 15q81 0 126.5 -47.5t45.5 -152.5zM390 362q0 60 -24 93t-78 33q-72 0 -110 -53t-57 -158q-5 -26 -7.5 -49.5t-2.5 -43.5
q0 -63 24.5 -95t77.5 -32q70 0 108 50.5t59 161.5q10 50 10 93z" />
    <glyph glyph-name="one" unicode="1" 
d="M435 72q-3 -16 -7.5 -35.5t-11.5 -36.5h-392l13 72h186l70 399l-175 -26q-3 14 -3 30q0 21 5 38l187 32h74l-83 -473h137v0z" />
    <glyph glyph-name="two" unicode="2" 
d="M416 401q0 -43 -16 -82.5t-49.5 -79t-87 -80.5t-128.5 -87h263l-8.5 -35.5t-11.5 -36.5h-371l8 66q90 56 151 99t98.5 80t53.5 72t16 74q0 48 -29 70t-77 22q-32 0 -66.5 -7t-57.5 -18q-3 20 -3 41q0 9 0.5 17.5t1.5 15.5q35 13 68.5 18t69.5 5q79 0 127 -38t48 -116z
" />
    <glyph glyph-name="three" unicode="3" 
d="M425 400q0 -71 -35 -113.5t-91 -59.5v-4q42 -17 65.5 -51t23.5 -87q0 -56 -20 -98t-55 -70t-81 -42t-99 -14q-37 0 -79 6.5t-71 20.5q3 20 8.5 40.5t12.5 34.5q29 -16 62.5 -22.5t75.5 -6.5q74 0 119 37.5t45 112.5q0 56 -32.5 79.5t-85.5 23.5h-94l12 71h94
q71 0 107.5 35t36.5 89q0 51 -29.5 76t-82.5 25q-36 0 -66.5 -5t-58.5 -15q-3 12 -3 30q0 11 1 23t3 21q32 10 67 14t74 4q36 0 68 -9.5t56 -28.5t38 -48t14 -69z" />
    <glyph glyph-name="four" unicode="4" 
d="M440 102q-4 -17 -9 -35t-11 -34h-77l-29 -162h-74l29 162h-255l14 75l75.5 119.5l79.5 120l78.5 112l70.5 95.5q14 -1 34.5 -5.5t31.5 -10.5l-298 -439h181l35 199h74l-35 -197h85v0z" />
    <glyph glyph-name="five" unicode="5" 
d="M488 545q-2 -17 -7 -35.5t-11 -35.5h-247l-56 -208q50 0 94.5 -9t79 -30t54.5 -56.5t20 -88.5q0 -54 -19 -95t-52.5 -69t-79.5 -42.5t-101 -14.5q-30 0 -69 6.5t-70 18.5q8 40 23 73q23 -11 57.5 -18t66.5 -7q74 0 120 34.5t46 107.5q0 63 -42 91t-124 28q-28 0 -49 -1
t-40 -3q9 44 20 90.5l23 93t24.5 90t24.5 80.5h314v0z" />
    <glyph glyph-name="six" unicode="6" 
d="M482 669q0 -15 -4 -35.5t-9 -34.5q-17 6 -46 10.5t-56 4.5q-40 0 -74.5 -13.5t-62 -43.5t-48.5 -79t-35 -120h4q31 38 65.5 53.5t75.5 15.5q33 0 61 -10t48.5 -30.5t32.5 -52.5t12 -76q0 -57 -14 -106t-41.5 -85t-68 -56.5t-92.5 -20.5q-83 0 -129 50.5t-46 163.5
q0 49 9 109q15 100 42.5 170.5t66.5 115t88.5 65t108.5 20.5q27 0 59.5 -3.5t52.5 -11.5zM369 257q0 56 -27.5 81.5t-75.5 25.5q-35 0 -61 -15t-43 -41t-25.5 -61t-8.5 -75q0 -57 27.5 -86.5t78.5 -29.5q66 0 100.5 53.5t34.5 147.5z" />
    <glyph glyph-name="seven" unicode="7" 
d="M473 477l-95 -145l-109 -160.5l-112.5 -161l-105.5 -146.5q-19 2 -38.5 5.5t-34.5 9.5l412 595h-304q0 17 1.5 35.5t5.5 35.5h388z" />
    <glyph glyph-name="eight" unicode="8" 
d="M477 541q0 -64 -34.5 -112t-105.5 -74q50 -26 73.5 -67.5t23.5 -89.5q0 -49 -16 -88t-44.5 -65.5t-69 -40.5t-90.5 -14q-37 0 -69 9t-55.5 29t-37 51t-13.5 75q0 135 150 200q-39 26 -58 60t-19 76q0 47 15 83t41.5 61t63 37.5t80.5 12.5q74 0 119.5 -37t45.5 -106z
M401 534q0 38 -25 61.5t-70 23.5q-62 0 -90 -35t-28 -89q0 -41 19 -70.5t68 -43.5q59 18 91.5 58.5t34.5 94.5zM355 199q0 45 -24 77t-78 50q-69 -23 -103 -66.5t-34 -100.5q0 -48 24 -76.5t81 -28.5q68 0 100.5 40.5t33.5 104.5z" />
    <glyph glyph-name="nine" unicode="9" 
d="M448 341q0 -25 -2 -52t-6 -57q-13 -100 -40.5 -170.5t-67 -115t-89.5 -65t-109 -20.5q-28 0 -60 3.5t-52 11.5q0 15 3.5 35.5t9.5 34.5q17 -6 46 -10.5t55 -4.5q41 0 75 13.5t62 43.5t49 79t34 120h-4q-30 -38 -64.5 -53.5t-76.5 -15.5q-33 0 -61 10t-48.5 30.5t-32 52.5
t-11.5 76q0 57 14 106t41.5 85t67.5 56.5t92 20.5q83 0 129 -50.5t46 -163.5zM375 373q0 57 -27 86.5t-78 29.5q-66 0 -100.5 -53.5t-34.5 -147.5q0 -56 27.5 -81.5t74.5 -25.5q35 0 61 15t43 41t25.5 61t8.5 75z" />
    <glyph glyph-name="colon" unicode=":" horiz-adv-x="215" 
d="M120 46q0 -28 -15.5 -42.5t-36.5 -14.5q-43 0 -43 40q0 27 15.5 42t37.5 15q20 0 31 -11t11 -29zM190 445q0 -27 -15 -42t-37 -15q-20 0 -31 11t-11 29q0 28 15 42.5t38 14.5q41 0 41 -40z" />
    <glyph glyph-name="semicolon" unicode=";" horiz-adv-x="215" 
d="M191 445q0 -27 -15 -42t-37 -15q-20 0 -31.5 11t-11.5 29q0 28 15.5 42.5t37.5 14.5q20 0 31 -10.5t11 -29.5zM131 113q0 -10 -2 -27t-4 -27q-5 -29 -16.5 -56.5t-30 -55.5t-45.5 -57.5t-63 -62.5l-56 28l63 65t42.5 53t25.5 50t13 55l5 35h68v0z" />
    <glyph glyph-name="less" unicode="&#x3c;" horiz-adv-x="393" 
d="M130 275l160 -224v-6h-77l-167 235l242 220h79v-8z" />
    <glyph glyph-name="equal" unicode="=" horiz-adv-x="490" 
d="M76 342l10 59h360l-10 -59h-360zM43 152l10 59h360l-10 -59h-360z" />
    <glyph glyph-name="greater" unicode="&#x3e;" horiz-adv-x="393" 
d="M104 44h-79v8l237 217l-160 224v6h77l167 -235z" />
    <glyph glyph-name="question" unicode="?" horiz-adv-x="368" 
d="M381 529q0 -41 -13 -75.5t-42 -63.5t-74.5 -53t-110.5 -45l-18 -104q-16 -3 -33.5 -5t-32.5 -3q1 33 4.5 77t9.5 79q113 29 172.5 70.5t59.5 111.5q0 48 -31 71.5t-87 23.5q-28 0 -53 -3t-48 -8q-3 8 -4.5 20.5t-1.5 24.5q0 6 0.5 13t1.5 13q53 11 118 11q38 0 71.5 -9.5
t58 -28.5t39 -48t14.5 -69zM119 45q0 -27 -15 -41.5t-37 -14.5q-20 0 -31 10.5t-11 28.5q0 28 15 42.5t38 14.5q41 0 41 -40z" />
    <glyph glyph-name="at" unicode="@" horiz-adv-x="844" 
d="M795 391q0 -64 -15 -119.5t-42 -96.5t-64.5 -64.5t-82.5 -23.5q-36 0 -60.5 10t-35.5 39h-2q-36 -28 -71 -38.5t-68 -10.5q-54 0 -84.5 28.5t-30.5 79.5v13t2 12q4 32 17.5 53t35 34t50.5 19.5t64 7.5l111 4l19 110q-13 8 -40 13.5t-53 5.5q-30 0 -59 -4.5t-48 -12.5
q-3 11 -3 29q0 17 3 32q51 14 111 14q43 0 86.5 -10t72.5 -29l-52 -295q-1 -5 -1 -9v-7q0 -36 44 -36q24 0 48.5 16t44.5 48t32.5 79.5t12.5 110.5q0 57 -19.5 101t-55 74t-84.5 45t-108 15q-84 0 -148.5 -27t-109 -78t-67 -124.5t-22.5 -167.5q0 -114 57.5 -179t174.5 -65
q15 0 35.5 2t41 5t39 7.5t31.5 8.5q3 -15 3 -34q0 -16 -3 -26q-14 -5 -33 -8.5t-39.5 -6t-41.5 -4t-38 -1.5q-66 0 -119.5 20.5t-91.5 59t-58.5 94.5t-20.5 126q0 116 32.5 201t89 141.5t132.5 84t163 27.5q71 0 129.5 -19t100.5 -56t65 -92t23 -126zM401 283
q-45 -2 -66.5 -15t-26.5 -48q-1 -5 -1 -9v-9q0 -29 15.5 -44.5t49.5 -15.5q30 0 61.5 10.5t57.5 30.5l19 105z" />
    <glyph glyph-name="A" unicode="A" horiz-adv-x="568" 
d="M515 6q-19 -6 -39 -8t-40 -3l-34 215h-240l-108 -215q-18 1 -39.5 3.5t-38.5 7.5l165 331l179 337h87q30 -164 57.5 -334.5t50.5 -333.5zM351 549q-1 5 -1 8v8v11q0 7 1 18h-6q-2 -15 -6 -27t-7 -18l-137 -270h198z" />
    <glyph glyph-name="B" unicode="B" horiz-adv-x="583" 
d="M544 525q0 -62 -34 -108.5t-91 -61.5v-6q44 -16 69.5 -49t25.5 -90q0 -59 -22 -100.5t-58.5 -68t-85 -38.5t-101.5 -12q-35 0 -87.5 3.5t-104.5 10.5l117 662q45 7 92.5 10.5t89.5 3.5t77 -9t60 -28t39 -48.5t14 -70.5zM460 517q0 48 -26.5 73t-85.5 25q-23 0 -48 -1.5
t-57 -4.5l-41 -232h117q60 0 100.5 34.5t40.5 105.5zM427 210q0 50 -27.5 77t-86.5 27h-122l-44 -248q32 -4 59.5 -5.5t47.5 -1.5q78 0 125.5 35.5t47.5 115.5z" />
    <glyph glyph-name="C" unicode="C" horiz-adv-x="574" 
d="M577 650l-11 -38t-14 -39q-30 17 -75 26.5t-84 9.5q-71 0 -119.5 -34t-77.5 -111q-22 -56 -34 -138q-4 -25 -6 -48t-2 -44q0 -90 40 -129.5t122 -39.5q42 0 85 9.5t80 29.5q2 -11 3 -22l2 -23q1 -9 1.5 -18t0.5 -18q-19 -9 -42.5 -15t-47.5 -10t-47 -6t-41 -2
q-117 0 -180.5 60.5t-63.5 189.5q0 26 2 52.5t7 55.5q12 71 34 126q40 106 114 158t179 52q22 0 46.5 -2.5t48 -7t44.5 -10.5t36 -14z" />
    <glyph glyph-name="D" unicode="D" horiz-adv-x="682" 
d="M639 423q0 -105 -26 -185.5t-73 -135.5t-112.5 -83t-145.5 -28q-23 0 -51.5 1t-58.5 2.5t-60 4t-56 6.5l116 662l52.5 6t55 4.5t54 2.5t48.5 1q56 0 103 -15t81 -46.5t53.5 -80t19.5 -116.5zM551 423q0 57 -16 93t-42 56.5t-59 28t-66 7.5q-29 0 -58.5 -1.5t-64.5 -4.5
l-94 -531q14 -1 31 -2.5t35 -2.5t35.5 -1.5t32.5 -0.5q61 0 110.5 23t84 68t53 112.5t18.5 155.5z" />
    <glyph glyph-name="E" unicode="E" horiz-adv-x="545" 
d="M544 674q-3 -19 -7.5 -38t-11.5 -36h-280l-38 -210h214l-12 -74h-214l-43 -242h302q-2 -17 -6.5 -36.5t-11.5 -37.5h-381l119 674h370v0z" />
    <glyph glyph-name="F" unicode="F" horiz-adv-x="516" 
d="M549 674q-6 -37 -18 -74h-286l-39 -225h234l-13 -74h-235l-53 -301h-84l119 674h375v0z" />
    <glyph glyph-name="G" unicode="G" horiz-adv-x="641" 
d="M602 652q-4 -20 -10 -40t-14 -37q-15 8 -36 14t-43.5 10.5t-45 7t-40.5 2.5q-51 0 -91 -11.5t-71 -41.5t-52.5 -82.5t-35.5 -135.5q-5 -27 -7 -55t-2 -48q0 -49 11.5 -82t33.5 -52.5t54.5 -27.5t74.5 -8q23 0 55.5 5t58.5 16l31 181h-134q-1 6 -1.5 11.5t-0.5 11.5
q0 13 1.5 26t4.5 24h226l-55 -311q-19 -9 -43 -16t-50 -12t-53 -8t-51 -3q-68 0 -115.5 17.5t-77.5 49.5t-44 79t-14 105q0 24 2 52t7 56q16 93 46 157t73.5 103.5t99.5 57t122 17.5q43 0 94.5 -7.5t91.5 -24.5z" />
    <glyph glyph-name="H" unicode="H" horiz-adv-x="685" 
d="M534 0h-85l57 319h-311l-56 -319h-84l119 674h84l-50 -280h311l49 280h85z" />
    <glyph glyph-name="I" unicode="I" horiz-adv-x="290" 
d="M139 0h-84l119 674h84z" />
    <glyph glyph-name="J" unicode="J" horiz-adv-x="301" 
d="M160 49q-9 -52 -24.5 -89.5t-40.5 -62.5t-60 -38t-83 -16q-2 8 -3.5 19.5t-1.5 22.5q0 21 3 38q58 0 85.5 28t38.5 89l111 634h84z" />
    <glyph glyph-name="K" unicode="K" horiz-adv-x="605" 
d="M352 394q49 -91 91.5 -183.5t89.5 -205.5q-20 -5 -41 -7.5t-41 -2.5l-158 341l-116 -111l-39 -225h-83l119 674h83l-59 -332h4l343 337q9 0 21 -0.5t25 -2t25.5 -3.5t20.5 -5z" />
    <glyph glyph-name="L" unicode="L" horiz-adv-x="472" 
d="M432 75q-4 -18 -9 -37t-12 -38h-356l119 674h84l-106 -599h280v0z" />
    <glyph glyph-name="M" unicode="M" horiz-adv-x="840" 
d="M772 674q-11 -170 -25 -338.5t-32 -335.5h-79l48 502q1 12 3.5 29t4.5 33h-6l-10.5 -36t-9.5 -26l-251 -502h-77l-74 502q-1 5 -1.5 23.5t-0.5 38.5h-7q-2 -20 -4 -35.5t-5 -26.5l-135 -506q-17 0 -38.5 2t-35.5 6l87.5 333.5l95.5 336.5h95l75 -504q2 -11 2 -32v-44h7
q11 49 25 77l250 503h98v0z" />
    <glyph glyph-name="N" unicode="N" horiz-adv-x="686" 
d="M536 3q-17 -4 -38.5 -6t-38.5 -2l-211 507l-18 61l-6 -1q0 -20 -1 -38t-4 -33l-86 -491h-78l117 667q20 5 44.5 7t42.5 2l200 -478q5 -13 10 -31t10 -39l7 1q1 18 3 40t5 39l82 466h78z" />
    <glyph glyph-name="O" unicode="O" horiz-adv-x="665" 
d="M622 429q0 -48 -7.5 -92.5t-18.5 -86.5q-36 -134 -111.5 -197t-187.5 -63q-110 0 -170.5 63.5t-60.5 188.5q0 38 4.5 74.5t14.5 78.5q33 147 110 218t196 71q111 0 171 -64t60 -191zM534 443q0 90 -40 129t-113 39q-43 0 -77 -13t-59.5 -41t-43.5 -72.5t-30 -108.5
q-8 -37 -12.5 -73t-4.5 -74q0 -166 150 -166q44 0 77 11.5t58 37.5t43.5 67.5t31.5 102.5q8 38 14 78.5t6 82.5z" />
    <glyph glyph-name="P" unicode="P" horiz-adv-x="563" 
d="M548 503q0 -62 -22 -108.5t-59.5 -77.5t-86.5 -46.5t-103 -15.5h-94l-45 -255h-83l118 667q49 7 90 10.5t89 3.5q43 0 79 -9.5t62 -31t40.5 -55.5t14.5 -82zM463 501q0 63 -33 87.5t-86 24.5q-23 0 -48 -1.5t-51 -4.5l-50 -282h82q40 0 74 10.5t59 32t39 54.5t14 79z" />
    <glyph glyph-name="Q" unicode="Q" horiz-adv-x="665" 
d="M622 427q0 -45 -9 -101q-26 -161 -99.5 -244.5t-198.5 -88.5q-2 -8 -3.5 -20t-1.5 -19q0 -41 24 -58t72 -17q20 0 48 4.5t44 10.5q3 -15 3 -34t-3 -40q-26 -8 -52 -11.5t-49 -3.5q-37 0 -67 8t-51 25t-32.5 44t-11.5 65q0 8 1 22t4 28q-79 14 -126.5 74t-47.5 171
q0 23 2 51t7 55q29 171 108 253.5t208 82.5q112 0 171.5 -65t59.5 -192zM534 442q0 47 -11 79t-31 52t-48 29t-63 9q-43 0 -77.5 -13t-61 -43.5t-45.5 -81.5t-32 -128q-5 -32 -8 -62t-3 -54q0 -166 149 -166q48 0 83.5 13.5t61 45t44 82t31.5 124.5q6 32 8.5 60.5t2.5 53.5z
" />
    <glyph glyph-name="R" unicode="R" horiz-adv-x="592" 
d="M543 514q0 -81 -46 -137t-128 -70q24 -23 48.5 -62.5t43.5 -93.5l49 -144q-20 -6 -42 -8.5t-44 -3.5l-37 113q-20 58 -43 103.5t-46 71.5h-111l-50 -283h-82l117 667q47 7 91.5 10.5t85.5 3.5q42 0 77.5 -9t61.5 -28.5t40.5 -51.5t14.5 -78zM458 508q0 58 -30.5 81
t-88.5 23q-22 0 -47.5 -2t-47.5 -4l-45 -256h88q79 0 125 40.5t46 117.5z" />
    <glyph glyph-name="S" unicode="S" horiz-adv-x="516" 
d="M496 668q-2 -20 -7 -39.5t-13 -36.5q-29 9 -70 14t-73 5q-79 0 -109.5 -30t-30.5 -80q0 -33 19 -55t47 -40.5t61.5 -36.5t61.5 -41.5t47 -56.5t19 -81q0 -43 -17 -79.5t-48.5 -63.5t-76 -42t-99.5 -15q-21 0 -44.5 2t-47 5.5t-45.5 9.5t-40 15q5 20 11 39.5t14 34.5
q38 -17 79 -25t84 -8q76 0 110 32t34 86q0 37 -19 62t-47 44.5t-61.5 37t-61.5 39t-47 51.5t-19 75q0 48 19 84.5t52.5 60.5t79 36.5t97.5 12.5q16 0 35 -1t37.5 -3t36.5 -5t32 -7z" />
    <glyph glyph-name="T" unicode="T" horiz-adv-x="489" 
d="M547 674q-3 -18 -8.5 -37t-13.5 -37h-175l-106 -600h-84l106 600h-178l13 74h446v0z" />
    <glyph glyph-name="U" unicode="U" horiz-adv-x="670" 
d="M568 266q-12 -65 -30 -116t-48 -86.5t-75.5 -54.5t-112.5 -19q-49 0 -88.5 10t-67.5 33t-43 59.5t-15 89.5q0 19 3.5 48t8.5 55l68 389h84l-71 -401q-4 -23 -6.5 -47.5t-2.5 -38.5q0 -60 31 -90.5t104 -30.5q40 0 69.5 10t51 32t35.5 57t23 85l76 424h78z" />
    <glyph glyph-name="V" unicode="V" horiz-adv-x="581" 
d="M626 669l-161.5 -340l-171.5 -329h-88q-31 161 -55.5 329.5t-41.5 339.5q17 3 40 5.5t39 2.5l71 -537q2 -11 3 -25.5t1 -28.5h6q3 14 8.5 28.5t10.5 25.5l261 537q16 0 40 -2.5t38 -5.5z" />
    <glyph glyph-name="W" unicode="W" horiz-adv-x="902" 
d="M922 669q-60 -163 -131.5 -335.5l-143.5 -333.5h-88l-52 500q-2 14 -2 32v33h-6q-10 -49 -22 -73l-225 -492h-88q-8 97 -15.5 202t-12.5 212q-3 65 -5 128.5t-2 126.5q17 4 40 6t37 2l22 -509q1 -15 1 -37v-31h6q4 18 9 35.5t11 31.5l233 507h76l51 -507q2 -13 2 -30v-37
h6q2 14 7.5 33.5t10.5 33.5l206 510q16 0 38.5 -2t36.5 -6z" />
    <glyph glyph-name="X" unicode="X" horiz-adv-x="601" 
d="M380 349l147 -344q-21 -5 -43.5 -7.5t-43.5 -2.5l-109 258q-4 9 -7.5 20.5t-5.5 23.5h-6q-6 -11 -12.5 -21.5t-14.5 -21.5l-200 -259q-9 0 -21 0.5t-24.5 2l-24.5 3t-20 4.5l273 343l-146 321q23 4 47.5 5.5t44.5 1.5l105 -240q8 -18 11 -39h5q5 10 11 19.5t15 21.5
l181 238q9 0 21.5 -0.5l25.5 -1t24.5 -2t20.5 -3.5z" />
    <glyph glyph-name="Y" unicode="Y" horiz-adv-x="556" 
d="M607 669l-70 -109l-68.5 -102l-69.5 -99.5l-74 -102.5l-45 -256h-85l45 256q-42 103 -74 206.5t-60 206.5q19 4 42.5 5.5t40.5 1.5l92 -295q8 -24 11 -50h6q13 27 29 52l196 293q19 0 43 -1.5t41 -5.5z" />
    <glyph glyph-name="Z" unicode="Z" horiz-adv-x="550" 
d="M554 608l-443 -534h355q-2 -17 -7.5 -37.5t-11.5 -36.5h-447l5 67l442 533h-329q0 18 2 38t7 36h432z" />
    <glyph glyph-name="bracketleft" unicode="[" horiz-adv-x="349" 
d="M377 735q-2 -15 -5.5 -34t-10.5 -36h-109l-137 -770h107q1 -5 1 -10v-11q0 -28 -7 -49h-189l161 910h189v0z" />
    <glyph glyph-name="backslash" unicode="\" horiz-adv-x="370" 
d="M319 -93q-15 -8 -30.5 -12.5t-34.5 -8.5l-174 785q15 5 34 9t33 4l172 -777v0z" />
    <glyph glyph-name="bracketright" unicode="]" horiz-adv-x="349" 
d="M153 -175h-189q2 15 6 34t10 36h109l137 770h-106q-1 5 -1.5 10.5t-0.5 10.5q0 13 2 25.5t5 23.5h189z" />
    <glyph glyph-name="asciicircum" unicode="^" horiz-adv-x="492" 
d="M440 364q-15 -4 -33 -5.5t-35 -1.5l-61 265l-158 -265q-14 0 -35 1.5t-35 4.5q19 36 44 79l51 86l51 81.5l43 64.5h91q8 -25 18.5 -63.5t21 -81.5l20.5 -86.5t17 -78.5z" />
    <glyph glyph-name="underscore" unicode="_" 
d="M-69 -139l11 61h516q-3 -14 -8 -30.5t-11 -30.5h-508z" />
    <glyph glyph-name="grave" unicode="`" 
d="M313 579q-12 -4 -27.5 -5.5t-29.5 -1.5q-26 37 -44.5 79t-26.5 80h77l51 -152v0z" />
    <glyph glyph-name="a" unicode="a" horiz-adv-x="530" 
d="M471 43q-6 -29 -21.5 -41t-43.5 -12q-33 0 -55 12.5t-33 44.5h-3q-40 -33 -78.5 -45t-77.5 -12q-65 0 -100 33t-35 92v14t1 14q6 42 22.5 69t43.5 43t64 23t83 9l111 5l27 148q-17 10 -48 16t-63 6t-66 -5.5t-59 -14.5q-1 7 -1.5 15t-0.5 16q0 10 1 21.5t3 20.5
q35 10 66.5 13.5t65.5 3.5q25 0 51 -3t50.5 -9t46 -15t36.5 -21l-67 -381q-1 -5 -1 -12q0 -25 29 -25h55zM226 231q-57 -2 -85 -21t-36 -66q-1 -5 -1 -10v-10q0 -34 16.5 -51.5t56.5 -17.5q34 0 71 11t68 36l24 133z" />
    <glyph glyph-name="b" unicode="b" horiz-adv-x="571" 
d="M515 342q0 -17 -2 -42t-5 -45q-21 -135 -86.5 -200t-172.5 -65q-51 0 -101.5 13.5t-86.5 41.5l122 692q15 3 38.5 5t40.5 2l-47 -262h5q32 26 64.5 38t67.5 12q34 0 63.5 -11.5t51.5 -35t35 -59.5t13 -84zM434 340q0 68 -31.5 95t-77.5 27q-67 0 -121 -44l-58 -333
q9 -6 22 -11t28 -8t30 -5t27 -2q66 0 110.5 44t61.5 148q3 20 6 47t3 42z" />
    <glyph glyph-name="c" unicode="c" horiz-adv-x="475" 
d="M452 510q-4 -20 -9 -38.5t-13 -35.5q-23 11 -56.5 16.5t-65.5 5.5q-68 0 -108.5 -46.5t-54.5 -145.5q-2 -17 -3.5 -34.5t-1.5 -34.5q0 -73 31.5 -103t93.5 -30q29 0 59.5 7t56.5 22q5 -17 7.5 -36t3.5 -36q-15 -9 -32.5 -14.5t-36 -9.5t-36 -5.5t-31.5 -1.5
q-97 0 -148 53t-51 154q0 35 6 74q12 77 38 127.5t60 80t75 41.5t83 12q33 0 70.5 -5.5t62.5 -16.5z" />
    <glyph glyph-name="d" unicode="d" horiz-adv-x="576" 
d="M427 443q-21 9 -54 14.5t-57 5.5q-25 0 -49.5 -7.5t-46.5 -26t-39 -50t-28 -78.5q-8 -32 -11.5 -61t-3.5 -59q0 -33 8 -56.5t22.5 -37.5t34 -20.5t42.5 -6.5q32 0 61.5 9t60.5 32zM427 0h-78l7 40h-4q-31 -26 -63 -38t-70 -12q-72 0 -117 48.5t-45 141.5q0 35 4 66t10 59
q14 62 38.5 105.5t57.5 70.5t72 39t81 12q12 0 27.5 -1.5t32 -3.5t32 -5.5t27.5 -8.5l40 224q15 3 38.5 5t40.5 2z" />
    <glyph glyph-name="e" unicode="e" horiz-adv-x="520" 
d="M475 371q0 -20 -5.5 -53.5t-13.5 -66.5h-314q-6 -33 -6 -60q0 -67 30.5 -97.5t96.5 -30.5q36 0 73 9.5t62 23.5q5 -16 7.5 -35t3.5 -36q-32 -17 -73.5 -26t-79.5 -9q-99 0 -149 53t-50 154q0 34 6 73q11 73 34.5 123t55.5 81t71.5 44.5t82.5 13.5q80 0 124 -42t44 -119z
M400 374q0 51 -27 73.5t-72 22.5q-56 0 -94 -38.5t-55 -125.5h238q5 17 7.5 37t2.5 31z" />
    <glyph glyph-name="f" unicode="f" horiz-adv-x="343" 
d="M390 740q-2 -17 -5.5 -35t-8.5 -35q-11 2 -23.5 2.5t-23.5 0.5q-35 0 -54 -19.5t-26 -60.5l-12 -71h116q-6 -32 -17 -67h-111l-80 -455h-78l80 455h-64l12 67h64l12 66q9 47 26 77t40 47.5t50.5 24.5t55.5 7q11 0 25 -1t22 -3z" />
    <glyph glyph-name="g" unicode="g" horiz-adv-x="538" 
d="M535 522q-3 -29 -14 -57l-78 -5l-2 -3q10 -15 15.5 -32.5t5.5 -38.5q0 -49 -16 -85t-43 -59t-62 -34.5t-73 -11.5q-20 0 -44 3.5t-40 9.5q-25 -29 -35.5 -47.5t-10.5 -34.5q0 -27 24 -27h147q30 0 54.5 -6t42.5 -21t27.5 -39.5t9.5 -61.5q0 -42 -15 -76.5t-45 -59
t-75 -38.5t-104 -14q-55 0 -92.5 11.5t-60 31t-32.5 46t-10 57.5t14.5 60.5t57.5 64.5q-6 12 -10 30.5t-6 38.5q11 27 31.5 59t42.5 54q-20 19 -30 45.5t-10 56.5q0 49 15.5 85.5t42.5 60.5t62.5 35.5t75.5 11.5q22 0 45.5 -2.5t39.5 -7.5h155v0zM368 -41q0 42 -16 55.5
t-50 13.5h-179q-23 -19 -32 -39t-9 -46q0 -48 29 -71t99 -23q75 0 116.5 26t41.5 84zM390 391q0 45 -24.5 64.5t-68.5 19.5q-58 0 -90 -34.5t-32 -100.5q0 -44 23 -64t68 -20q57 0 90.5 33.5t33.5 101.5z" />
    <glyph glyph-name="h" unicode="h" horiz-adv-x="587" 
d="M512 410q0 -9 -1 -20t-3 -19l-65 -371h-78l66 373q2 10 2 22q0 28 -18.5 47t-67.5 19q-42 0 -75 -11t-68 -36l-73 -414h-78l130 737q16 3 39 5t40 2l-48 -267h4q40 32 76 43.5t80 11.5q28 0 53 -6.5t44 -21.5t30 -38t11 -56z" />
    <glyph glyph-name="i" unicode="i" horiz-adv-x="280" 
d="M258 678q0 -26 -15 -42t-39 -16q-21 0 -31.5 12t-10.5 29q0 26 15.5 42t38.5 16q22 0 32 -12t10 -29zM131 0h-77l92 522h77z" />
    <glyph glyph-name="j" unicode="j" horiz-adv-x="281" 
d="M126 -33q-15 -84 -59 -131t-127 -52q-4 14 -6 34.5t-2 37.5q56 3 81.5 30t34.5 78l99 558h77zM259 678q0 -26 -15 -42t-39 -16q-21 0 -31.5 12t-10.5 29q0 26 15.5 42t38.5 16q22 0 32 -12t10 -29z" />
    <glyph glyph-name="k" unicode="k" horiz-adv-x="513" 
d="M439 4q-15 -4 -36.5 -6t-41.5 -2l-111 261l-88 -83l-31 -174h-78l130 737q16 3 39 5t40 2l-81 -460h4l258 245q19 -1 43.5 -5t38.5 -9l-217 -203l35 -75l31 -71l31 -75.5z" />
    <glyph glyph-name="l" unicode="l" horiz-adv-x="280" 
d="M131 0h-78l130 737q16 3 39 5t40 2z" />
    <glyph glyph-name="m" unicode="m" horiz-adv-x="852" 
d="M777 412q0 -10 -1 -21t-3 -20l-65 -371h-78l66 373q1 5 1 11v11q0 30 -17.5 48t-58.5 18q-38 0 -67.5 -12t-61.5 -35l-73 -414h-78l66 373q1 5 1.5 12t0.5 12q0 64 -74 64q-33 0 -66.5 -12t-64.5 -35l-73 -414h-78l91 518q16 3 39 4.5t40 1.5l-9 -47h4q42 34 77.5 44.5
t73.5 10.5q37 0 66.5 -15.5t40.5 -53.5q47 41 88.5 55t83.5 14q26 0 49.5 -6.5t41 -21t28 -37t10.5 -55.5z" />
    <glyph glyph-name="n" unicode="n" horiz-adv-x="584" 
d="M509 410q0 -9 -1 -20t-3 -19l-65 -371h-77l65 373q1 5 1.5 10.5t0.5 11.5q0 32 -20.5 49t-62.5 17t-76 -11.5t-67 -35.5l-73 -414h-78l91 518q16 3 39 4.5t40 1.5l-9 -47h4q42 33 79 44t77 11q26 0 50.5 -6.5t43.5 -21t30 -37.5t11 -57z" />
    <glyph glyph-name="o" unicode="o" horiz-adv-x="567" 
d="M510 327q0 -18 -1 -36.5t-5 -39.5q-24 -136 -90 -198.5t-162 -62.5q-87 0 -141 49.5t-54 153.5q0 19 1 37.5t5 41.5q24 135 89 197.5t162 62.5q42 0 77.5 -11.5t62 -36t41.5 -63.5t15 -94zM428 330q0 37 -8.5 62.5t-24 41.5t-37 23t-47.5 7q-30 0 -55.5 -8.5t-47 -31
t-37.5 -61.5t-26 -99q-4 -23 -5 -41.5t-1 -35.5q0 -70 32 -99.5t84 -29.5q33 0 59 10t46.5 33t36 61.5t25.5 96.5q4 20 5 37t1 34z" />
    <glyph glyph-name="p" unicode="p" horiz-adv-x="571" 
d="M515 342q0 -23 -2 -44t-5 -43q-20 -135 -86 -200t-172 -65q-26 0 -59 5t-59 16l-38 -217h-78l128 724q16 3 39 4.5t40 1.5l-8 -42h5q33 27 65 38.5t67 11.5q75 0 119 -50t44 -140zM434 340q0 122 -109 122q-31 0 -61.5 -10.5t-59.5 -33.5l-59 -336q22 -11 52.5 -17
t56.5 -6q66 0 110 44.5t61 147.5q3 18 6 43t3 46z" />
    <glyph glyph-name="q" unicode="q" horiz-adv-x="573" 
d="M390 -206h-77l44 246h-5q-56 -50 -132 -50q-73 0 -118 48.5t-45 141.5q0 35 4.5 71.5t15.5 73.5q31 106 91.5 156.5t157.5 50.5q20 0 43.5 -2.5t48 -7.5t49 -13t46.5 -19zM427 441q-23 11 -53.5 16t-52.5 5q-28 0 -53.5 -7t-47.5 -25.5t-39 -50t-28 -81.5
q-6 -26 -10.5 -57.5t-4.5 -56.5q0 -124 108 -124q32 0 62.5 9.5t58.5 31.5z" />
    <glyph glyph-name="r" unicode="r" horiz-adv-x="374" 
d="M392 527q-4 -40 -18 -79q-18 5 -45 5q-26 0 -59 -11t-70 -47l-69 -395h-78l91 518q16 3 39 4.5t40 1.5l-11 -60h4q21 23 40 36.5t36 20.5t32 9t27 2q9 0 21 -1t20 -4z" />
    <glyph glyph-name="s" unicode="s" horiz-adv-x="445" 
d="M406 517q-3 -34 -16 -72q-26 9 -59.5 13.5t-65.5 4.5q-47 0 -75.5 -16.5t-28.5 -62.5q0 -24 15 -40t38 -29.5t49.5 -26.5t49.5 -31.5t38 -44t15 -63.5q0 -39 -15 -68.5t-41.5 -50t-63.5 -30.5t-81 -10q-37 0 -78.5 8t-68.5 24q4 18 10 38t14 32q27 -15 65.5 -23t72.5 -8
q106 0 106 80q0 25 -15 42t-38 30.5t-49.5 26.5t-49.5 30t-38 42t-15 62q0 70 54.5 114t151.5 44q24 0 57.5 -3.5t61.5 -11.5z" />
    <glyph glyph-name="t" unicode="t" horiz-adv-x="382" 
d="M365 522q-2 -16 -6.5 -34t-9.5 -33h-126l-55 -308q-1 -8 -1.5 -16.5t-0.5 -14.5q0 -29 14 -42t47 -13q18 0 39 4.5t38 11.5q3 -16 3 -36q0 -9 -0.5 -18.5t-1.5 -16.5q-22 -9 -49 -12.5t-44 -3.5q-66 0 -95 29.5t-29 84.5q0 22 5 50l52 301h-63l12 67h63l21 114
q16 5 39.5 9t40.5 4l-23 -127h130v0z" />
    <glyph glyph-name="u" unicode="u" horiz-adv-x="581" 
d="M433 0h-78l8 45h-4q-38 -31 -74.5 -43t-76.5 -12q-26 0 -50.5 7t-43.5 21.5t-30.5 38t-11.5 56.5q0 9 1 19.5t3 19.5l65 367q16 2 39 4t40 2l-67 -375q-1 -5 -1.5 -10.5t-0.5 -10.5q0 -32 20 -50t65 -18q71 0 138 44l73 414q16 2 39 4t40 2z" />
    <glyph glyph-name="v" unicode="v" horiz-adv-x="498" 
d="M514 518q-63 -134 -130.5 -261.5l-141.5 -256.5h-82q-26 121 -49 256t-37 262q15 3 36 4.5t38 1.5l61 -385q2 -11 3 -26.5t1 -34.5h5q10 33 25 63l195 383q18 0 39.5 -1.5t36.5 -4.5z" />
    <glyph glyph-name="w" unicode="w" horiz-adv-x="780" 
d="M780 518q-48 -134 -103 -261.5t-118 -256.5h-78l-56 363q-2 8 -2 19v24v28h-4q-5 -17 -11.5 -36.5t-14.5 -33.5l-183 -364h-78q-11 77 -17.5 158t-11.5 166l-4 97.5t-2 96.5q15 4 35 5t36 1l18 -363q1 -11 1 -33v-44h4q11 38 28 72l180 366h74l54 -367q2 -15 3.5 -34.5
t1.5 -36.5h4q10 39 24 73l147 367q14 0 36 -1t37 -5z" />
    <glyph glyph-name="x" unicode="x" horiz-adv-x="504" 
d="M300 266l127 -262q-19 -4 -42.5 -6t-42.5 -2l-85 189q-4 9 -5.5 18.5t-3.5 20.5h-5q-11 -23 -25 -40l-146 -188q-19 0 -45 2t-41 6l219 273l-120 241q20 4 42.5 5.5t42.5 1.5l77 -170q4 -8 6.5 -19t4.5 -23h4q5 12 12 23t14 20l132 169q19 0 44 -1.5t43 -5.5z" />
    <glyph glyph-name="y" unicode="y" horiz-adv-x="505" 
d="M262 -1q-33 -64 -62 -105.5t-56.5 -66t-56.5 -34t-64 -9.5q-18 0 -41 4t-44 15q5 19 10.5 37.5t13.5 32.5q14 -8 33.5 -11t40.5 -3q28 0 52.5 14.5t49.5 55.5l44 73l-26.5 120t-25 130.5t-21 134t-15.5 131.5q16 4 36.5 5.5t37.5 1.5l58 -384q2 -14 3.5 -29t1.5 -32h5
q11 33 25 62l195 383q16 0 39 -1.5t39 -5.5z" />
    <glyph glyph-name="z" unicode="z" horiz-adv-x="469" 
d="M451 458l-353 -391h283q0 -17 -1.5 -33.5t-5.5 -33.5h-374l3 67l349 388h-256q0 18 1.5 35t6.5 32h349z" />
    <glyph glyph-name="braceleft" unicode="{" horiz-adv-x="328" 
d="M350 670q-83 -3 -121 -15.5t-38 -52.5q0 -21 11 -47.5t24.5 -54.5t24.5 -56.5t11 -54.5q0 -40 -26 -66.5t-89 -38.5v-5q47 -10 64.5 -31t17.5 -52t-23.5 -63.5t-52 -64.5t-52 -62.5t-23.5 -57.5q0 -15 6 -25t21 -17t40.5 -11t64.5 -5q-1 -14 -5 -35t-11 -35
q-56 4 -94 12.5t-61.5 23.5t-33.5 36t-10 50q0 36 24 71.5t53.5 67.5t53.5 61t24 51q0 28 -23.5 40t-86.5 12l13 73q38 0 63.5 5t40.5 14t21.5 21t6.5 26q0 25 -11.5 52t-25 54.5t-25 56t-11.5 55.5q0 73 60 103.5t173 34.5q3 -17 4 -36.5t1 -33.5z" />
    <glyph glyph-name="bar" unicode="|" horiz-adv-x="260" 
d="M15 -206l165 938h64l-165 -938h-64z" />
    <glyph glyph-name="braceright" unicode="}" horiz-adv-x="328" 
d="M329 618q0 -36 -24 -71.5t-53 -67.5l-53 -60.5t-24 -51.5q0 -28 23 -40t86 -12l-12 -73q-39 0 -64.5 -5t-40.5 -14t-21.5 -21t-6.5 -26q0 -25 11.5 -52t25.5 -54.5t25.5 -56t11.5 -55.5q0 -73 -60 -103.5t-173 -34.5q-4 17 -5 36.5t-1 33.5q84 3 121.5 15.5t37.5 52.5
q0 21 -11 47.5t-24.5 54.5t-24.5 57t-11 54q0 40 26.5 66.5t89.5 38.5v5q-47 10 -65 31t-18 52q0 21 11.5 42.5t28 43t36.5 43t36.5 42t28 40t11.5 37.5q0 15 -6 25t-21 17t-40.5 11t-65.5 5q2 14 6 35t10 35q57 -4 95 -12.5t61 -23.5t33 -36t10 -50z" />
    <glyph glyph-name="asciitilde" unicode="~" horiz-adv-x="492" 
d="M16 203q17 46 33 75.5t33 47t35 24t37 6.5q26 0 51.5 -15t49.5 -33l46 -33t40 -15q22 0 37.5 21t33.5 75q13 0 34 -4t30 -10q-16 -45 -32 -74t-33 -46t-35 -24t-38 -7q-26 0 -52 15t-50 33l-46 33t-40 15q-22 0 -36.5 -21.5t-32.5 -75.5q-13 0 -33 4t-32 9z" />
    <glyph glyph-name="Adieresis" unicode="&#xc4;" horiz-adv-x="568" 
d="M324 764q0 -24 -14.5 -37t-34.5 -13q-41 0 -41 34q0 24 15 37.5t35 13.5q40 0 40 -35zM502 764q0 -24 -15 -37t-35 -13q-41 0 -41 34q0 24 15 37.5t36 13.5q18 0 29 -9t11 -26zM515 6q-19 -6 -39 -8t-40 -3l-34 215h-240l-108 -215q-18 1 -39.5 3.5t-38.5 7.5l165 331
l179 337h87q30 -164 57.5 -334.5t50.5 -333.5zM351 549q-1 5 -1 8v8v11q0 7 1 18h-6q-2 -15 -6 -27t-7 -18l-137 -270h198z" />
    <glyph glyph-name="Aring" unicode="&#xc5;" horiz-adv-x="568" 
d="M515 6q-19 -6 -39 -8t-40 -3l-34 215h-240l-108 -215q-17 1 -39 3.5t-39 7.5l161.5 325l176.5 332q-27 9 -40.5 29t-13.5 48q0 49 35 77.5t92 28.5q48 0 72.5 -21.5t24.5 -57.5q0 -38 -20 -64.5t-55 -37.5q30 -162 56.5 -330t49.5 -329zM351 549q-1 5 -1 8v8v13t1 16h-6
q-2 -15 -6 -27t-7 -18l-137 -270h198zM425 764q0 19 -12 29.5t-32 10.5q-27 0 -45.5 -15.5t-18.5 -47.5q0 -41 45 -41q27 0 45 16t18 48z" />
    <glyph glyph-name="Ccedilla" unicode="&#xc7;" horiz-adv-x="574" 
d="M577 650l-11 -38t-14 -39q-30 17 -75 26.5t-84 9.5q-71 0 -119.5 -34t-77.5 -111q-22 -56 -34 -138q-4 -25 -6 -48t-2 -44q0 -90 40 -129.5t122 -39.5q42 0 85 9.5t80 29.5q2 -11 3 -22l2 -23q1 -9 1.5 -18t0.5 -18q-19 -9 -42.5 -15t-47.5 -10t-47 -6t-41 -2
q-117 0 -180.5 60.5t-63.5 189.5q0 26 2 52.5t7 55.5q12 71 34 126q40 106 114 158t179 52q22 0 46.5 -2.5t48 -7t44.5 -10.5t36 -14zM365 -110q0 -54 -38 -80.5t-104 -26.5q-13 0 -30 2t-31 5q-1 5 -1 11v12q0 17 3 31q14 -5 31 -6.5t29 -1.5q29 0 53 10t24 39
q0 24 -14.5 33t-42.5 9q-9 0 -20 -1t-21 -3q2 12 7 24.5t10 21.5h49q48 0 72 -20.5t24 -58.5z" />
    <glyph glyph-name="Eacute" unicode="&#xc9;" horiz-adv-x="545" 
d="M449 815q-20 -30 -43 -55.5t-61 -54.5q-17 1 -34.5 2.5t-32.5 4.5l86 103h85v0zM544 674q-3 -19 -7.5 -38t-11.5 -36h-280l-38 -210h214l-12 -74h-214l-43 -242h302q-2 -17 -6.5 -36.5t-11.5 -37.5h-381l119 674h370v0z" />
    <glyph glyph-name="Ntilde" unicode="&#xd1;" horiz-adv-x="686" 
d="M593 808q-10 -31 -21.5 -50.5t-24 -30t-26.5 -14t-30 -3.5q-18 0 -36 7t-34.5 16t-32 16t-27.5 7q-18 0 -30 -10.5t-21 -42.5q-11 0 -25.5 3t-25.5 8q10 31 21.5 50t24 29.5t26.5 14t30 3.5q17 0 34.5 -7t34 -16t32 -16t27.5 -7q9 0 16 1.5t13 7t11 16.5t11 29
q12 -1 27.5 -4t25.5 -7zM536 3q-17 -4 -38.5 -6t-38.5 -2l-211 507l-18 61l-6 -1q0 -20 -1 -38t-4 -33l-86 -491h-78l117 667q20 5 44.5 7t42.5 2l200 -478q5 -13 10 -31t10 -39l7 1q1 18 3 40t5 39l82 466h78z" />
    <glyph glyph-name="Odieresis" unicode="&#xd6;" horiz-adv-x="665" 
d="M356 764q0 -24 -14.5 -37t-34.5 -13q-41 0 -41 34q0 24 15 37.5t35 13.5q40 0 40 -35zM534 764q0 -24 -15 -37t-35 -13q-41 0 -41 34q0 24 15 37.5t36 13.5q18 0 29 -9t11 -26zM622 429q0 -48 -7.5 -92.5t-18.5 -86.5q-36 -134 -111.5 -197t-187.5 -63
q-110 0 -170.5 63.5t-60.5 188.5q0 38 4.5 74.5t14.5 78.5q33 147 110 218t196 71q111 0 171 -64t60 -191zM534 443q0 90 -40 129t-113 39q-43 0 -77 -13t-59.5 -41t-43.5 -72.5t-30 -108.5q-8 -37 -12.5 -73t-4.5 -74q0 -166 150 -166q44 0 77 11.5t58 37.5t43.5 67.5
t31.5 102.5q8 38 14 78.5t6 82.5z" />
    <glyph glyph-name="Udieresis" unicode="&#xdc;" horiz-adv-x="670" 
d="M370 764q0 -24 -14.5 -37t-34.5 -13q-41 0 -41 34q0 24 15 37.5t35 13.5q40 0 40 -35zM548 764q0 -24 -15 -37t-35 -13q-41 0 -41 34q0 24 15 37.5t36 13.5q18 0 29 -9t11 -26zM568 266q-12 -65 -30 -116t-48 -86.5t-75.5 -54.5t-112.5 -19q-49 0 -88.5 10t-67.5 33
t-43 59.5t-15 89.5q0 19 3.5 48t8.5 55l68 389h84l-71 -401q-4 -23 -6.5 -47.5t-2.5 -38.5q0 -60 31 -90.5t104 -30.5q40 0 69.5 10t51 32t35.5 57t23 85l76 424h78z" />
    <glyph glyph-name="aacute" unicode="&#xe1;" horiz-adv-x="530" 
d="M419 731q-20 -39 -52.5 -81t-70.5 -78q-14 0 -31.5 1.5t-29.5 4.5l102 153h82v0zM471 43q-6 -29 -21.5 -41t-43.5 -12q-33 0 -55 12.5t-33 44.5h-3q-40 -33 -78.5 -45t-77.5 -12q-65 0 -100 33t-35 92v14t1 14q6 42 22.5 69t43.5 43t64 23t83 9l111 5l27 148
q-17 10 -48 16t-63 6t-66 -5.5t-59 -14.5q-1 7 -1.5 15t-0.5 16q0 10 1 21.5t3 20.5q35 10 66.5 13.5t65.5 3.5q25 0 51 -3t50.5 -9t46 -15t36.5 -21l-67 -381q-1 -5 -1 -12q0 -25 29 -25h55zM226 231q-57 -2 -85 -21t-36 -66q-1 -5 -1 -10v-10q0 -34 16.5 -51.5t56.5 -17.5
q34 0 71 11t68 36l24 133z" />
    <glyph glyph-name="copyright" unicode="&#xa9;" horiz-adv-x="725" 
d="M457 158q-23 -11 -52 -15.5t-55 -4.5q-70 0 -109 39t-39 111q0 12 1.5 25.5t3.5 27.5q9 51 27.5 87t44.5 58t58 32t68 10q26 0 55.5 -5t44.5 -13q-2 -11 -5.5 -27.5t-8.5 -27.5q-19 9 -43 13.5t-48 4.5q-25 0 -45.5 -7t-37 -23t-28 -43t-18.5 -67q-2 -14 -3.5 -26
t-1.5 -23q0 -49 23 -71t68 -22q23 0 48.5 5.5t45.5 16.5q2 -7 3 -15t2 -17q1 -6 1 -12v-11zM666 397q0 -82 -25.5 -150.5t-71.5 -118.5t-109.5 -78t-139.5 -28q-58 0 -105.5 17.5t-81 50.5t-51.5 80t-18 105q0 80 25 148.5t70 119t108.5 79.5t139.5 29q57 0 105 -17.5
t82 -50.5t53 -80t19 -106zM625 396q0 50 -15.5 90.5t-44.5 69t-69.5 44t-91.5 15.5q-67 0 -122.5 -26t-95.5 -71.5t-62 -107.5t-22 -134q0 -49 14.5 -89t42.5 -69t69 -45t94 -16q67 0 123 25.5t96 71t62 107.5t22 135z" />
    <glyph glyph-name="trademark" unicode="&#x2122;" horiz-adv-x="741" 
d="M318 674q-2 -11 -5 -25t-8 -26h-94l-52 -298h-57l52 298h-96l9 51h251v0zM686 325q-12 -1 -26 -1h-25l21 230q2 20 5 34h-4q-3 -8 -7 -16.5t-8 -14.5l-128 -232h-56l-47 232q-3 15 -3 31h-4l-3 -15.5t-4 -18.5l-66 -231q-9 0 -25.5 1t-24.5 2q21 87 46 173.5t54 174.5h59
l51 -256q2 -6 2.5 -15.5t0.5 -17.5h5q2 10 5.5 18t7.5 15l139 256h60q-3 -88 -9.5 -176t-15.5 -173z" />
    <glyph glyph-name="acute" unicode="&#xb4;" 
d="M341 731q-20 -39 -52.5 -81t-70.5 -78q-14 0 -31.5 1.5t-29.5 4.5l102 153h82v0z" />
    <glyph glyph-name="dieresis" unicode="&#xa8;" 
d="M208 642q0 -27 -15 -41.5t-37 -14.5q-20 0 -31 10.5t-11 28.5q0 28 15.5 42.5t37.5 14.5q41 0 41 -40zM384 642q0 -27 -15 -41.5t-36 -14.5q-20 0 -31 10.5t-11 28.5q0 28 15.5 42.5t36.5 14.5q41 0 41 -40z" />
    <glyph glyph-name="notequal" unicode="&#x2260;" horiz-adv-x="490" 
d="M377 401h70l-10 -59h-110l-108 -131h195l-10 -59h-235l-99 -119h-46l98 119h-78l10 59h118l108 131h-203l10 59h242l89 107h48z" />
    <glyph glyph-name="AE" unicode="&#xc6;" horiz-adv-x="818" 
d="M436 604h-6l-213 -304h165zM727 74q-2 -17 -6.5 -36.5t-11.5 -37.5h-380l41 230h-198l-166 -236q-18 1 -41 4t-40 8l117.5 176l115.5 165l118 161.5l125 165.5h416q-2 -17 -7.5 -37.5t-10.5 -36.5h-281l-37 -210h214l-13 -74h-214l-42 -242h301v0z" />
    <glyph glyph-name="Oslash" unicode="&#xd8;" horiz-adv-x="665" 
d="M622 429q0 -18 -2.5 -40.5t-6 -46.5t-8.5 -47.5t-11 -44.5q-36 -134 -112 -197t-185 -63q-90 0 -147 42l-66 -93h-44l83 117q-58 66 -58 186q0 33 5 73t15 82q33 147 110 217t196 70q91 0 147 -44l65 92h44l-83 -116q58 -66 58 -187zM154 229q0 -61 20 -101l317 446
q-20 20 -47.5 28.5t-62.5 8.5q-43 0 -76.5 -12.5t-59 -40t-43.5 -72t-31 -108.5q-8 -37 -12.5 -78.5t-4.5 -70.5zM534 443q0 62 -21 101l-316 -446q36 -35 107 -35q43 0 76 11.5t58 37.5t43 67.5t31 102.5q4 19 8 40.5t7 42.5t5 41.5t2 36.5z" />
    <glyph glyph-name="infinity" unicode="&#x221e;" horiz-adv-x="887" 
d="M830 302q0 -58 -16 -104t-46 -78t-72 -49.5t-93 -17.5q-25 0 -49.5 6t-47 22t-43 42.5t-38.5 66.5q-27 -37 -52 -63t-51 -42.5t-53.5 -24t-58.5 -7.5q-80 0 -122 45.5t-42 126.5q0 54 15 99t44 78t72 51.5t99 18.5q27 0 51.5 -7t46.5 -23t41.5 -42.5t35.5 -65.5
q30 41 56.5 68t52.5 42.5t52 21.5t55 6q76 0 119.5 -44.5t43.5 -125.5zM759 294q0 31 -8 52t-22 34.5t-33 19.5t-42 6q-53 0 -95 -34.5t-89 -109.5q12 -41 27 -68t32.5 -43.5t38 -23t43.5 -6.5q66 0 107 42.5t41 130.5zM407 264q-21 69 -53.5 105t-86.5 36
q-72 0 -110.5 -45.5t-38.5 -129.5q0 -51 23.5 -80.5t78.5 -29.5t101.5 39t85.5 105z" />
    <glyph glyph-name="plusminus" unicode="&#xb1;" horiz-adv-x="449" 
d="M259 315l-24 -132h-58l23 132h-130l10 57h130l23 128h59l-24 -128h132l-10 -57h-131zM22 45l11 58h320l-10 -58h-321z" />
    <glyph glyph-name="lessequal" unicode="&#x2264;" horiz-adv-x="445" 
d="M394 492l-219 -168l160 -169v-8h-76l-167 180l224 173h78v-8zM352 103l-11 -58h-320l10 58h321z" />
    <glyph glyph-name="greaterequal" unicode="&#x2265;" horiz-adv-x="445" 
d="M350 103l-11 -58h-320l11 58h320zM366 320l-225 -173h-78v7l219 168l-160 169v9h76z" />
    <glyph glyph-name="yen" unicode="&#xa5;" 
d="M554 670l-60.5 -101.5l-57 -92.5l-58 -89l-62.5 -91h126q-5 -29 -18 -60h-139l-41 -236h-84l41 236h-146l10 60h127q-31 89 -56 180.5t-48 193.5q20 4 42 5.5t40 1.5l75 -298q3 -12 6 -28t5 -30h5l14.5 30.5t15.5 29.5l181 296q19 0 41.5 -1.5t40.5 -5.5z" />
    <glyph glyph-name="mu" unicode="&#xb5;" horiz-adv-x="584" 
d="M436 0h-78l9 45h-4q-70 -55 -144 -55q-21 0 -45 6t-41 22l-39 -224h-78l128 725q17 2 39.5 4t39.5 2l-67 -375q-1 -5 -1 -12v-11q0 -31 19.5 -48.5t65.5 -17.5q37 0 69.5 10.5t67.5 33.5l73 414q17 2 39.5 4t39.5 2z" />
    <glyph glyph-name="mu" unicode="&#x3bc;" horiz-adv-x="584" 
d="M436 0h-78l9 45h-4q-70 -55 -144 -55q-21 0 -45 6t-41 22l-39 -224h-78l128 725q17 2 39.5 4t39.5 2l-67 -375q-1 -5 -1 -12v-11q0 -31 19.5 -48.5t65.5 -17.5q37 0 69.5 10.5t67.5 33.5l73 414q17 2 39.5 4t39.5 2z" />
    <glyph glyph-name="partialdiff" unicode="&#x2202;" horiz-adv-x="558" 
d="M518 509q0 -38 -1.5 -73.5t-6.5 -71.5q-10 -88 -32 -157.5t-56 -117.5t-79.5 -73.5t-104.5 -25.5q-182 0 -182 193q0 20 2 41.5t6 44.5q12 70 36 118.5t57.5 78.5t75.5 43t91 13q26 0 57.5 -4t57.5 -12q-1 36 -8.5 66.5t-23.5 53t-43.5 35t-69.5 12.5q-15 0 -32 -1.5
t-35 -4.5t-34.5 -7t-30.5 -9q0 17 3 39.5t8 35.5q29 10 66 14t63 4q44 0 83 -11t68.5 -38t47 -72.5t17.5 -113.5zM433 436q-23 8 -52.5 13t-57.5 5q-31 0 -58.5 -8.5t-50.5 -29.5t-40 -58t-27 -94q-4 -24 -6 -44t-2 -39q0 -66 25.5 -93.5t79.5 -27.5q43 0 74.5 21t54 66
t37 116.5t23.5 172.5z" />
    <glyph glyph-name="summation" unicode="&#x2211;" horiz-adv-x="536" 
d="M529 674q-5 -37 -18 -74h-297l183 -225l-10 -57l-281 -245h336q-3 -17 -7.5 -35.5t-11.5 -37.5h-439l12 68l322 285l-209 253l12 68h408v0z" />
    <glyph glyph-name="product" unicode="&#x220f;" horiz-adv-x="689" 
d="M448 0l106 597h-315l-105 -597h-85l119 674h484l-119 -674h-85z" />
    <glyph glyph-name="pi" unicode="&#x3c0;" horiz-adv-x="644" 
d="M579 4q-19 -8 -41 -11t-44 -3q-55 0 -81 24.5t-26 68.5q0 15 3 33l58 331h-215l-79 -447h-75l79 447h-98l13 75h587q-2 -16 -8 -37.5t-11 -37.5h-118l-58 -328q-1 -5 -1.5 -10t-0.5 -10q0 -40 46 -40q32 0 66 16q2 -17 3 -36.5t1 -34.5z" />
    <glyph glyph-name="integral" unicode="&#x222b;" horiz-adv-x="311" 
d="M389 740q-3 -35 -14 -71q-8 2 -22.5 2.5t-25.5 0.5q-38 0 -59.5 -21.5t-29.5 -68.5l-111 -632q-16 -89 -65.5 -127.5t-114.5 -38.5q-11 0 -24.5 1t-24.5 3q2 35 14 71q7 -2 22 -2.5t26 -0.5q38 0 59.5 21.5t29.5 68.5l110 632q8 45 25 76.5t41 51.5t53 29t61 9
q11 0 25 -1t25 -3z" />
    <glyph glyph-name="ordfeminine" unicode="&#xaa;" horiz-adv-x="380" 
d="M346 374q-4 -21 -15 -30t-30 -9t-32.5 8.5t-19.5 28.5h-3q-25 -20 -49 -28.5t-49 -8.5q-41 0 -64.5 19.5t-23.5 63.5q0 56 33.5 80t89.5 26l85 3l13 79q-11 6 -31.5 9.5t-39.5 3.5q-20 0 -42 -3t-36 -8q-2 7 -3 15t-1 16q0 6 0.5 12.5t1.5 11.5q17 5 39.5 8t46.5 3
q34 0 69.5 -8t59.5 -24l-40 -225q-1 -5 -1 -9q0 -15 19 -15h26zM184 483q-34 -2 -48.5 -18t-14.5 -43q0 -21 11 -30t35 -9q19 0 41 6.5t39 19.5l14 77z" />
    <glyph glyph-name="ordmasculine" unicode="&#xba;" horiz-adv-x="380" 
d="M377 544q0 -11 -1 -22t-3 -23q-16 -91 -60 -127.5t-107 -36.5q-60 0 -96 32t-36 98q0 23 4 46q14 86 58.5 124.5t108.5 38.5q28 0 52 -7.5t42 -23t28 -40t10 -59.5zM313 545q0 43 -19.5 60.5t-51.5 17.5q-18 0 -34.5 -5t-29.5 -18t-22.5 -35.5t-14.5 -57.5q-3 -24 -3 -43
q0 -42 18.5 -60t51.5 -18q41 0 65.5 25.5t35.5 90.5q2 14 3 23t1 20z" />
    <glyph glyph-name="Omega" unicode="&#x3a9;" horiz-adv-x="661" 
d="M612 458q0 -20 -2 -40t-6 -42q-18 -108 -66.5 -182t-114.5 -116l-1 -5h139l-13 -73h-247l7 61q33 11 66 34.5t61.5 62t50.5 92t34 124.5q4 23 5.5 42.5t1.5 36.5q0 85 -41 119.5t-116 34.5q-43 0 -78 -12t-62 -39t-45.5 -72t-29.5 -111q-9 -57 -9 -104q0 -87 30 -139
t81 -69l-15 -61h-247l12 73h139l1 5q-39 32 -60.5 87t-21.5 129q0 20 2 43t6 46q26 151 102 226t206 75q112 0 171.5 -58t59.5 -168z" />
    <glyph glyph-name="ae" unicode="&#xe6;" horiz-adv-x="786" 
d="M741 371q0 -24 -5.5 -55.5t-12.5 -60.5l-315 -11q-3 -15 -4 -29.5t-1 -28.5q0 -57 28 -90t98 -33q37 0 73 9.5t62 23.5q4 -14 7.5 -34.5t3.5 -36.5q-32 -17 -73.5 -26t-79.5 -9q-58 0 -99.5 18.5t-67.5 59.5q-57 -48 -105.5 -63t-90.5 -15q-66 0 -100.5 33.5t-34.5 93.5
q0 90 53 131.5t150 44.5l116 4q8 42 21 77.5t32 60.5q-23 14 -59.5 20.5t-71.5 6.5t-67 -5.5t-58 -14.5q-1 7 -1.5 14.5t-0.5 15.5q0 13 1 24t3 19q38 11 69 14t63 3q49 0 95 -9.5t81 -31.5q29 24 58.5 32.5t64.5 8.5q79 0 123.5 -41.5t44.5 -119.5zM222 238
q-63 -2 -90.5 -32t-27.5 -82q0 -34 17 -51.5t56 -17.5q35 0 77 13t83 47q-9 30 -9 70q0 14 1 28t3 28zM666 375q0 49 -27 72t-72 23q-54 0 -93 -39.5t-56 -131.5l238 8q5 16 7.5 33.5t2.5 34.5z" />
    <glyph glyph-name="oslash" unicode="&#xf8;" horiz-adv-x="567" 
d="M510 327q0 -18 -1 -36.5t-5 -39.5q-24 -136 -90 -198.5t-162 -62.5q-35 0 -65 7.5t-53 23.5l-68 -96h-44l84 119q-23 25 -36 61.5t-13 87.5q0 19 1 37.5t5 41.5q25 135 89.5 197.5t161.5 62.5q34 0 64 -7.5t54 -23.5l63 88h44l-79 -111q23 -25 36.5 -62.5t13.5 -88.5z
M428 330q0 49 -17 80l-234 -328q15 -13 35 -18.5t43 -5.5q33 0 59 10t47 33t36 61.5t25 96.5q4 20 5 37t1 34zM139 187q0 -47 15 -76l235 329q-15 13 -35 18.5t-43 5.5q-30 0 -55.5 -8.5t-46.5 -31t-37 -61.5t-27 -99q-4 -23 -5 -41.5t-1 -35.5z" />
    <glyph glyph-name="questiondown" unicode="&#xbf;" horiz-adv-x="368" 
d="M239 489q0 27 15 41.5t37 14.5q20 0 31 -10.5t11 -28.5q0 -28 -15 -42.5t-38 -14.5q-41 0 -41 40zM-23 5q0 41 13 75.5t42 63.5t74.5 53t110.5 45l18 104q16 3 33.5 5t32.5 3q-1 -33 -4.5 -77t-9.5 -79q-56 -15 -99.5 -32t-73 -38.5t-44.5 -49t-15 -62.5q0 -48 31 -71.5
t87 -23.5q28 0 53 3t48 8q3 -8 4.5 -20.5t1.5 -24.5q0 -6 -0.5 -13t-1.5 -13q-53 -11 -118 -11q-38 0 -71.5 9.5t-58 28.5t-39 48t-14.5 69z" />
    <glyph glyph-name="exclamdown" unicode="&#xa1;" horiz-adv-x="244" 
d="M11 -140q21 121 45.5 245.5t50.5 239.5q14 3 29.5 4.5t30.5 2.5q-15 -118 -34 -244.5t-41 -247.5h-81v0zM116 488q0 27 15 42t37 15q43 0 43 -40q0 -28 -15.5 -42.5t-37.5 -14.5q-42 0 -42 40z" />
    <glyph glyph-name="logicalnot" unicode="&#xac;" horiz-adv-x="498" 
d="M423 139q-17 -3 -34 -4.5t-32 -1.5l30 167h-354l11 65h418l-39 -226v0z" />
    <glyph glyph-name="radical" unicode="&#x221a;" horiz-adv-x="523" 
d="M581 674q-3 -17 -7 -35t-10 -34h-91l-183 -605h-74q-42 123 -81 257.5t-71 272.5q14 4 34.5 6.5t34.5 2.5l109 -384q3 -11 6 -26t5 -29h6q2 13 6.5 30.5t8.5 29.5l152 514h155v0z" />
    <glyph glyph-name="florin" unicode="&#x192;" 
d="M475 680q-2 -18 -5.5 -36.5t-8.5 -33.5q-8 2 -23.5 3t-26.5 1q-42 0 -69.5 -24.5t-36.5 -74.5l-21 -122h164q-3 -16 -7.5 -33t-10.5 -33h-158l-80 -459h-75l80 459h-137l11 66h138l20 115q15 84 64.5 130t127.5 46q12 0 27.5 -1t26.5 -3z" />
    <glyph glyph-name="approxequal" unicode="&#x2248;" horiz-adv-x="496" 
d="M453 351q-45 -34 -97 -34q-25 0 -48 6.5t-45.5 15t-45 15t-47.5 6.5q-55 0 -105 -41l9 62q48 39 107 39q25 0 47.5 -6.5t44.5 -14.5t45 -14.5t48 -6.5q26 0 49.5 9.5t46.5 26.5l-9 -63v0zM420 163q-22 -17 -47 -26t-50 -9t-48 6.5t-45.5 15t-45 15t-47.5 6.5
q-55 0 -105 -41l9 62q48 39 107 39q25 0 47.5 -6.5t45 -14.5t45.5 -14.5t48 -6.5q26 0 49 9.5t46 26.5q-2 -16 -4.5 -31.5t-4.5 -30.5z" />
    <glyph glyph-name="Delta" unicode="&#x394;" horiz-adv-x="563" 
d="M-26 0l166 334l180 340h87l57.5 -337.5t50.5 -336.5h-541zM351 549q-1 5 -1 7v9v13t1 16h-6q-3 -18 -6.5 -28.5t-6.5 -16.5l-244 -480h338z" />
    <glyph glyph-name="guillemotleft" unicode="&#xab;" horiz-adv-x="475" 
d="M127 43l-102 224l176 216l63 -14l-160 -207l85 -206zM336 43l-101 224l176 216l62 -14l-159 -207l85 -206z" />
    <glyph glyph-name="guillemotright" unicode="&#xbb;" horiz-adv-x="475" 
d="M273 43l-63 14l160 207l-85 206l62 13l102 -224zM63 43l-62 14l159 207l-85 206l63 13l101 -224z" />
    <glyph glyph-name="ellipsis" unicode="&#x2026;" horiz-adv-x="627" 
d="M327 46q0 -28 -15 -42.5t-37 -14.5q-42 0 -42 40q0 27 15 42t38 15q20 0 30.5 -11t10.5 -29zM121 46q0 -28 -15.5 -42.5t-36.5 -14.5q-43 0 -43 40q0 27 15.5 42t37.5 15q20 0 31 -11t11 -29zM534 46q0 -28 -15 -42.5t-37 -14.5q-43 0 -43 40q0 27 15.5 42t37.5 15
q20 0 31 -11t11 -29z" />
    <glyph glyph-name="nonbreakingspace" unicode="&#xa0;" horiz-adv-x="204" 
 />
    <glyph glyph-name="Agrave" unicode="&#xc0;" horiz-adv-x="568" 
d="M515 6q-19 -6 -39 -8t-40 -3l-34 215h-240l-108 -215q-18 1 -39.5 3.5t-38.5 7.5l165 331l179 337h87q30 -164 57.5 -334.5t50.5 -333.5zM351 549q-1 5 -1 8v8v11q0 7 1 18h-6q-2 -15 -6 -27t-7 -18l-137 -270h198zM399 712q-16 -3 -32 -4.5t-33 -2.5q-27 29 -43.5 54.5
t-25.5 55.5h79z" />
    <glyph glyph-name="Atilde" unicode="&#xc3;" horiz-adv-x="568" 
d="M515 6q-19 -6 -39 -8t-40 -3l-34 215h-240l-108 -215q-18 1 -39.5 3.5t-38.5 7.5l165 331l179 337h87q30 -164 57.5 -334.5t50.5 -333.5zM351 549q-1 5 -1 8v8v11q0 7 1 18h-6q-2 -15 -6 -27t-7 -18l-137 -270h198zM527 808q-10 -31 -21.5 -50.5t-24 -30t-26.5 -14
t-30 -3.5q-18 0 -36 7t-34.5 16t-32 16t-27.5 7q-18 0 -30 -10.5t-21 -42.5q-11 0 -25.5 3t-25.5 8q10 31 21.5 50t24 29.5t26.5 14t30 3.5q17 0 34.5 -7t34 -16t32 -16t27.5 -7q9 0 16 1.5t13 7t11 16.5t11 29q12 -1 27.5 -4t25.5 -7z" />
    <glyph glyph-name="Otilde" unicode="&#xd5;" horiz-adv-x="665" 
d="M622 429q0 -48 -7.5 -92.5t-18.5 -86.5q-36 -134 -111.5 -197t-187.5 -63q-110 0 -170.5 63.5t-60.5 188.5q0 38 4.5 74.5t14.5 78.5q33 147 110 218t196 71q111 0 171 -64t60 -191zM534 443q0 90 -40 129t-113 39q-43 0 -77 -13t-59.5 -41t-43.5 -72.5t-30 -108.5
q-8 -37 -12.5 -73t-4.5 -74q0 -166 150 -166q44 0 77 11.5t58 37.5t43.5 67.5t31.5 102.5q8 38 14 78.5t6 82.5zM566 808q-10 -31 -21.5 -50.5t-24 -30t-26.5 -14t-30 -3.5q-18 0 -36 7t-34.5 16t-32 16t-27.5 7q-18 0 -30 -10.5t-21 -42.5q-11 0 -25.5 3t-25.5 8
q10 31 21.5 50t24 29.5t26.5 14t30 3.5q17 0 34.5 -7t34 -16t32 -16t27.5 -7q9 0 16 1.5t13 7t11 16.5t11 29q12 -1 27.5 -4t25.5 -7z" />
    <glyph glyph-name="OE" unicode="&#x152;" horiz-adv-x="944" 
d="M943 674q-2 -17 -7 -37t-12 -37h-280l-37 -211h214q-4 -18 -6.5 -36t-6.5 -37h-214l-43 -242h302q-2 -18 -6.5 -37.5t-11.5 -36.5h-366l12 69h-1q-34 -42 -80 -60.5t-103 -18.5q-113 0 -172 65.5t-59 186.5q0 44 9 104q6 38 16 75q19 72 49 122t68.5 81.5t84 45.5
t96.5 14q57 0 106 -23.5t75 -78.5h2l16 92h355v0zM531 444q0 46 -10.5 77.5t-30 51t-47 28.5t-62.5 9q-38 0 -69.5 -10t-57 -34t-44.5 -64.5t-33 -101.5q-5 -18 -7.5 -33.5l-5.5 -34.5q-5 -29 -7.5 -53.5t-2.5 -48.5q0 -88 39 -127.5t112 -39.5q48 0 82.5 15.5t59.5 47.5
t42 83t30 121q6 32 9 61.5t3 52.5z" />
    <glyph glyph-name="oe" unicode="&#x153;" horiz-adv-x="871" 
d="M826 371q0 -22 -5 -54t-14 -66h-311q-4 -19 -5.5 -34.5t-1.5 -27.5q0 -67 31 -96.5t94 -29.5q34 0 71 9t64 24q5 -15 8.5 -36t3.5 -35q-32 -18 -73 -26.5t-80 -8.5q-70 0 -111 28t-61 79q-34 -56 -78 -81.5t-106 -25.5q-88 0 -141.5 50t-53.5 153q0 23 1 41t5 38
q23 128 85.5 194t165.5 66q63 0 108 -27t63 -78q30 57 74.5 81t98.5 24q83 0 125.5 -43.5t42.5 -117.5zM428 330q0 72 -32 103t-85 31q-31 0 -57 -9.5t-47 -32t-36.5 -61t-25.5 -97.5q-4 -20 -5 -40t-1 -37q0 -70 32 -99.5t84 -29.5q33 0 59.5 10.5t47 34t35.5 62t25 94.5
q4 20 5 37.5t1 33.5zM752 374q0 51 -27.5 73.5t-71.5 22.5q-53 0 -91.5 -37t-56.5 -127h236q11 39 11 68z" />
    <glyph glyph-name="endash" unicode="&#x2013;" 
d="M46 235l11 61h398q-5 -31 -19 -61h-390z" />
    <glyph glyph-name="emdash" unicode="&#x2014;" horiz-adv-x="1000" 
d="M60 235l11 61h869q-2 -14 -7 -30.5t-11 -30.5h-862z" />
    <glyph glyph-name="quotedblleft" unicode="&#x201c;" horiz-adv-x="403" 
d="M279 526q13 71 47.5 119.5t97.5 76.5q8 -9 14 -20.5t9 -25.5q-48 -18 -73 -53t-33 -77h38q3 -16 3 -34q0 -32 -8 -62h-109zM99 526q24 141 145 196q16 -18 24 -46q-48 -18 -73.5 -53t-33.5 -77h39q3 -16 3 -34q0 -32 -8 -62h-109z" />
    <glyph glyph-name="quotedblright" unicode="&#x201d;" horiz-adv-x="403" 
d="M226 637q-24 -141 -145 -196q-8 8 -14 20t-10 26q48 18 73.5 52.5t33.5 77.5h-39q-3 15 -3 34q0 32 8 62h109zM405 637q-13 -71 -47.5 -119.5t-97.5 -76.5q-8 8 -14 20t-9 26q48 18 73 52.5t33 77.5h-38q-3 15 -3 34q0 32 8 62h109z" />
    <glyph glyph-name="quoteleft" unicode="&#x2018;" horiz-adv-x="223" 
d="M99 526q24 141 145 196q16 -18 24 -46q-48 -18 -73.5 -53t-33.5 -77h39q3 -16 3 -34q0 -32 -8 -62h-109z" />
    <glyph glyph-name="quoteright" unicode="&#x2019;" horiz-adv-x="223" 
d="M226 637q-24 -141 -145 -196q-8 8 -14 20t-10 26q48 18 73.5 52.5t33.5 77.5h-39q-3 15 -3 34q0 32 8 62h109z" />
    <glyph glyph-name="divide" unicode="&#xf7;" horiz-adv-x="408" 
d="M59 247l10 54h279l-10 -54h-279zM218 94q0 -28 -15.5 -42.5t-36.5 -14.5q-43 0 -43 40q0 27 15.5 42t37.5 15q20 0 31 -11t11 -29zM284 470q0 -28 -15 -43t-37 -15q-20 0 -31 11t-11 30q0 27 15.5 42t37.5 15q20 0 30.5 -11t10.5 -29z" />
    <glyph glyph-name="lozenge" unicode="&#x25ca;" horiz-adv-x="466" 
d="M409 239l-91 -126t-99 -123h-68q-29 60 -56 123.5t-49 129.5l9 51q44 65 90 126.5t100 124.5h68q29 -59 56.5 -125t48.5 -130zM270 483l-159 -217l83 -213l159 216z" />
    <glyph glyph-name="ydieresis" unicode="&#xff;" horiz-adv-x="505" 
d="M262 -1q-33 -64 -62 -105.5t-56.5 -66t-56.5 -34t-64 -9.5q-18 0 -41 4t-44 15q5 19 10.5 37.5t13.5 32.5q14 -8 33.5 -11t40.5 -3q28 0 52.5 14.5t49.5 55.5l44 73l-26.5 120t-25 130.5t-21 134t-15.5 131.5q16 4 36.5 5.5t37.5 1.5l58 -384q2 -14 3.5 -29t1.5 -32h5
q11 33 25 62l195 383q16 0 39 -1.5t39 -5.5zM284 642q0 -27 -15 -41.5t-37 -14.5q-20 0 -31 10.5t-11 28.5q0 28 15.5 42.5t37.5 14.5q41 0 41 -40zM460 642q0 -27 -15 -41.5t-36 -14.5q-20 0 -31 10.5t-11 28.5q0 28 15.5 42.5t36.5 14.5q41 0 41 -40z" />
    <glyph glyph-name="Ydieresis" unicode="&#x178;" horiz-adv-x="556" 
d="M607 669l-70 -109l-68.5 -102l-69.5 -99.5l-74 -102.5l-45 -256h-85l45 256q-42 103 -74 206.5t-60 206.5q19 4 42.5 5.5t40.5 1.5l92 -295q8 -24 11 -50h6q13 27 29 52l196 293q19 0 43 -1.5t41 -5.5zM318 764q0 -24 -14.5 -37t-34.5 -13q-41 0 -41 34q0 24 15 37.5
t35 13.5q40 0 40 -35zM496 764q0 -24 -15 -37t-35 -13q-41 0 -41 34q0 24 15 37.5t36 13.5q18 0 29 -9t11 -26z" />
    <glyph glyph-name="fraction" unicode="&#x2215;" horiz-adv-x="160" 
d="M-92 -8q-15 2 -26.5 6.5t-22.5 10.5l389 675q12 -1 26.5 -4t25.5 -8z" />
    <glyph glyph-name="currency" unicode="&#xa4;" 
d="M170 232v-22q0 -76 29 -111.5t92 -35.5q32 0 65.5 7t62.5 21q1 -10 1.5 -19.5t0.5 -20.5q0 -9 -0.5 -18.5t-1.5 -18.5q-29 -12 -67 -18t-70 -6q-94 0 -143 54t-49 168v20h-66l10 56h59q3 26 8 55t10 54h-58l9 56h63q21 67 49 111.5t62 71t73.5 37.5t82.5 11q30 0 65.5 -5
t56.5 -15q-4 -37 -18 -75q-21 11 -52.5 16.5t-59.5 5.5q-31 0 -56.5 -7t-47 -25t-39 -48.5t-32.5 -77.5h234q-1 -11 -5 -27t-10 -29h-234q-6 -24 -11.5 -53.5t-8.5 -55.5h222q-1 -12 -4.5 -27.5t-9.5 -28.5h-212z" />
    <glyph glyph-name="guilsinglleft" unicode="&#x2039;" horiz-adv-x="265" 
d="M127 43l-102 224l176 216l63 -14l-160 -207l85 -206z" />
    <glyph glyph-name="guilsinglright" unicode="&#x203a;" horiz-adv-x="265" 
d="M63 43l-62 14l159 207l-85 206l63 13l101 -224z" />
    <glyph glyph-name="fi" unicode="&#xfb01;" horiz-adv-x="596" 
d="M447 0h-77l80 455h-225l-80 -455h-78l80 455h-64l12 67h64l12 66q14 80 57.5 118t114.5 38q11 0 23.5 -1t23.5 -3q-3 -35 -14 -70q-8 1 -21.5 2t-25.5 1q-35 0 -54 -19.5t-26 -60.5l-12 -71h302zM574 678q0 -26 -15 -42t-39 -16q-21 0 -31.5 12t-10.5 29q0 26 15 42
t39 16q21 0 31.5 -12t10.5 -29z" />
    <glyph glyph-name="fl" unicode="&#xfb02;" horiz-adv-x="604" 
d="M458 0h-78l118 667q-10 2 -25 3.5t-32.5 3t-35 2.5t-32.5 1q-33 0 -55 -5.5t-36 -16t-22 -26.5t-11 -36l-12 -71h114q-3 -17 -8 -33.5l-10 -33.5h-108l-80 -455h-78l80 455h-64l12 67h64l13 69q14 77 63.5 115t152.5 38q21 0 46.5 -1t52.5 -3.5t52.5 -5.5t46.5 -7z" />
    <glyph glyph-name="daggerdbl" unicode="&#x2021;" horiz-adv-x="523" 
d="M479 301h-173l-29 -169h173l-13 -70h-172l-34 -191q-17 -5 -37.5 -7t-39.5 -2l36 200h-173l12 70h173l29 169h-172l12 70h173l30 174h75l-30 -174h173z" />
    <glyph glyph-name="periodcentered" unicode="&#xb7;" horiz-adv-x="211" 
d="M153 292q0 -28 -15 -42.5t-37 -14.5q-42 0 -42 40q0 28 15.5 42.5t37.5 14.5q41 0 41 -40z" />
    <glyph glyph-name="quotesinglbase" unicode="&#x201a;" horiz-adv-x="223" 
d="M146 90q-24 -141 -145 -196q-8 8 -14 20t-10 26q48 18 73.5 52.5t33.5 77.5h-39q-3 15 -3 34q0 32 8 62h109z" />
    <glyph glyph-name="quotedblbase" unicode="&#x201e;" horiz-adv-x="403" 
d="M146 90q-24 -141 -145 -196q-8 8 -14 20t-10 26q48 18 73.5 52.5t33.5 77.5h-39q-3 15 -3 34q0 32 8 62h109zM326 90q-24 -141 -145 -196q-8 8 -14 20t-10 26q48 18 73.5 52.5t33.5 77.5h-39q-3 15 -3 34q0 32 8 62h109z" />
    <glyph glyph-name="perthousand" unicode="&#x2030;" horiz-adv-x="1158" 
d="M378 546q0 -49 -11.5 -93t-34 -77t-56 -52.5t-77.5 -19.5q-66 0 -102 35.5t-36 106.5q0 52 13.5 96t37.5 75.5t57 49t73 17.5q66 0 101 -35.5t35 -102.5zM312 547q0 40 -16.5 62.5t-54.5 22.5q-47 0 -71.5 -35t-37.5 -102q-3 -14 -4 -27.5t-1 -24.5q0 -87 73 -87
q48 0 71.5 35.5t35.5 101.5q3 15 4 28.5t1 25.5zM239 -9q-29 4 -55 18l384 671q15 0 31 -2.5t29 -6.5zM747 231q0 -49 -11.5 -93t-34 -77t-56 -52.5t-77.5 -19.5q-65 0 -101.5 35.5t-36.5 106.5q0 52 13.5 96t37.5 75.5t57.5 49t73.5 17.5q66 0 100.5 -35.5t34.5 -102.5z
M682 232q0 40 -17 62.5t-55 22.5q-46 0 -72 -35t-37 -101q-2 -15 -3.5 -28t-1.5 -25q0 -86 73 -86q48 0 72.5 35t35.5 101q2 15 3.5 28.5t1.5 25.5zM1102 231q0 -49 -11.5 -93t-34 -77t-56 -52.5t-77.5 -19.5q-66 0 -102.5 35.5t-36.5 106.5q0 52 13.5 96t37.5 75.5t57.5 49
t73.5 17.5q66 0 101 -35.5t35 -102.5zM1036 232q0 40 -16.5 62.5t-54.5 22.5q-47 0 -73 -35t-37 -101q-2 -15 -3.5 -28t-1.5 -25q0 -86 73 -86q48 0 72 35t36 101q3 15 4 28.5t1 25.5z" />
    <glyph glyph-name="Acircumflex" unicode="&#xc2;" horiz-adv-x="568" 
d="M515 6q-19 -6 -39 -8t-40 -3l-34 215h-240l-108 -215q-18 1 -39.5 3.5t-38.5 7.5l165 331l179 337h87q30 -164 57.5 -334.5t50.5 -333.5zM351 549q-1 5 -1 8v8v11q0 7 1 18h-6q-2 -15 -6 -27t-7 -18l-137 -270h198zM497 711q-14 -3 -30.5 -4.5t-32.5 -1.5l-61 77l-87 -77
q-14 0 -34 1.5t-33 3.5l29.5 32t24.5 26l24 23.5t26 23.5h107q20 -26 35 -49.5t32 -54.5z" />
    <glyph glyph-name="Ecircumflex" unicode="&#xca;" horiz-adv-x="545" 
d="M544 674q-3 -19 -7.5 -38t-11.5 -36h-280l-38 -210h214l-12 -74h-214l-43 -242h302q-2 -17 -6.5 -36.5t-11.5 -37.5h-381l119 674h370v0zM492 711q-14 -3 -30.5 -4.5t-32.5 -1.5l-61 77l-87 -77q-14 0 -34 1.5t-33 3.5l29.5 32t24.5 26l24 23.5t26 23.5h107
q20 -26 35 -49.5t32 -54.5z" />
    <glyph glyph-name="Aacute" unicode="&#xc1;" horiz-adv-x="568" 
d="M515 6q-19 -6 -39 -8t-40 -3l-34 215h-240l-108 -215q-18 1 -39.5 3.5t-38.5 7.5l165 331l179 337h87q30 -164 57.5 -334.5t50.5 -333.5zM351 549q-1 5 -1 8v8v11q0 7 1 18h-6q-2 -15 -6 -27t-7 -18l-137 -270h198zM499 815q-20 -30 -43 -55.5t-61 -54.5q-17 1 -34.5 2.5
t-32.5 4.5l86 103h85v0z" />
    <glyph glyph-name="Edieresis" unicode="&#xcb;" horiz-adv-x="545" 
d="M544 674q-3 -19 -7.5 -38t-11.5 -36h-280l-38 -210h214l-12 -74h-214l-43 -242h302q-2 -17 -6.5 -36.5t-11.5 -37.5h-381l119 674h370v0zM312 764q0 -24 -14.5 -37t-34.5 -13q-41 0 -41 34q0 24 15 37.5t35 13.5q40 0 40 -35zM490 764q0 -24 -15 -37t-35 -13
q-41 0 -41 34q0 24 15 37.5t36 13.5q18 0 29 -9t11 -26z" />
    <glyph glyph-name="Egrave" unicode="&#xc8;" horiz-adv-x="545" 
d="M544 674q-3 -19 -7.5 -38t-11.5 -36h-280l-38 -210h214l-12 -74h-214l-43 -242h302q-2 -17 -6.5 -36.5t-11.5 -37.5h-381l119 674h370v0zM385 712q-16 -3 -32 -4.5t-33 -2.5q-27 29 -43.5 54.5t-25.5 55.5h79z" />
    <glyph glyph-name="Iacute" unicode="&#xcd;" horiz-adv-x="290" 
d="M351 815q-20 -30 -43 -55.5t-61 -54.5q-17 1 -34.5 2.5t-32.5 4.5l86 103h85v0zM139 0h-84l119 674h84z" />
    <glyph glyph-name="Icircumflex" unicode="&#xce;" horiz-adv-x="290" 
d="M351 709q-14 -3 -30 -4.5t-31 -1.5l-59 78l-85 -78q-13 0 -32.5 1.5t-31.5 3.5l28.5 32.5l23.5 26.5l22.5 23.5t25.5 23.5h104q19 -26 33.5 -49.5t31.5 -55.5zM139 0h-84l119 674h84z" />
    <glyph glyph-name="Idieresis" unicode="&#xcf;" horiz-adv-x="290" 
d="M181 764q0 -24 -14 -37t-34 -13q-39 0 -39 34q0 24 14 37.5t34 13.5q18 0 28.5 -9t10.5 -26zM354 764q0 -24 -14.5 -37t-34.5 -13q-40 0 -40 34q0 24 15 37.5t35 13.5q17 0 28 -9t11 -26zM139 0h-84l119 674h84z" />
    <glyph glyph-name="Igrave" unicode="&#xcc;" horiz-adv-x="290" 
d="M255 712q-16 -3 -32 -4.5t-33 -2.5q-27 29 -43.5 54.5t-25.5 55.5h79zM139 0h-84l119 674h84z" />
    <glyph glyph-name="Oacute" unicode="&#xd3;" horiz-adv-x="665" 
d="M622 429q0 -48 -7.5 -92.5t-18.5 -86.5q-36 -134 -111.5 -197t-187.5 -63q-110 0 -170.5 63.5t-60.5 188.5q0 38 4.5 74.5t14.5 78.5q33 147 110 218t196 71q111 0 171 -64t60 -191zM534 443q0 90 -40 129t-113 39q-43 0 -77 -13t-59.5 -41t-43.5 -72.5t-30 -108.5
q-8 -37 -12.5 -73t-4.5 -74q0 -166 150 -166q44 0 77 11.5t58 37.5t43.5 67.5t31.5 102.5q8 38 14 78.5t6 82.5zM515 815q-20 -30 -43 -55.5t-61 -54.5q-17 1 -34.5 2.5t-32.5 4.5l86 103h85v0z" />
    <glyph glyph-name="Ocircumflex" unicode="&#xd4;" horiz-adv-x="665" 
d="M622 429q0 -48 -7.5 -92.5t-18.5 -86.5q-36 -134 -111.5 -197t-187.5 -63q-110 0 -170.5 63.5t-60.5 188.5q0 38 4.5 74.5t14.5 78.5q33 147 110 218t196 71q111 0 171 -64t60 -191zM534 443q0 90 -40 129t-113 39q-43 0 -77 -13t-59.5 -41t-43.5 -72.5t-30 -108.5
q-8 -37 -12.5 -73t-4.5 -74q0 -166 150 -166q44 0 77 11.5t58 37.5t43.5 67.5t31.5 102.5q8 38 14 78.5t6 82.5zM526 711q-14 -3 -30.5 -4.5t-32.5 -1.5l-61 77l-87 -77q-14 0 -34 1.5t-33 3.5l29.5 32t24.5 26l24 23.5t26 23.5h107q20 -26 35 -49.5t32 -54.5z" />
    <glyph glyph-name="Ograve" unicode="&#xd2;" horiz-adv-x="665" 
d="M622 429q0 -48 -7.5 -92.5t-18.5 -86.5q-36 -134 -111.5 -197t-187.5 -63q-110 0 -170.5 63.5t-60.5 188.5q0 38 4.5 74.5t14.5 78.5q33 147 110 218t196 71q111 0 171 -64t60 -191zM534 443q0 90 -40 129t-113 39q-43 0 -77 -13t-59.5 -41t-43.5 -72.5t-30 -108.5
q-8 -37 -12.5 -73t-4.5 -74q0 -166 150 -166q44 0 77 11.5t58 37.5t43.5 67.5t31.5 102.5q8 38 14 78.5t6 82.5zM442 712q-16 -3 -32 -4.5t-33 -2.5q-27 29 -43.5 54.5t-25.5 55.5h79z" />
    <glyph glyph-name="Uacute" unicode="&#xda;" horiz-adv-x="670" 
d="M568 266q-12 -65 -30 -116t-48 -86.5t-75.5 -54.5t-112.5 -19q-49 0 -88.5 10t-67.5 33t-43 59.5t-15 89.5q0 19 3.5 48t8.5 55l68 389h84l-71 -401q-4 -23 -6.5 -47.5t-2.5 -38.5q0 -60 31 -90.5t104 -30.5q40 0 69.5 10t51 32t35.5 57t23 85l76 424h78zM512 815
q-20 -30 -43 -55.5t-61 -54.5q-17 1 -34.5 2.5t-32.5 4.5l86 103h85v0z" />
    <glyph glyph-name="Ucircumflex" unicode="&#xdb;" horiz-adv-x="670" 
d="M568 266q-12 -65 -30 -116t-48 -86.5t-75.5 -54.5t-112.5 -19q-49 0 -88.5 10t-67.5 33t-43 59.5t-15 89.5q0 19 3.5 48t8.5 55l68 389h84l-71 -401q-4 -23 -6.5 -47.5t-2.5 -38.5q0 -60 31 -90.5t104 -30.5q40 0 69.5 10t51 32t35.5 57t23 85l76 424h78zM549 711
q-14 -3 -30.5 -4.5t-32.5 -1.5l-61 77l-87 -77q-14 0 -34 1.5t-33 3.5l29.5 32t24.5 26l24 23.5t26 23.5h107q20 -26 35 -49.5t32 -54.5z" />
    <glyph glyph-name="Ugrave" unicode="&#xd9;" horiz-adv-x="670" 
d="M568 266q-12 -65 -30 -116t-48 -86.5t-75.5 -54.5t-112.5 -19q-49 0 -88.5 10t-67.5 33t-43 59.5t-15 89.5q0 19 3.5 48t8.5 55l68 389h84l-71 -401q-4 -23 -6.5 -47.5t-2.5 -38.5q0 -60 31 -90.5t104 -30.5q40 0 69.5 10t51 32t35.5 57t23 85l76 424h78zM445 712
q-16 -3 -32 -4.5t-33 -2.5q-27 29 -43.5 54.5t-25.5 55.5h79z" />
    <glyph glyph-name="dotlessi" unicode="&#x131;" horiz-adv-x="280" 
d="M54 0l92 522h77l-92 -522h-77z" />
    <glyph glyph-name="circumflex" unicode="&#x2c6;" 
d="M382 579q-28 -7 -64 -7l-61 112l-101 -112q-14 0 -33 1.5t-33 4.5q33 45 63.5 81.5t63.5 71.5h92q41 -73 73 -152z" />
    <glyph glyph-name="tilde" unicode="&#x2dc;" 
d="M428 690q-13 -36 -25.5 -58.5t-26.5 -34.5t-29 -16t-33 -4q-27 0 -51 15l-47 29q-19 12 -34 12q-12 0 -20 -3.5t-14 -11t-11 -19.5t-11 -29q-12 0 -27.5 3.5t-28.5 9.5q13 36 25.5 57.5t26 33.5t28 16t30.5 4q32 0 56 -14l47 -29q19 -12 34 -12q11 0 18.5 2.5t13.5 9.5
t11 19.5t12 32.5q12 0 28 -3.5t28 -9.5z" />
    <glyph glyph-name="macron" unicode="&#xaf;" 
d="M383 666q-2 -14 -7 -31.5t-11 -31.5h-244l10 63h252v0z" />
    <glyph glyph-name="macron" unicode="&#x2c9;" 
d="M383 666q-2 -14 -7 -31.5t-11 -31.5h-244l10 63h252v0z" />
    <glyph glyph-name="breve" unicode="&#x2d8;" 
d="M433 705q-32 -78 -81 -106.5t-108 -28.5q-61 0 -103 31.5t-53 103.5q15 6 31 11t33 8q8 -48 31.5 -70t66.5 -22q42 0 72 20t54 72q32 -6 57 -19z" />
    <glyph glyph-name="dotaccent" unicode="&#x2d9;" 
d="M298 642q0 -26 -15.5 -42t-38.5 -16q-22 0 -32.5 12t-10.5 29q0 26 15.5 42t39.5 16q21 0 31.5 -12t10.5 -29z" />
    <glyph glyph-name="ring" unicode="&#x2da;" 
d="M364 686q0 -53 -35.5 -84.5t-94.5 -31.5q-50 0 -74 24.5t-24 60.5q0 53 35.5 84t94.5 31q49 0 73.5 -23t24.5 -61zM305 684q0 42 -46 42q-27 0 -45.5 -18t-18.5 -50q0 -44 45 -44q28 0 46.5 18.5t18.5 51.5z" />
    <glyph glyph-name="cedilla" unicode="&#xb8;" 
d="M363 -110q0 -54 -38 -80.5t-104 -26.5q-13 0 -30 2t-31 5q-1 5 -1 11v12q0 17 3 31q14 -5 31 -6.5t29 -1.5q29 0 53 10t24 39q0 24 -14.5 33t-42.5 9q-9 0 -20 -1t-21 -3q2 12 7 24.5t10 21.5h49q48 0 72 -20.5t24 -58.5z" />
    <glyph glyph-name="hungarumlaut" unicode="&#x2dd;" 
d="M279 731q-20 -38 -50.5 -79.5t-69.5 -79.5q-14 0 -29.5 1.5t-27.5 5.5l98 152h79v0zM416 731q-20 -38 -50.5 -79.5t-69.5 -79.5q-14 0 -30 1.5t-27 5.5l98 152h79v0z" />
    <glyph glyph-name="ogonek" unicode="&#x2db;" 
d="M389 20q-55 -23 -89 -42.5t-53 -37t-25.5 -33t-6.5 -30.5q0 -25 11.5 -34.5t35.5 -9.5q13 0 26.5 2t27.5 5q0 -11 -3 -25.5t-7 -24.5q-17 -3 -33.5 -5t-29.5 -2q-42 0 -68.5 18t-26.5 61q0 27 11 49.5t36 43t64 40t95 40.5l35 -15v0z" />
    <glyph glyph-name="caron" unicode="&#x2c7;" 
d="M116 727q28 7 63 7l61 -112l101 112q14 0 33 -1.5t33 -4.5q-33 -45 -63.5 -81.5l-62.5 -71.5h-92q-23 37 -40.5 74t-32.5 78z" />
    <glyph glyph-name="lslash" unicode="&#x142;" horiz-adv-x="280" 
d="M205 424l62 20q-6 -39 -20 -75l-55 -17l-62 -352h-77l57 326l-55 -17l12 73l56 17l60 338q15 2 38 4.5t40 2.5z" />
    <glyph glyph-name="Scaron" unicode="&#x160;" horiz-adv-x="516" 
d="M496 668q-2 -20 -7 -39.5t-13 -36.5q-29 9 -70 14t-73 5q-79 0 -109.5 -30t-30.5 -80q0 -33 19 -55t47 -40.5t61.5 -36.5t61.5 -41.5t47 -56.5t19 -81q0 -43 -17 -79.5t-48.5 -63.5t-76 -42t-99.5 -15q-21 0 -44.5 2t-47 5.5t-45.5 9.5t-40 15q5 20 11 39.5t14 34.5
q38 -17 79 -25t84 -8q76 0 110 32t34 86q0 37 -19 62t-47 44.5t-61.5 37t-61.5 39t-47 51.5t-19 75q0 48 19 84.5t52.5 60.5t79 36.5t97.5 12.5q16 0 35 -1t37.5 -3t36.5 -5t32 -7zM511 813l-29 -32l-25 -26l-24.5 -23.5l-26.5 -23.5h-106q-20 26 -35.5 49.5t-32.5 54.5
q14 3 31 4.5t33 1.5l60 -77l87 77q14 0 34.5 -1.5t33.5 -3.5z" />
    <glyph glyph-name="scaron" unicode="&#x161;" horiz-adv-x="445" 
d="M154 727q28 7 63 7l61 -112l101 112q14 0 33 -1.5t33 -4.5q-33 -45 -63.5 -81.5l-62.5 -71.5h-92q-23 37 -40.5 74t-32.5 78zM406 517q-3 -34 -16 -72q-26 9 -59.5 13.5t-65.5 4.5q-47 0 -75.5 -16.5t-28.5 -62.5q0 -24 15 -40t38 -29.5t49.5 -26.5t49.5 -31.5t38 -44
t15 -63.5q0 -39 -15 -68.5t-41.5 -50t-63.5 -30.5t-81 -10q-37 0 -78.5 8t-68.5 24q4 18 10 38t14 32q27 -15 65.5 -23t72.5 -8q106 0 106 80q0 25 -15 42t-38 30.5t-49.5 26.5t-49.5 30t-38 42t-15 62q0 70 54.5 114t151.5 44q24 0 57.5 -3.5t61.5 -11.5z" />
    <glyph glyph-name="Yacute" unicode="&#xdd;" horiz-adv-x="556" 
d="M607 669l-70 -109l-68.5 -102l-69.5 -99.5l-74 -102.5l-45 -256h-85l45 256q-42 103 -74 206.5t-60 206.5q19 4 42.5 5.5t40.5 1.5l92 -295q8 -24 11 -50h6q13 27 29 52l196 293q19 0 43 -1.5t41 -5.5zM464 815q-20 -30 -43 -55.5t-61 -54.5q-17 1 -34.5 2.5t-32.5 4.5
l86 103h85v0z" />
    <glyph glyph-name="yacute" unicode="&#xfd;" horiz-adv-x="505" 
d="M262 -1q-33 -64 -62 -105.5t-56.5 -66t-56.5 -34t-64 -9.5q-18 0 -41 4t-44 15q5 19 10.5 37.5t13.5 32.5q14 -8 33.5 -11t40.5 -3q28 0 52.5 14.5t49.5 55.5l44 73l-26.5 120t-25 130.5t-21 134t-15.5 131.5q16 4 36.5 5.5t37.5 1.5l58 -384q2 -14 3.5 -29t1.5 -32h5
q11 33 25 62l195 383q16 0 39 -1.5t39 -5.5zM443 731q-20 -39 -52.5 -81t-70.5 -78q-14 0 -31.5 1.5t-29.5 4.5l102 153h82v0z" />
    <glyph glyph-name="Thorn" unicode="&#xde;" horiz-adv-x="562" 
d="M526 382q0 -62 -22 -108.5t-59 -77.5t-86 -46.5t-103 -15.5h-94l-24 -134h-83l119 674h83l-21 -120q26 3 47 4t47 1q44 0 80 -10t62 -31.5t40 -55t14 -80.5zM442 380q0 52 -27.5 81.5t-92.5 29.5q-17 0 -42.5 -1t-56.5 -5l-49 -282h81q39 0 73 10t59.5 31.5t40 55
t14.5 80.5z" />
    <glyph glyph-name="thorn" unicode="&#xfe;" horiz-adv-x="574" 
d="M434 340q0 122 -109 122q-31 0 -61 -10.5t-60 -33.5l-59 -335q20 -12 49.5 -18t55.5 -6q71 0 114 43.5t61 148.5q3 17 6 43t3 46zM515 344q0 -23 -2 -46t-5 -43q-22 -136 -86 -200.5t-173 -64.5q-12 0 -27 1.5t-31 4t-31.5 6.5t-27.5 9l-38 -217h-78l167 943q16 3 39 5
t40 2l-47 -262h5q32 27 64.5 38.5t67.5 11.5q73 0 118 -49t45 -139z" />
    <glyph glyph-name="Zcaron" unicode="&#x17d;" horiz-adv-x="550" 
d="M554 608l-443 -534h355q-2 -17 -7.5 -37.5t-11.5 -36.5h-447l5 67l442 533h-329q0 18 2 38t7 36h432zM488 813l-29 -32l-25 -26l-24.5 -23.5l-26.5 -23.5h-106q-20 26 -35.5 49.5t-32.5 54.5q14 3 31 4.5t33 1.5l60 -77l87 77q14 0 34.5 -1.5t33.5 -3.5z" />
    <glyph glyph-name="zcaron" unicode="&#x17e;" horiz-adv-x="469" 
d="M451 458l-353 -391h283q0 -17 -1.5 -33.5t-5.5 -33.5h-374l3 67l349 388h-256q0 18 1.5 35t6.5 32h349zM156 727q28 7 63 7l61 -112l101 112q14 0 33 -1.5t33 -4.5q-33 -45 -63.5 -81.5l-62.5 -71.5h-92q-23 37 -40.5 74t-32.5 78z" />
    <glyph glyph-name="DLE" unicode="&#xe000;" horiz-adv-x="563" 
d="M471 417q11 -20 17.5 -44.5t6.5 -53.5q0 -51 -19.5 -102.5t-52.5 -84.5l41 -54l-52 -43l-41 54q-29 -18 -61 -28t-64 -10q-71 0 -117 40l-61 -57l-39 46l63 58q-23 41 -23 96q0 26 5 52t14 51t22 46.5t29 36.5l-42 55l54 42l39 -52q29 19 61.5 28t65.5 9q69 0 117 -40
l58 55l39 -45zM430 315q0 60 -33 91.5t-87 31.5q-36 0 -68 -15t-56 -41.5t-37.5 -63.5t-13.5 -81q0 -59 31.5 -90.5t86.5 -31.5q38 0 70 15t55.5 41.5t37.5 63.5t14 80z" />
    <glyph glyph-name="Euro" unicode="&#x20ac;" 
d="M170 232v-22q0 -76 29 -111.5t92 -35.5q32 0 65.5 7t62.5 21q1 -10 1.5 -19.5t0.5 -20.5q0 -9 -0.5 -18.5t-1.5 -18.5q-29 -12 -67 -18t-70 -6q-94 0 -143 54t-49 168v20h-66l10 56h59q3 26 8 55t10 54h-58l9 56h63q21 67 49 111.5t62 71t73.5 37.5t82.5 11q30 0 65.5 -5
t56.5 -15q-4 -37 -18 -75q-21 11 -52.5 16.5t-59.5 5.5q-31 0 -56.5 -7t-47 -25t-39 -48.5t-32.5 -77.5h234q-1 -11 -5 -27t-10 -29h-234q-6 -24 -11.5 -53.5t-8.5 -55.5h222q-1 -12 -4.5 -27.5t-9.5 -28.5h-212z" />
    <glyph glyph-name="onehalf" unicode="&#xbd;" horiz-adv-x="825" 
d="M254 -8q-15 2 -26.5 6.5t-22.5 10.5l390 675q12 -1 26.5 -4t25.5 -8zM326 343q-2 -12 -6 -28.5t-9 -27.5h-282l10 56h134l48 274l-129 -19q0 11 1.5 26.5t3.5 26.5l139 23h55l-58 -331h93v0zM752 285q0 -30 -10.5 -56t-33 -52.5t-59 -55.5t-88.5 -65h172q-2 -13 -5.5 -28
t-8.5 -28h-262l6 50q70 45 113.5 79t68 60t33 47t8.5 41q0 31 -20.5 45t-56.5 14q-24 0 -46 -4.5t-38 -12.5q-3 15 -3 32v13q0 8 2 14q23 9 46 12.5t47 3.5q28 0 52.5 -7t43 -21t29 -34t10.5 -47z" />
    <glyph glyph-name="onequarter" unicode="&#xbc;" horiz-adv-x="825" 
d="M747 137q-2 -11 -6 -26.5t-9 -26.5h-51l-14 -84h-57l15 84h-193l9 56l52 68l54.5 68l54 63.5t49.5 54.5q5 0 12.5 -1t16 -2.5t15.5 -3t11 -3.5l-205 -248h134l15 87h56l-15 -86h56v0zM254 -8q-15 2 -26.5 6.5t-22.5 10.5l390 675q12 -1 26.5 -4t25.5 -8zM326 343
q-2 -12 -6 -28.5t-9 -27.5h-282l10 56h134l48 274l-129 -19q0 11 1.5 26.5t3.5 26.5l139 23h55l-58 -331h93v0z" />
    <glyph glyph-name="onesuperior" unicode="&#xb9;" horiz-adv-x="339" 
d="M326 343q-2 -12 -6 -28.5t-9 -27.5h-282l10 56h134l48 274l-129 -19q0 11 1.5 26.5t3.5 26.5l139 23h55l-58 -331h93v0z" />
    <glyph glyph-name="threequarters" unicode="&#xbe;" horiz-adv-x="825" 
d="M747 137q-2 -11 -6 -26.5t-9 -26.5h-51l-14 -84h-57l15 84h-193l9 56l52 68l54.5 68l54 63.5t49.5 54.5q5 0 12.5 -1t16 -2.5t15.5 -3t11 -3.5l-205 -248h134l15 87h56l-15 -86h56v0zM254 -8q-15 2 -26.5 6.5t-22.5 10.5l390 675q12 -1 26.5 -4t25.5 -8zM330 585
q0 -37 -21 -62t-60 -34v-4q27 -8 43 -27.5t16 -52.5q0 -34 -14 -57.5t-37.5 -38.5t-54 -22t-64.5 -7q-25 0 -54.5 4.5t-49.5 12.5q2 14 6 31.5t9 26.5q40 -19 90 -19q21 0 40.5 2.5t33.5 10t22.5 21t8.5 35.5q0 32 -18.5 43t-56.5 11h-66l9 54h61q45 0 69 12.5t24 47.5
q0 28 -17.5 40t-54.5 12q-24 0 -45.5 -4t-40.5 -11q-2 8 -3 19t-1 22v8t1 9q23 8 49 10.5t52 2.5q54 0 89 -23t35 -73z" />
    <glyph glyph-name="threesuperior" unicode="&#xb3;" horiz-adv-x="339" 
d="M330 585q0 -37 -21 -62t-60 -34v-4q27 -8 43 -27.5t16 -52.5q0 -34 -14 -57.5t-37.5 -38.5t-54 -22t-64.5 -7q-25 0 -54.5 4.5t-49.5 12.5q2 14 6 31.5t9 26.5q40 -19 90 -19q21 0 40.5 2.5t33.5 10t22.5 21t8.5 35.5q0 32 -18.5 43t-56.5 11h-66l9 54h61q45 0 69 12.5
t24 47.5q0 28 -17.5 40t-54.5 12q-24 0 -45.5 -4t-40.5 -11q-2 8 -3 19t-1 22v8t1 9q23 8 49 10.5t52 2.5q54 0 89 -23t35 -73z" />
    <glyph glyph-name="twosuperior" unicode="&#xb2;" horiz-adv-x="339" 
d="M326 572q0 -30 -10.5 -56t-33 -52.5t-59 -55.5t-88.5 -65h172q-2 -13 -5.5 -28t-8.5 -28h-262l6 50q70 45 113.5 79t68 60t33 47t8.5 41q0 31 -20.5 45t-56.5 14q-24 0 -46 -4.5t-38 -12.5q-3 15 -3 32v13q0 8 1 14q24 9 46.5 12.5t47.5 3.5q28 0 52.5 -7t43 -21t29 -34
t10.5 -47z" />
    <glyph glyph-name="brokenbar" unicode="&#xa6;" horiz-adv-x="270" 
d="M186 401h-64l48 273h64zM115 0h-64l49 277h64z" />
    <glyph glyph-name="minus" unicode="&#x2212;" 
d="M421 243h-353l11 65h353z" />
    <glyph glyph-name="multiply" unicode="&#xd7;" horiz-adv-x="498" 
d="M279 227l124 -152l-51 -43l-122 154l-175 -154l-38 44l177 154l-123 149l49 42l122 -152l175 152l40 -44z" />
    <glyph glyph-name="Lslash" unicode="&#x141;" horiz-adv-x="472" 
d="M432 75q-4 -18 -9 -37t-12 -38h-356l55 312l-64 -21l12 72l65 21l51 290h84l-46 -260l98 33q-4 -20 -9 -39t-13 -37l-89 -29l-47 -267h280v0z" />
    <glyph glyph-name="exclam" unicode="!" horiz-adv-x="244" 
d="M226 674q-21 -121 -46 -246l-50 -239q-14 -3 -30 -5t-30 -2q14 118 33 244t42 248h81v0zM120 46q0 -28 -15 -42.5t-37 -14.5q-42 0 -42 40q0 27 15.5 42t37.5 15q20 0 30.5 -11t10.5 -29z" />
    <glyph glyph-name="quotedbl" unicode="&#x22;" horiz-adv-x="331" 
d="M141 453q-24 -8 -52 -8l31 268h85zM288 453q-26 -8 -53 -8l32 268h84z" />
    <glyph glyph-name="numbersign" unicode="#" 
d="M510 508q-2 -16 -8 -34.5t-13 -35.5h-96l-67 -195h97q-2 -15 -7.5 -33t-13.5 -35h-100l-60 -175h-55l59 175h-98l-60 -175h-55l60 175h-91q3 17 9 35t14 33h92l67 195h-95q7 37 22 70h97l58 166h55l-57 -166h98l58 166h55l-58 -166h93v0zM240 438l-67 -195h98l67 195h-98
z" />
    <glyph glyph-name="dollar" unicode="$" 
d="M463 611q-5 -36 -16 -70q-28 7 -67 11t-73 4q-75 0 -109.5 -20t-34.5 -65q0 -28 20 -44t50 -28t64.5 -23.5t64.5 -29.5t50 -46.5t20 -74.5q0 -36 -13.5 -66t-40 -52t-64.5 -35t-87 -14l-7 -58h-73l13 57q-29 1 -66.5 7t-66.5 18q3 18 9.5 37.5t12.5 31.5
q36 -14 77.5 -20.5t85.5 -6.5q64 0 103.5 21.5t39.5 73.5q0 32 -20 50.5t-50 31.5t-64.5 24t-64.5 27t-50 41.5t-20 67.5q0 36 15.5 65t42.5 49.5t64.5 32t80.5 12.5l6 54h74l-11 -51q26 -1 52.5 -4t52.5 -8z" />
    <glyph glyph-name="percent" unicode="%" horiz-adv-x="804" 
d="M378 546q0 -49 -11.5 -93t-34 -77t-56 -52.5t-77.5 -19.5q-66 0 -102 35.5t-36 106.5q0 52 13.5 96t37.5 75.5t57 49t73 17.5q66 0 101 -35.5t35 -102.5zM312 547q0 40 -16.5 62.5t-54.5 22.5q-47 0 -71.5 -35t-37.5 -102q-3 -14 -4 -27.5t-1 -24.5q0 -87 73 -87
q48 0 71.5 35.5t35.5 101.5q3 15 4 28.5t1 25.5zM239 -9q-29 4 -55 18l384 671q15 0 31 -2.5t29 -6.5zM747 231q0 -49 -11.5 -93t-34 -77t-56 -52.5t-77.5 -19.5q-65 0 -101.5 35.5t-36.5 106.5q0 52 13.5 96t37.5 75.5t57.5 49t73.5 17.5q66 0 100.5 -35.5t34.5 -102.5z
M682 232q0 40 -17 62.5t-55 22.5q-46 0 -72 -35t-37 -101q-2 -15 -3.5 -28t-1.5 -25q0 -86 73 -86q48 0 72.5 35t35.5 101q2 15 3.5 28.5t1.5 25.5z" />
    <glyph glyph-name="ampersand" unicode="&#x26;" horiz-adv-x="637" 
d="M584 287q0 -33 -6 -59l-58 -56l-52 -48l79 -122q-19 -4 -40.5 -7t-40.5 -3l-59 88q-32 -25 -60 -42.5t-53.5 -28t-50.5 -15t-51 -4.5q-88 0 -130 45.5t-42 120.5q0 39 10 70.5t33 59t60 52t91 50.5q-16 34 -22.5 61.5t-6.5 51.5q0 88 48.5 135.5t127.5 47.5
q66 0 103.5 -33.5t37.5 -90.5q0 -35 -11 -62.5t-34 -50.5t-58.5 -44t-84.5 -42l119 -181q32 28 68 64l81 81q1 -8 1.5 -18.5t0.5 -19.5zM241 333q-43 -21 -70.5 -39t-43.5 -37t-22 -42t-6 -53q0 -53 26 -77.5t78 -24.5q16 0 33.5 3t37.5 11t44.5 22.5t54.5 37.5zM433 559
q0 32 -20 48t-55 16q-46 0 -72.5 -29t-26.5 -83q0 -45 26 -97q44 19 72.5 35.5t45.5 33.5t23.5 35.5t6.5 40.5z" />
    <glyph glyph-name="quotesingle" unicode="'" horiz-adv-x="184" 
d="M141 453q-24 -8 -52 -8l31 268h85z" />
    <glyph glyph-name="agrave" unicode="&#xe0;" horiz-adv-x="530" 
d="M329 579q-12 -4 -27.5 -5.5t-29.5 -1.5q-26 37 -44.5 79t-26.5 80h77l51 -152v0zM471 43q-6 -29 -21.5 -41t-43.5 -12q-33 0 -55 12.5t-33 44.5h-3q-40 -33 -78.5 -45t-77.5 -12q-65 0 -100 33t-35 92v14t1 14q6 42 22.5 69t43.5 43t64 23t83 9l111 5l27 148
q-17 10 -48 16t-63 6t-66 -5.5t-59 -14.5q-1 7 -1.5 15t-0.5 16q0 10 1 21.5t3 20.5q35 10 66.5 13.5t65.5 3.5q25 0 51 -3t50.5 -9t46 -15t36.5 -21l-67 -381q-1 -5 -1 -12q0 -25 29 -25h55zM226 231q-57 -2 -85 -21t-36 -66q-1 -5 -1 -10v-10q0 -34 16.5 -51.5t56.5 -17.5
q34 0 71 11t68 36l24 133z" />
    <glyph glyph-name="acircumflex" unicode="&#xe2;" horiz-adv-x="530" 
d="M441 579q-28 -7 -64 -7l-61 112l-101 -112q-14 0 -33 1.5t-33 4.5q33 45 63.5 81.5t63.5 71.5h92q41 -73 73 -152zM471 43q-6 -29 -21.5 -41t-43.5 -12q-33 0 -55 12.5t-33 44.5h-3q-40 -33 -78.5 -45t-77.5 -12q-65 0 -100 33t-35 92v14t1 14q6 42 22.5 69t43.5 43
t64 23t83 9l111 5l27 148q-17 10 -48 16t-63 6t-66 -5.5t-59 -14.5q-1 7 -1.5 15t-0.5 16q0 10 1 21.5t3 20.5q35 10 66.5 13.5t65.5 3.5q25 0 51 -3t50.5 -9t46 -15t36.5 -21l-67 -381q-1 -5 -1 -12q0 -25 29 -25h55zM226 231q-57 -2 -85 -21t-36 -66q-1 -5 -1 -10v-10
q0 -34 16.5 -51.5t56.5 -17.5q34 0 71 11t68 36l24 133z" />
    <glyph glyph-name="adieresis" unicode="&#xe4;" horiz-adv-x="530" 
d="M273 642q0 -27 -15 -41.5t-37 -14.5q-20 0 -31 10.5t-11 28.5q0 28 15.5 42.5t37.5 14.5q41 0 41 -40zM449 642q0 -27 -15 -41.5t-36 -14.5q-20 0 -31 10.5t-11 28.5q0 28 15.5 42.5t36.5 14.5q41 0 41 -40zM471 43q-6 -29 -21.5 -41t-43.5 -12q-33 0 -55 12.5t-33 44.5
h-3q-40 -33 -78.5 -45t-77.5 -12q-65 0 -100 33t-35 92v14t1 14q6 42 22.5 69t43.5 43t64 23t83 9l111 5l27 148q-17 10 -48 16t-63 6t-66 -5.5t-59 -14.5q-1 7 -1.5 15t-0.5 16q0 10 1 21.5t3 20.5q35 10 66.5 13.5t65.5 3.5q25 0 51 -3t50.5 -9t46 -15t36.5 -21l-67 -381
q-1 -5 -1 -12q0 -25 29 -25h55zM226 231q-57 -2 -85 -21t-36 -66q-1 -5 -1 -10v-10q0 -34 16.5 -51.5t56.5 -17.5q34 0 71 11t68 36l24 133z" />
    <glyph glyph-name="atilde" unicode="&#xe3;" horiz-adv-x="530" 
d="M503 690q-13 -36 -25.5 -58.5t-26.5 -34.5t-29 -16t-33 -4q-27 0 -51 15l-47 29q-19 12 -34 12q-12 0 -20 -3.5t-14 -11t-11 -19.5t-11 -29q-12 0 -27.5 3.5t-28.5 9.5q13 36 25.5 57.5t26 33.5t28 16t30.5 4q32 0 56 -14l47 -29q19 -12 34 -12q11 0 18.5 2.5t13.5 9.5
t11 19.5t12 32.5q12 0 28 -3.5t28 -9.5zM471 43q-6 -29 -21.5 -41t-43.5 -12q-33 0 -55 12.5t-33 44.5h-3q-40 -33 -78.5 -45t-77.5 -12q-65 0 -100 33t-35 92v14t1 14q6 42 22.5 69t43.5 43t64 23t83 9l111 5l27 148q-17 10 -48 16t-63 6t-66 -5.5t-59 -14.5q-1 7 -1.5 15
t-0.5 16q0 10 1 21.5t3 20.5q35 10 66.5 13.5t65.5 3.5q25 0 51 -3t50.5 -9t46 -15t36.5 -21l-67 -381q-1 -5 -1 -12q0 -25 29 -25h55zM226 231q-57 -2 -85 -21t-36 -66q-1 -5 -1 -10v-10q0 -34 16.5 -51.5t56.5 -17.5q34 0 71 11t68 36l24 133z" />
    <glyph glyph-name="aring" unicode="&#xe5;" horiz-adv-x="530" 
d="M418 686q0 -53 -35.5 -84.5t-94.5 -31.5q-50 0 -74 24.5t-24 60.5q0 53 35.5 84t94.5 31q49 0 73.5 -23t24.5 -61zM359 684q0 42 -46 42q-27 0 -45.5 -18t-18.5 -50q0 -44 45 -44q28 0 46.5 18.5t18.5 51.5zM471 43q-6 -29 -21.5 -41t-43.5 -12q-33 0 -55 12.5t-33 44.5
h-3q-40 -33 -78.5 -45t-77.5 -12q-65 0 -100 33t-35 92v14t1 14q6 42 22.5 69t43.5 43t64 23t83 9l111 5l27 148q-17 10 -48 16t-63 6t-66 -5.5t-59 -14.5q-1 7 -1.5 15t-0.5 16q0 10 1 21.5t3 20.5q35 10 66.5 13.5t65.5 3.5q25 0 51 -3t50.5 -9t46 -15t36.5 -21l-67 -381
q-1 -5 -1 -12q0 -25 29 -25h55zM226 231q-57 -2 -85 -21t-36 -66q-1 -5 -1 -10v-10q0 -34 16.5 -51.5t56.5 -17.5q34 0 71 11t68 36l24 133z" />
    <glyph glyph-name="ccedilla" unicode="&#xe7;" horiz-adv-x="475" 
d="M452 510q-4 -20 -9 -38.5t-13 -35.5q-23 11 -56.5 16.5t-65.5 5.5q-68 0 -108.5 -46.5t-54.5 -145.5q-2 -17 -3.5 -34.5t-1.5 -34.5q0 -73 31.5 -103t93.5 -30q29 0 59.5 7t56.5 22q5 -17 7.5 -36t3.5 -36q-15 -9 -32.5 -14.5t-36 -9.5t-36 -5.5t-31.5 -1.5
q-97 0 -148 53t-51 154q0 35 6 74q12 77 38 127.5t60 80t75 41.5t83 12q33 0 70.5 -5.5t62.5 -16.5zM315 -110q0 -54 -38 -80.5t-104 -26.5q-13 0 -30 2t-31 5q-1 5 -1 11v12q0 17 3 31q14 -5 31 -6.5t29 -1.5q29 0 53 10t24 39q0 24 -14.5 33t-42.5 9q-9 0 -20 -1t-21 -3
q2 12 7 24.5t10 21.5h49q48 0 72 -20.5t24 -58.5z" />
    <glyph glyph-name="eacute" unicode="&#xe9;" horiz-adv-x="520" 
d="M475 371q0 -20 -5.5 -53.5t-13.5 -66.5h-314q-6 -33 -6 -60q0 -67 30.5 -97.5t96.5 -30.5q36 0 73 9.5t62 23.5q5 -16 7.5 -35t3.5 -36q-32 -17 -73.5 -26t-79.5 -9q-99 0 -149 53t-50 154q0 34 6 73q11 73 34.5 123t55.5 81t71.5 44.5t82.5 13.5q80 0 124 -42t44 -119z
M400 374q0 51 -27 73.5t-72 22.5q-56 0 -94 -38.5t-55 -125.5h238q5 17 7.5 37t2.5 31zM447 731q-20 -39 -52.5 -81t-70.5 -78q-14 0 -31.5 1.5t-29.5 4.5l102 153h82v0z" />
    <glyph glyph-name="egrave" unicode="&#xe8;" horiz-adv-x="520" 
d="M475 371q0 -20 -5.5 -53.5t-13.5 -66.5h-314q-6 -33 -6 -60q0 -67 30.5 -97.5t96.5 -30.5q36 0 73 9.5t62 23.5q5 -16 7.5 -35t3.5 -36q-32 -17 -73.5 -26t-79.5 -9q-99 0 -149 53t-50 154q0 34 6 73q11 73 34.5 123t55.5 81t71.5 44.5t82.5 13.5q80 0 124 -42t44 -119z
M400 374q0 51 -27 73.5t-72 22.5q-56 0 -94 -38.5t-55 -125.5h238q5 17 7.5 37t2.5 31zM348 579q-12 -4 -27.5 -5.5t-29.5 -1.5q-26 37 -44.5 79t-26.5 80h77l51 -152v0z" />
    <glyph glyph-name="ecircumflex" unicode="&#xea;" horiz-adv-x="520" 
d="M475 371q0 -20 -5.5 -53.5t-13.5 -66.5h-314q-6 -33 -6 -60q0 -67 30.5 -97.5t96.5 -30.5q36 0 73 9.5t62 23.5q5 -16 7.5 -35t3.5 -36q-32 -17 -73.5 -26t-79.5 -9q-99 0 -149 53t-50 154q0 34 6 73q11 73 34.5 123t55.5 81t71.5 44.5t82.5 13.5q80 0 124 -42t44 -119z
M400 374q0 51 -27 73.5t-72 22.5q-56 0 -94 -38.5t-55 -125.5h238q5 17 7.5 37t2.5 31zM452 579q-28 -7 -64 -7l-61 112l-101 -112q-14 0 -33 1.5t-33 4.5q33 45 63.5 81.5t63.5 71.5h92q41 -73 73 -152z" />
    <glyph glyph-name="edieresis" unicode="&#xeb;" horiz-adv-x="520" 
d="M475 371q0 -20 -5.5 -53.5t-13.5 -66.5h-314q-6 -33 -6 -60q0 -67 30.5 -97.5t96.5 -30.5q36 0 73 9.5t62 23.5q5 -16 7.5 -35t3.5 -36q-32 -17 -73.5 -26t-79.5 -9q-99 0 -149 53t-50 154q0 34 6 73q11 73 34.5 123t55.5 81t71.5 44.5t82.5 13.5q80 0 124 -42t44 -119z
M400 374q0 51 -27 73.5t-72 22.5q-56 0 -94 -38.5t-55 -125.5h238q5 17 7.5 37t2.5 31zM286 642q0 -27 -15 -41.5t-37 -14.5q-20 0 -31 10.5t-11 28.5q0 28 15.5 42.5t37.5 14.5q41 0 41 -40zM462 642q0 -27 -15 -41.5t-36 -14.5q-20 0 -31 10.5t-11 28.5q0 28 15.5 42.5
t36.5 14.5q41 0 41 -40z" />
    <glyph glyph-name="iacute" unicode="&#xed;" horiz-adv-x="280" 
d="M342 731q-20 -39 -52.5 -81t-70.5 -78q-14 0 -31.5 1.5t-29.5 4.5l102 153h82v0zM54 0l92 522h77l-92 -522h-77z" />
    <glyph glyph-name="igrave" unicode="&#xec;" horiz-adv-x="280" 
d="M54 0l92 522h77l-92 -522h-77zM227 579q-12 -4 -27.5 -5.5t-29.5 -1.5q-26 37 -44.5 79t-26.5 80h77l51 -152v0z" />
    <glyph glyph-name="icircumflex" unicode="&#xee;" horiz-adv-x="280" 
d="M54 0l92 522h77l-92 -522h-77zM335 579q-28 -7 -64 -7l-61 112l-101 -112q-14 0 -33 1.5t-33 4.5q33 45 63.5 81.5t63.5 71.5h92q41 -73 73 -152z" />
    <glyph glyph-name="idieresis" unicode="&#xef;" horiz-adv-x="280" 
d="M54 0l92 522h77l-92 -522h-77zM165 642q0 -27 -15 -41.5t-37 -14.5q-20 0 -31 10.5t-11 28.5q0 28 15.5 42.5t37.5 14.5q41 0 41 -40zM341 642q0 -27 -15 -41.5t-36 -14.5q-20 0 -31 10.5t-11 28.5q0 28 15.5 42.5t36.5 14.5q41 0 41 -40z" />
    <glyph glyph-name="ntilde" unicode="&#xf1;" horiz-adv-x="584" 
d="M509 410q0 -9 -1 -20t-3 -19l-65 -371h-77l65 373q1 5 1.5 10.5t0.5 11.5q0 32 -20.5 49t-62.5 17t-76 -11.5t-67 -35.5l-73 -414h-78l91 518q16 3 39 4.5t40 1.5l-9 -47h4q42 33 79 44t77 11q26 0 50.5 -6.5t43.5 -21t30 -37.5t11 -57zM531 690q-13 -36 -25.5 -58.5
t-26.5 -34.5t-29 -16t-33 -4q-27 0 -51 15l-47 29q-19 12 -34 12q-12 0 -20 -3.5t-14 -11t-11 -19.5t-11 -29q-12 0 -27.5 3.5t-28.5 9.5q13 36 25.5 57.5t26 33.5t28 16t30.5 4q32 0 56 -14l47 -29q19 -12 34 -12q11 0 18.5 2.5t13.5 9.5t11 19.5t12 32.5q12 0 28 -3.5
t28 -9.5z" />
    <glyph glyph-name="oacute" unicode="&#xf3;" horiz-adv-x="567" 
d="M510 327q0 -18 -1 -36.5t-5 -39.5q-24 -136 -90 -198.5t-162 -62.5q-87 0 -141 49.5t-54 153.5q0 19 1 37.5t5 41.5q24 135 89 197.5t162 62.5q42 0 77.5 -11.5t62 -36t41.5 -63.5t15 -94zM428 330q0 37 -8.5 62.5t-24 41.5t-37 23t-47.5 7q-30 0 -55.5 -8.5t-47 -31
t-37.5 -61.5t-26 -99q-4 -23 -5 -41.5t-1 -35.5q0 -70 32 -99.5t84 -29.5q33 0 59 10t46.5 33t36 61.5t25.5 96.5q4 20 5 37t1 34zM472 731q-20 -39 -52.5 -81t-70.5 -78q-14 0 -31.5 1.5t-29.5 4.5l102 153h82v0z" />
    <glyph glyph-name="ograve" unicode="&#xf2;" horiz-adv-x="567" 
d="M510 327q0 -18 -1 -36.5t-5 -39.5q-24 -136 -90 -198.5t-162 -62.5q-87 0 -141 49.5t-54 153.5q0 19 1 37.5t5 41.5q24 135 89 197.5t162 62.5q42 0 77.5 -11.5t62 -36t41.5 -63.5t15 -94zM428 330q0 37 -8.5 62.5t-24 41.5t-37 23t-47.5 7q-30 0 -55.5 -8.5t-47 -31
t-37.5 -61.5t-26 -99q-4 -23 -5 -41.5t-1 -35.5q0 -70 32 -99.5t84 -29.5q33 0 59 10t46.5 33t36 61.5t25.5 96.5q4 20 5 37t1 34zM364 579q-12 -4 -27.5 -5.5t-29.5 -1.5q-26 37 -44.5 79t-26.5 80h77l51 -152v0z" />
    <glyph glyph-name="ocircumflex" unicode="&#xf4;" horiz-adv-x="567" 
d="M510 327q0 -18 -1 -36.5t-5 -39.5q-24 -136 -90 -198.5t-162 -62.5q-87 0 -141 49.5t-54 153.5q0 19 1 37.5t5 41.5q24 135 89 197.5t162 62.5q42 0 77.5 -11.5t62 -36t41.5 -63.5t15 -94zM428 330q0 37 -8.5 62.5t-24 41.5t-37 23t-47.5 7q-30 0 -55.5 -8.5t-47 -31
t-37.5 -61.5t-26 -99q-4 -23 -5 -41.5t-1 -35.5q0 -70 32 -99.5t84 -29.5q33 0 59 10t46.5 33t36 61.5t25.5 96.5q4 20 5 37t1 34zM469 579q-28 -7 -64 -7l-61 112l-101 -112q-14 0 -33 1.5t-33 4.5q33 45 63.5 81.5t63.5 71.5h92q41 -73 73 -152z" />
    <glyph glyph-name="odieresis" unicode="&#xf6;" horiz-adv-x="567" 
d="M510 327q0 -18 -1 -36.5t-5 -39.5q-24 -136 -90 -198.5t-162 -62.5q-87 0 -141 49.5t-54 153.5q0 19 1 37.5t5 41.5q24 135 89 197.5t162 62.5q42 0 77.5 -11.5t62 -36t41.5 -63.5t15 -94zM428 330q0 37 -8.5 62.5t-24 41.5t-37 23t-47.5 7q-30 0 -55.5 -8.5t-47 -31
t-37.5 -61.5t-26 -99q-4 -23 -5 -41.5t-1 -35.5q0 -70 32 -99.5t84 -29.5q33 0 59 10t46.5 33t36 61.5t25.5 96.5q4 20 5 37t1 34zM295 642q0 -27 -15 -41.5t-37 -14.5q-20 0 -31 10.5t-11 28.5q0 28 15.5 42.5t37.5 14.5q41 0 41 -40zM471 642q0 -27 -15 -41.5t-36 -14.5
q-20 0 -31 10.5t-11 28.5q0 28 15.5 42.5t36.5 14.5q41 0 41 -40z" />
    <glyph glyph-name="otilde" unicode="&#xf5;" horiz-adv-x="567" 
d="M510 327q0 -18 -1 -36.5t-5 -39.5q-24 -136 -90 -198.5t-162 -62.5q-87 0 -141 49.5t-54 153.5q0 19 1 37.5t5 41.5q24 135 89 197.5t162 62.5q42 0 77.5 -11.5t62 -36t41.5 -63.5t15 -94zM428 330q0 37 -8.5 62.5t-24 41.5t-37 23t-47.5 7q-30 0 -55.5 -8.5t-47 -31
t-37.5 -61.5t-26 -99q-4 -23 -5 -41.5t-1 -35.5q0 -70 32 -99.5t84 -29.5q33 0 59 10t46.5 33t36 61.5t25.5 96.5q4 20 5 37t1 34zM510 690q-13 -36 -25.5 -58.5t-26.5 -34.5t-29 -16t-33 -4q-27 0 -51 15l-47 29q-19 12 -34 12q-12 0 -20 -3.5t-14 -11t-11 -19.5t-11 -29
q-12 0 -27.5 3.5t-28.5 9.5q13 36 25.5 57.5t26 33.5t28 16t30.5 4q32 0 56 -14l47 -29q19 -12 34 -12q11 0 18.5 2.5t13.5 9.5t11 19.5t12 32.5q12 0 28 -3.5t28 -9.5z" />
    <glyph glyph-name="uacute" unicode="&#xfa;" horiz-adv-x="581" 
d="M433 0h-78l8 45h-4q-38 -31 -74.5 -43t-76.5 -12q-26 0 -50.5 7t-43.5 21.5t-30.5 38t-11.5 56.5q0 9 1 19.5t3 19.5l65 367q16 2 39 4t40 2l-67 -375q-1 -5 -1.5 -10.5t-0.5 -10.5q0 -32 20 -50t65 -18q71 0 138 44l73 414q16 2 39 4t40 2zM476 731q-20 -39 -52.5 -81
t-70.5 -78q-14 0 -31.5 1.5t-29.5 4.5l102 153h82v0z" />
    <glyph glyph-name="ugrave" unicode="&#xf9;" horiz-adv-x="581" 
d="M433 0h-78l8 45h-4q-38 -31 -74.5 -43t-76.5 -12q-26 0 -50.5 7t-43.5 21.5t-30.5 38t-11.5 56.5q0 9 1 19.5t3 19.5l65 367q16 2 39 4t40 2l-67 -375q-1 -5 -1.5 -10.5t-0.5 -10.5q0 -32 20 -50t65 -18q71 0 138 44l73 414q16 2 39 4t40 2zM373 579q-12 -4 -27.5 -5.5
t-29.5 -1.5q-26 37 -44.5 79t-26.5 80h77l51 -152v0z" />
    <glyph glyph-name="ucircumflex" unicode="&#xfb;" horiz-adv-x="581" 
d="M433 0h-78l8 45h-4q-38 -31 -74.5 -43t-76.5 -12q-26 0 -50.5 7t-43.5 21.5t-30.5 38t-11.5 56.5q0 9 1 19.5t3 19.5l65 367q16 2 39 4t40 2l-67 -375q-1 -5 -1.5 -10.5t-0.5 -10.5q0 -32 20 -50t65 -18q71 0 138 44l73 414q16 2 39 4t40 2zM485 579q-28 -7 -64 -7
l-61 112l-101 -112q-14 0 -33 1.5t-33 4.5q33 45 63.5 81.5t63.5 71.5h92q41 -73 73 -152z" />
    <glyph glyph-name="udieresis" unicode="&#xfc;" horiz-adv-x="581" 
d="M433 0h-78l8 45h-4q-38 -31 -74.5 -43t-76.5 -12q-26 0 -50.5 7t-43.5 21.5t-30.5 38t-11.5 56.5q0 9 1 19.5t3 19.5l65 367q16 2 39 4t40 2l-67 -375q-1 -5 -1.5 -10.5t-0.5 -10.5q0 -32 20 -50t65 -18q71 0 138 44l73 414q16 2 39 4t40 2zM314 642q0 -27 -15 -41.5
t-37 -14.5q-20 0 -31 10.5t-11 28.5q0 28 15.5 42.5t37.5 14.5q41 0 41 -40zM490 642q0 -27 -15 -41.5t-36 -14.5q-20 0 -31 10.5t-11 28.5q0 28 15.5 42.5t36.5 14.5q41 0 41 -40z" />
    <glyph glyph-name="dagger" unicode="&#x2020;" horiz-adv-x="523" 
d="M471 291h-173l-73 -420q-17 -5 -38 -7t-40 -2l76 429h-173l13 70h173l32 184h75l-32 -184h172z" />
    <glyph glyph-name="degree" unicode="&#xb0;" horiz-adv-x="314" 
d="M314 544q-11 -57 -49 -88t-92 -31q-51 0 -78.5 28.5t-27.5 74.5v13q0 7 2 15q11 59 49.5 88.5t92.5 29.5q50 0 78 -28.5t28 -73.5q0 -13 -3 -28zM265 551q1 5 1 9v9q0 29 -16 46t-44 17q-37 0 -58.5 -23t-27.5 -58q-2 -5 -2 -11v-11q0 -28 15.5 -44t44.5 -16
q38 0 59 22.5t28 59.5z" />
    <glyph glyph-name="cent" unicode="&#xa2;" 
d="M489 582q-4 -18 -10.5 -37t-14.5 -35q-24 11 -58.5 16t-63.5 5q-33 0 -64.5 -8t-58.5 -28t-46.5 -55t-28.5 -88q-6 -39 -6 -69q0 -40 11 -67.5t30.5 -44t47 -24t60.5 -7.5q31 0 67 7.5t62 20.5q4 -15 6 -36.5t2 -35.5q-23 -13 -60 -20t-66 -7l-8 -69h-75l16 70
q-85 13 -129.5 64.5t-44.5 142.5q0 16 1 32t4 33q12 70 37.5 118.5t60.5 79t77 45t87 17.5l10 72h75l-17 -72q28 -2 52.5 -7t44.5 -13z" />
    <glyph glyph-name="sterling" unicode="&#xa3;" 
d="M431 70q-2 -16 -6 -34.5t-11 -35.5h-386l11 64q60 17 87 56t27 96q0 25 -5.5 53t-13.5 59h-82l11 58h56q-3 23 -4.5 40.5t-1.5 37.5q0 51 17 92t47.5 69.5t73.5 43.5t95 15q38 0 77 -3t68 -11q-1 -16 -5.5 -37t-10.5 -36q-12 4 -29 7t-35.5 5t-37.5 3t-35 1
q-72 0 -109.5 -38t-37.5 -110q0 -20 1.5 -38t7.5 -41h234q-1 -14 -5 -29.5t-10 -28.5h-203q8 -29 12.5 -57t4.5 -51q0 -50 -19 -87.5t-60 -62.5h277v0z" />
    <glyph glyph-name="section" unicode="&#xa7;" 
d="M458 298q0 -44 -29.5 -85.5t-100.5 -74.5q-13 8 -23.5 21.5t-18.5 28.5q54 20 76 47t22 57t-18 49t-45 32.5t-59 26t-59 29t-45 41.5t-18 64q0 34 15 61.5t41.5 47t63.5 30.5t80 11q12 0 28 -1t33 -2.5t34 -4.5t31 -6q-2 -18 -7 -36t-10 -32q-59 17 -124 17
q-49 0 -79.5 -19.5t-30.5 -58.5q0 -26 18 -42.5t45 -29.5t58.5 -25.5t58.5 -30.5t45 -45.5t18 -69.5zM43 247q0 44 29.5 85.5t100.5 74.5q13 -8 23.5 -21.5t18.5 -28.5q-53 -20 -75 -47t-22 -57t18 -48.5t45 -32.5t58.5 -26t58.5 -29t45 -42t18 -64q0 -34 -15 -61.5
t-41.5 -47t-63 -30.5t-80.5 -11q-12 0 -27.5 1t-33 2.5t-34.5 4.5t-31 6q2 18 7 36t11 32q57 -17 123 -17q49 0 80 19.5t31 58.5q0 26 -18 42.5t-45 29.5t-59 25.5t-59 30.5t-45 45.5t-18 69.5z" />
    <glyph glyph-name="bullet" unicode="&#x2022;" horiz-adv-x="352" 
d="M274 292q0 -54 -33.5 -84t-81.5 -30q-39 0 -61.5 23.5t-22.5 61.5q0 27 9 48.5t25 36.5t36.5 23t44.5 8q37 0 60.5 -22.5t23.5 -64.5z" />
    <glyph glyph-name="paragraph" unicode="&#xb6;" 
d="M404 124q-8 -46 -21.5 -83.5t-35 -69t-52.5 -58.5t-75 -52l-27 43q39 22 66 45.5t45 50.5t28.5 57t16.5 66l88 497q-6 2 -16 3.5t-21.5 3t-23 2.5t-20.5 1l-89 -507q-5 -30 -13 -53t-20.5 -41.5t-30.5 -34.5t-45 -31l-27 45q20 11 33.5 22t22.5 24.5t14.5 29.5t9.5 37
l20 109h-17q-34 0 -63.5 11t-51 32.5t-33.5 54t-12 74.5q0 28 6 58q12 65 39.5 108t65.5 69t83.5 36.5t92.5 10.5q42 0 81.5 -5t77.5 -17z" />
    <glyph glyph-name="germandbls" unicode="&#xdf;" horiz-adv-x="557" 
d="M486 131q0 -34 -13.5 -60.5t-36.5 -44.5t-53 -27t-63 -9q-32 0 -65.5 6t-62.5 23q5 20 12 38t17 33q23 -16 50 -22t49 -6q38 0 61.5 14.5t23.5 51.5q0 30 -19.5 53.5t-42.5 48.5t-42.5 54.5t-19.5 69.5q0 29 12 53t30 45t39.5 39t39.5 36t30 36.5t12 38.5q0 40 -23 56.5
t-67 16.5q-31 0 -52.5 -7t-36 -22.5t-23.5 -40t-15 -59.5l-96 -546h-78l96 546q19 106 72.5 152t143.5 46q35 0 65 -8.5t51.5 -25t34 -40.5t12.5 -56q0 -28 -12 -52.5t-30.5 -45.5t-40 -40t-40 -37t-30.5 -36t-12 -38q0 -33 19 -58t42.5 -50t42.5 -54.5t19 -71.5z" />
    <glyph glyph-name="registered" unicode="&#xae;" horiz-adv-x="725" 
d="M666 398q0 -82 -25.5 -151t-71 -119t-109 -78t-139.5 -28q-58 0 -105.5 18t-81.5 51t-52 79.5t-18 104.5q0 80 25 148.5t70 119t108.5 79.5t140.5 29q57 0 104.5 -17.5t81.5 -50.5t53 -80t19 -105zM626 396q0 51 -15.5 91.5t-44.5 69t-70 43.5t-91 15q-67 0 -123 -26
t-96 -71.5t-62 -107t-22 -133.5q0 -49 14.5 -89.5t42.5 -69.5t69.5 -45t94.5 -16q67 0 122.5 25.5t95.5 71t62.5 107.5t22.5 135zM501 428q0 -46 -26 -75.5t-68 -37.5q14 -14 26.5 -35.5t21.5 -50.5l27 -81q-14 -3 -29.5 -4l-30.5 -2l-18 59q-12 37 -23.5 59t-22.5 35h-60
l-26 -151h-58l67 375q32 4 57 5.5t51 1.5q47 0 79.5 -22.5t32.5 -75.5zM442 425q0 29 -17 41t-46 12q-23 0 -49 -3l-23 -132h47q39 0 63.5 20t24.5 62z" />
    <glyph glyph-name="Eth" unicode="&#xd0;" horiz-adv-x="682" 
d="M639 423q0 -105 -26 -185.5t-73 -135.5t-112.5 -83t-145.5 -28q-23 0 -51.5 1t-58.5 2.5t-60 4t-56 6.5l55 314h-65l13 71h64l49 277l52.5 6t55 4.5t54 2.5t48.5 1q56 0 103 -15t81 -46.5t53.5 -80t19.5 -116.5zM551 423q0 57 -16 93t-42 56.5t-59 28t-66 7.5
q-29 0 -58.5 -1.5t-64.5 -4.5l-38 -212h116q-6 -31 -22 -71h-106l-44 -248q14 -1 31 -2.5t35 -2.5t35.5 -1.5t32.5 -0.5q61 0 110.5 23t84 68t53 112.5t18.5 155.5z" />
    <glyph glyph-name="eth" unicode="&#xf0;" horiz-adv-x="558" 
d="M518 509q0 -121 -18 -217.5t-53.5 -163.5t-88 -102.5t-120.5 -35.5q-182 0 -182 193q0 95 22.5 159.5t60 104.5t85.5 57.5t100 17.5q26 0 57.5 -4t57.5 -12q0 78 -30 120.5t-99 45.5l-63 -99q-13 1 -26 3t-24 7l55 87q-24 -2 -48 -7t-42 -12q0 17 3 39.5t8 35.5
q27 9 62.5 13t61.5 5l44 71q12 0 26.5 -3t24.5 -10l-40 -62q35 -6 65 -21t52.5 -42.5t35.5 -68.5t13 -99zM433 436q-23 8 -52.5 13t-57.5 5q-33 0 -65.5 -11.5t-59 -42t-43 -83.5t-16.5 -136q0 -66 25.5 -93.5t79.5 -27.5q43 0 74.5 21t54 66t37 116.5t23.5 172.5z" />
    </font>
</defs>
</svg>
