<?xml version="1.0" standalone="no"?>
<!DOCTYPE svg PUBLIC "-//W3C//DTD SVG 1.1//EN" "http://www.w3.org/Graphics/SVG/1.1/DTD/svg11.dtd" >
<svg>
<metadata>
Created by FontForge 20090622 at Wed Jun  8 13:51:37 2016
 By deploy user
Copyright &#194;&#169; 2014 Monotype Imaging Inc. All rights reserved.
</metadata>
<defs>
<font id="FrutigerLTW01-55Roman" horiz-adv-x="556" >
  <font-face 
    font-family="FrutigerLTW01-55Roman"
    font-weight="400"
    font-stretch="normal"
    units-per-em="1000"
    panose-1="2 11 6 2 2 2 4 2 2 4"
    ascent="800"
    descent="-200"
    x-height="510"
    cap-height="698"
    bbox="-31 -250 1000 935"
    underline-thickness="50"
    underline-position="-125"
    unicode-range="U+000D-U+E308"
  />
<missing-glyph horiz-adv-x="512" 
d="M512 718v-718h-512v718h512zM50 50h412v617h-412v-617zM223 264q0 37 10 61.5t43 59.5l16 17q21 20 30.5 35t9.5 37q0 36 -22.5 60.5t-53.5 24.5q-34 0 -55 -23.5t-27 -71.5l-50 8q6 66 41.5 101.5t93.5 35.5q54 0 89 -36t35 -95q0 -36 -14 -62t-50 -59q-22 -20 -31 -32
t-13 -29.5t-4 -51.5v-10h-46q0 2 -1 10.5t-1 19.5zM278 184v-67h-56v67h56z" />
    <glyph glyph-name=".notdef" horiz-adv-x="512" 
d="M512 718v-718h-512v718h512zM50 50h412v617h-412v-617zM223 264q0 37 10 61.5t43 59.5l16 17q21 20 30.5 35t9.5 37q0 36 -22.5 60.5t-53.5 24.5q-34 0 -55 -23.5t-27 -71.5l-50 8q6 66 41.5 101.5t93.5 35.5q54 0 89 -36t35 -95q0 -36 -14 -62t-50 -59q-22 -20 -31 -32
t-13 -29.5t-4 -51.5v-10h-46q0 2 -1 10.5t-1 19.5zM278 184v-67h-56v67h56z" />
    <glyph glyph-name="glyph1" horiz-adv-x="0" 
 />
    <glyph glyph-name="glyph1" horiz-adv-x="0" 
 />
    <glyph glyph-name="uni000D" unicode="&#xd;" horiz-adv-x="278" 
 />
    <glyph glyph-name="space" unicode=" " horiz-adv-x="278" 
 />
    <glyph glyph-name="exclam" unicode="!" horiz-adv-x="389" 
d="M251 698l-13 -502h-86l-13 502h112zM251 112v-112h-112v112h112z" />
    <glyph glyph-name="quotedbl" unicode="&#x22;" 
d="M247 698v-245h-88v245h88zM397 698v-245h-88v245h88z" />
    <glyph glyph-name="numbersign" unicode="#" 
d="M199 208l-29 -208h-76l29 208h-95v76h106l18 130h-96v76h107l29 208h76l-29 -208h118l29 208h76l-29 -208h95v-76h-106l-18 -130h95v-76h-106l-29 -208h-76l29 208h-118zM210 284h118l18 130h-118z" />
    <glyph glyph-name="dollar" unicode="$" 
d="M83 17l12 96q28 -19 61 -28t91 -9v243l-42 21q-72 37 -101 81t-29 99q0 68 45 120t127 66v100h58v-96q77 -2 143 -25l-14 -92q-24 14 -53.5 21.5t-75.5 7.5v-217l80 -45q45 -28 70.5 -64.5t25.5 -100.5q0 -80 -47.5 -134t-128.5 -67v-100h-58v94q-54 0 -90.5 7t-73.5 22z
M181 523q0 -48 66 -88v179q-33 -12 -49.5 -33t-16.5 -58zM375 189q0 35 -16.5 58.5t-53.5 42.5v-203q30 9 50 38t20 64z" />
    <glyph glyph-name="percent" unicode="%" horiz-adv-x="1000" 
d="M752 720l-433 -742h-72l433 742h72zM110 510q0 102 37 151t113 49q75 0 112.5 -49.5t37.5 -150.5q0 -96 -39 -148t-111 -52t-111 52t-39 148zM322 520q0 70 -16 95t-46 25q-31 0 -46.5 -29.5t-15.5 -99.5t15.5 -100.5t46.5 -30.5t46.5 28.5t15.5 111.5zM590 188
q0 104 37.5 152t112.5 48t112.5 -48.5t37.5 -151.5q0 -95 -38.5 -147.5t-111.5 -52.5q-72 0 -111 52t-39 148zM802 198q0 70 -16 95t-46 25q-31 0 -46.5 -29.5t-15.5 -99.5t15.5 -100.5t46.5 -30.5t46.5 28.5t15.5 111.5z" />
    <glyph glyph-name="ampersand" unicode="&#x26;" horiz-adv-x="722" 
d="M309 -12q-105 0 -165.5 53.5t-60.5 141.5q0 71 37.5 121t118.5 83q-39 47 -55.5 83.5t-16.5 75.5q0 78 50 121t132 43q76 0 124.5 -41.5t48.5 -116.5q0 -55 -39 -101.5t-114 -80.5l142 -162q19 30 29 69t14 100h94q-6 -68 -24 -125t-56 -114l122 -138h-125l-57 68
q-37 -42 -84.5 -61t-114.5 -19zM428 548q0 86 -83 86q-38 0 -61 -24t-23 -66q0 -27 14.5 -55t47.5 -63q49 24 77 55.5t28 66.5zM189 190q0 -55 40 -90.5t97 -35.5q71 0 129 67l-168 197q-53 -35 -75.5 -65.5t-22.5 -72.5z" />
    <glyph glyph-name="quotesingle" unicode="'" horiz-adv-x="278" 
d="M183 698v-245h-88v245h88z" />
    <glyph glyph-name="parenleft" unicode="(" horiz-adv-x="333" 
d="M65 308q0 102 37 207t127 241h90q-83 -146 -118.5 -250.5t-35.5 -197.5q0 -99 37 -206t117 -242h-90q-85 126 -124.5 234.5t-39.5 213.5z" />
    <glyph glyph-name="parenright" unicode=")" horiz-adv-x="333" 
d="M168 308q0 97 -36 203.5t-118 244.5h90q86 -128 125 -235t39 -213q0 -102 -37 -207t-127 -241h-90q84 147 119 250.5t35 197.5z" />
    <glyph glyph-name="asterisk" unicode="*" 
d="M196 310l-74 50l110 123l-160 33l28 85l151 -62l-16 159h91l-15 -159l146 62l27 -85l-157 -33l107 -123l-75 -50l-81 138z" />
    <glyph glyph-name="plus" unicode="+" horiz-adv-x="600" 
d="M47 209v88h209v209h88v-209h209v-88h-209v-209h-88v209h-209z" />
    <glyph glyph-name="comma" unicode="," horiz-adv-x="278" 
d="M195 112l-85 -245h-90l63 245h112z" />
    <glyph glyph-name="hyphen" unicode="-" horiz-adv-x="333" 
d="M295 307v-76h-257v76h257z" />
    <glyph glyph-name="period" unicode="." horiz-adv-x="278" 
d="M195 112v-112h-112v112h112z" />
    <glyph glyph-name="slash" unicode="/" horiz-adv-x="278" 
d="M303 710l-240 -722h-88l240 722h88z" />
    <glyph glyph-name="zero" unicode="0" 
d="M41 349q0 161 59.5 261t177.5 100t177.5 -98.5t59.5 -262.5q0 -157 -58 -259t-179 -102q-120 0 -178.5 101t-58.5 260zM409 349q0 115 -31.5 197t-100.5 82q-65 0 -97.5 -79.5t-32.5 -199.5q0 -135 33.5 -207t97.5 -72q63 0 97 71.5t34 207.5z" />
    <glyph glyph-name="one" unicode="1" 
d="M162 491l-53 67l171 140h89v-698h-100v583z" />
    <glyph glyph-name="two" unicode="2" 
d="M203 245q83 78 128 144.5t45 127.5q0 48 -38 79.5t-96 31.5q-76 0 -160 -45l-10 86q97 41 183 41q101 0 164 -53t63 -145q0 -73 -69 -171t-256 -259h335v-82h-442v107z" />
    <glyph glyph-name="three" unicode="3" 
d="M210 70q70 0 120 30t50 89q0 65 -44.5 99t-127.5 34h-63v82h53q76 0 126 28.5t50 85.5q0 53 -36 81.5t-102 28.5q-47 0 -84 -11t-70 -27l-6 89q39 14 87 22.5t88 8.5q103 0 166 -50t63 -139q0 -61 -40 -103.5t-110 -56.5v-2q76 -16 116 -60.5t40 -112.5q0 -198 -275 -198
q-67 0 -160 27l6 93q36 -19 77 -28.5t76 -9.5z" />
    <glyph glyph-name="four" unicode="4" 
d="M19 159v82l282 457h143v-457h88v-82h-88v-159h-100v159h-325zM124 241h220v375h-2z" />
    <glyph glyph-name="five" unicode="5" 
d="M228 70q70 0 117 38.5t47 99.5q0 73 -47.5 111t-122.5 38q-41 0 -72.5 -6.5t-61.5 -19.5l6 367h384v-82h-290l-6 -187q40 10 89 10q62 0 114 -28.5t82.5 -78t30.5 -109.5q0 -73 -35.5 -126t-96.5 -81t-136 -28q-82 0 -149 23l3 94q35 -19 68 -27t76 -8z" />
    <glyph glyph-name="six" unicode="6" 
d="M341 628q-61 0 -105 -34t-66.5 -91.5t-23.5 -128.5l2 1q35 34 72.5 49t80.5 15q65 0 112 -28t72.5 -78t25.5 -114q0 -69 -28.5 -121.5t-79.5 -81t-116 -28.5q-235 0 -235 335q0 176 70.5 281.5t212.5 105.5q36 0 80.5 -7t63.5 -15l-14 -89q-55 29 -124 29zM405 217
q0 34 -13 66t-39.5 53t-65.5 21q-57 0 -93 -38.5t-36 -101.5q0 -35 14 -69t42 -56t67 -22q58 0 91 42t33 105z" />
    <glyph glyph-name="seven" unicode="7" 
d="M49 616v82h442v-82l-258 -616h-110l266 616h-340z" />
    <glyph glyph-name="eight" unicode="8" 
d="M55 542q0 46 27.5 84.5t79 61t119.5 22.5q66 0 115 -22.5t75 -58.5t26 -76q0 -60 -28.5 -102t-97.5 -78q69 -24 108 -71.5t39 -114.5q0 -95 -66.5 -147t-175.5 -52q-61 0 -116 22.5t-88.5 67t-33.5 105.5q0 64 38.5 111.5t109.5 72.5v2q-63 22 -97 66.5t-34 106.5z
M391 540q0 43 -35 65.5t-84 22.5q-23 0 -50.5 -11.5t-47 -33.5t-19.5 -54t31.5 -60t112.5 -67q42 31 61.5 54.5t25 41.5t5.5 42zM144 189q0 -54 42 -86.5t99 -32.5q52 0 89.5 30t37.5 85q0 46 -21.5 70t-59.5 43l-71 32l-45 -29q-38 -25 -54.5 -50t-16.5 -62z" />
    <glyph glyph-name="nine" unicode="9" 
d="M255 259q-65 0 -112.5 28t-72.5 78t-25 114q0 68 28.5 120.5t79.5 81.5t117 29q114 0 174 -83t60 -252q0 -177 -70 -282t-213 -105q-36 0 -80 7t-64 15l14 89q55 -29 124 -29q61 0 105 34t66.5 91.5t23.5 128.5l-2 -1q-34 -33 -71 -48.5t-82 -15.5zM398 481
q0 35 -14 68.5t-42 56t-68 22.5q-56 0 -89.5 -41t-33.5 -106q0 -34 13 -66t40 -53t65 -21q58 0 93.5 39t35.5 101z" />
    <glyph glyph-name="colon" unicode=":" horiz-adv-x="278" 
d="M195 510v-112h-112v112h112zM195 112v-112h-112v112h112z" />
    <glyph glyph-name="semicolon" unicode=";" horiz-adv-x="278" 
d="M195 510v-112h-112v112h112zM195 112l-85 -245h-90l63 245h112z" />
    <glyph glyph-name="less" unicode="&#x3c;" horiz-adv-x="600" 
d="M554 514v-88l-394 -173l394 -173v-88l-508 223v76z" />
    <glyph glyph-name="equal" unicode="=" horiz-adv-x="600" 
d="M553 402v-88h-506v88h506zM553 192v-88h-506v88h506z" />
    <glyph glyph-name="greater" unicode="&#x3e;" horiz-adv-x="600" 
d="M440 253l-394 173v88l508 -223v-76l-508 -223v88z" />
    <glyph glyph-name="question" unicode="?" horiz-adv-x="500" 
d="M289 393q61 67 61 128q0 48 -34 74.5t-88 26.5q-91 0 -147 -40l-7 95q78 33 166 33q56 0 105.5 -21.5t80 -62.5t30.5 -98q0 -36 -12 -66.5t-31 -56t-54 -66.5q-36 -43 -48.5 -66t-12.5 -56v-21h-94v14q0 39 6 63.5t23 50t56 69.5zM307 112v-112h-112v112h112z" />
    <glyph glyph-name="at" unicode="@" horiz-adv-x="800" 
d="M420 -12q-105 0 -189.5 44t-132.5 126t-48 191q0 106 48.5 188t132.5 127.5t185 45.5q89 0 165.5 -38t122.5 -106t46 -153q0 -88 -41 -151t-97 -95t-99 -32q-24 0 -40.5 15t-17.5 41h-2q-26 -27 -55 -41.5t-54 -14.5q-41 0 -75 21.5t-53.5 58.5t-19.5 80q0 63 27 121
t76 94t112 36q74 0 114 -66l15 52h75l-66 -250q-9 -32 -9 -45q0 -26 18 -26q29 0 57.5 25.5t46.5 69t18 92.5q0 75 -35 130t-95.5 83.5t-134.5 28.5q-82 0 -146.5 -38t-100.5 -106t-36 -149q0 -90 36.5 -155t102 -99.5t153.5 -34.5q62 0 119 23t99 66h76q-48 -75 -127 -117
t-171 -42zM494 379q0 38 -22.5 61.5t-55.5 23.5q-36 0 -66.5 -23.5t-48 -60t-17.5 -72.5q0 -40 21.5 -65.5t60.5 -25.5q35 0 64.5 25.5t46.5 64t17 72.5z" />
    <glyph glyph-name="A" unicode="A" horiz-adv-x="722" 
d="M188 176l-71 -176h-105l298 698h105l295 -698h-109l-71 176h-342zM498 258l-139 346l-139 -346h278z" />
    <glyph glyph-name="B" unicode="B" horiz-adv-x="611" 
d="M272 698q245 0 245 -176q0 -63 -33.5 -105t-110.5 -61v-2q78 -7 120 -53.5t42 -114.5q0 -94 -65.5 -140t-197.5 -46h-189v698h189zM417 512q0 52 -35 78t-96 26h-103v-216h66q87 0 127.5 24t40.5 88zM429 195q0 61 -42 92t-135 31h-69v-236h79q84 0 125.5 27t41.5 86z
" />
    <glyph glyph-name="C" unicode="C" horiz-adv-x="611" 
d="M421 -12q-110 0 -193.5 45t-129 127.5t-45.5 191.5q0 105 47.5 186t131.5 126.5t190 45.5q89 0 157 -30l-8 -97q-66 39 -144 39t-139 -35t-95 -97.5t-34 -140.5q0 -79 34.5 -141t94.5 -97t134 -35q41 0 84 9.5t68 24.5l6 -97q-61 -25 -159 -25z" />
    <glyph glyph-name="D" unicode="D" horiz-adv-x="722" 
d="M289 698q106 0 190.5 -42t133 -120t48.5 -182q0 -170 -97.5 -262t-273.5 -92h-207v698h206zM555 351q0 78 -32.5 137t-91 90.5t-132.5 31.5h-116v-522h110q121 0 191.5 62t70.5 201z" />
    <glyph glyph-name="E" unicode="E" 
d="M485 698v-88h-291v-204h265v-88h-265v-230h291v-88h-391v698h391z" />
    <glyph glyph-name="F" unicode="F" horiz-adv-x="500" 
d="M454 698v-88h-271v-204h259v-88h-259v-318h-100v698h371z" />
    <glyph glyph-name="G" unicode="G" horiz-adv-x="722" 
d="M387 382h247v-363q-89 -31 -212 -31q-112 0 -195.5 45.5t-128.5 128t-45 190.5q0 105 47 186t131 126.5t192 45.5q57 0 102.5 -7t101.5 -28l-8 -101q-39 26 -84.5 37t-106.5 11q-79 0 -140 -35.5t-95 -97.5t-34 -140q0 -79 34.5 -141t95 -97t134.5 -35q38 0 60.5 2.5
t50.5 9.5v212h-147v82z" />
    <glyph glyph-name="H" unicode="H" horiz-adv-x="722" 
d="M194 318v-318h-100v698h100v-292h334v292h100v-698h-100v318h-334z" />
    <glyph glyph-name="I" unicode="I" horiz-adv-x="278" 
d="M189 698v-698h-100v698h100z" />
    <glyph glyph-name="J" unicode="J" horiz-adv-x="389" 
d="M84 76q61 0 87.5 31.5t26.5 102.5v488h100v-518q0 -92 -50 -142t-146 -50q-49 0 -81 12v86q28 -10 63 -10z" />
    <glyph glyph-name="K" unicode="K" horiz-adv-x="667" 
d="M194 0h-100v698h100v-307l298 307h133l-328 -330l354 -368h-146l-311 342v-342z" />
    <glyph glyph-name="L" unicode="L" horiz-adv-x="500" 
d="M188 698v-610h292v-88h-392v698h100z" />
    <glyph glyph-name="M" unicode="M" horiz-adv-x="944" 
d="M752 604l-231 -604h-98l-231 604h-2v-604h-100v698h165l219 -580l215 580h165v-698h-100v604h-2z" />
    <glyph glyph-name="N" unicode="N" horiz-adv-x="722" 
d="M188 574v-574h-100v698h136l308 -562h2v562h100v-698h-128l-316 574h-2z" />
    <glyph glyph-name="O" unicode="O" horiz-adv-x="778" 
d="M53 349q0 103 40 185t115.5 129t180.5 47q102 0 178 -45.5t117 -127.5t41 -188q0 -109 -41 -190.5t-117 -126t-178 -44.5t-178 44.5t-117 126.5t-41 190zM619 349q0 73 -25.5 135t-77.5 100t-128 38q-71 0 -123 -36.5t-79 -98.5t-27 -138q0 -79 27 -141t79 -97t124 -35
t124 35t79 97.5t27 140.5z" />
    <glyph glyph-name="P" unicode="P" 
d="M268 698q126 0 193 -52.5t67 -156.5q0 -102 -67 -156t-181 -54h-97v-279h-100v698h185zM422 490q0 56 -46.5 88t-111.5 32h-81v-243h99q59 0 99.5 31.5t40.5 91.5z" />
    <glyph glyph-name="Q" unicode="Q" horiz-adv-x="778" 
d="M391 -12q-108 0 -184 47t-115 128.5t-39 185.5q0 102 39 184t115 129.5t182 47.5q101 0 177 -45t117.5 -127t41.5 -189q0 -116 -48.5 -204t-139.5 -127l162 -147h-124l-130 121q-25 -4 -54 -4zM619 349q0 69 -24.5 131t-76.5 102t-130 40q-72 0 -124 -37t-78.5 -99
t-26.5 -137q0 -77 26 -139t78 -98t126 -36q76 0 128 37.5t77 99.5t25 136z" />
    <glyph glyph-name="R" unicode="R" horiz-adv-x="611" 
d="M254 310h-71v-310h-100v698h183q140 0 199.5 -47.5t59.5 -141.5q0 -60 -39 -103.5t-105 -55.5v-2q25 -9 40.5 -26.5t33.5 -56.5l126 -265h-114l-98 222q-17 39 -31.5 57t-33 24.5t-50.5 6.5zM419 507q0 49 -36.5 76t-104.5 27h-95v-212h87q68 0 108.5 29t40.5 80z" />
    <glyph glyph-name="S" unicode="S" horiz-adv-x="500" 
d="M210 76q54 0 95.5 30t41.5 84q0 40 -28 69.5t-107 65.5q-53 24 -87.5 48t-56 59.5t-21.5 87.5q0 87 61 138.5t163 51.5q78 0 149 -25l-14 -92q-41 17 -68.5 23t-61.5 6q-59 0 -91 -24.5t-32 -68.5q0 -36 27.5 -60.5t81.5 -49.5l22 -11q53 -26 86.5 -49.5t58 -63.5
t24.5 -99q0 -100 -67.5 -154t-186.5 -54q-35 0 -66.5 7t-77.5 22l10 93q37 -15 76 -24.5t69 -9.5z" />
    <glyph glyph-name="T" unicode="T" 
d="M11 610v88h534v-88h-217v-610h-100v610h-217z" />
    <glyph glyph-name="U" unicode="U" horiz-adv-x="722" 
d="M632 287q0 -142 -70 -220.5t-201 -78.5t-201 78t-70 221v411h100v-398q0 -113 42 -168.5t129 -55.5t129 56t42 168v398h100v-411z" />
    <glyph glyph-name="V" unicode="V" horiz-adv-x="667" 
d="M118 698l215 -610h2l221 610h105l-267 -698h-125l-263 698h112z" />
    <glyph glyph-name="W" unicode="W" horiz-adv-x="1000" 
d="M500 610l-153 -610h-134l-211 698h110l167 -598h2l149 598h142l151 -598h2l167 598h106l-215 -698h-129l-152 610h-2z" />
    <glyph glyph-name="X" unicode="X" horiz-adv-x="667" 
d="M128 0h-120l257 363l-234 335h120l186 -268l185 268h114l-235 -333l258 -365h-126l-206 296z" />
    <glyph glyph-name="Y" unicode="Y" horiz-adv-x="667" 
d="M11 698h117l208 -313l203 313h117l-272 -406v-292h-100v292z" />
    <glyph glyph-name="Z" unicode="Z" 
d="M394 610h-350v88h465v-90l-361 -520h367v-88h-483v90z" />
    <glyph glyph-name="bracketleft" unicode="[" horiz-adv-x="333" 
d="M284 756v-70h-101v-756h101v-70h-189v896h189z" />
    <glyph glyph-name="backslash" unicode="\" horiz-adv-x="278" 
d="M63 710l240 -722h-88l-240 722h88z" />
    <glyph glyph-name="bracketright" unicode="]" horiz-adv-x="333" 
d="M150 -70v756h-101v70h189v-896h-189v70h101z" />
    <glyph glyph-name="asciicircum" unicode="^" horiz-adv-x="600" 
d="M150 294h-90l199 404h82l199 -404h-90l-150 312z" />
    <glyph glyph-name="underscore" unicode="_" horiz-adv-x="500" 
d="M500 -75v-50h-500v50h500z" />
    <glyph glyph-name="grave" unicode="`" horiz-adv-x="278" 
d="M116 706l89 -144h-67l-131 144h109z" />
    <glyph glyph-name="a" unicode="a" 
d="M391 66q-27 -38 -68 -58t-91 -20q-89 0 -137.5 41t-48.5 118q0 79 67.5 123.5t176.5 44.5q51 0 93 -2q0 70 -29.5 101.5t-96.5 31.5q-39 0 -78.5 -13.5t-69.5 -38.5l-5 80q81 48 168 48q105 0 155 -51t50 -159v-224q0 -56 4 -88h-88v66h-2zM322 245q-82 0 -129 -25
t-47 -73q0 -36 28.5 -59.5t67.5 -23.5q65 0 103 37t38 97v45q-7 0 -25 1t-36 1z" />
    <glyph glyph-name="b" unicode="b" horiz-adv-x="611" 
d="M174 750v-310h2q51 82 169 82q69 0 119 -34t75.5 -92.5t25.5 -131.5q0 -75 -24 -137.5t-73.5 -100.5t-121.5 -38q-55 0 -101 22t-73 62h-2v-72h-90v750h94zM465 258q0 87 -37 137.5t-104 50.5q-47 0 -81 -27t-51.5 -71t-17.5 -94q0 -47 16.5 -91t50.5 -71.5t83 -27.5
q44 0 76 27t48.5 71.5t16.5 95.5z" />
    <glyph glyph-name="c" unicode="c" horiz-adv-x="444" 
d="M298 -12q-76 0 -135 36t-92 97.5t-33 133.5q0 77 32.5 138t91.5 95t136 34q28 0 61 -6t53 -14l-8 -78q-53 22 -102 22t-86.5 -26.5t-57.5 -70.5t-20 -94q0 -49 18.5 -92.5t56.5 -71t95 -27.5q25 0 52.5 7.5t48.5 21.5l7 -84q-48 -21 -118 -21z" />
    <glyph glyph-name="d" unicode="d" horiz-adv-x="611" 
d="M439 72q-26 -39 -72 -61.5t-102 -22.5q-72 0 -121.5 38t-73.5 100.5t-24 137.5q0 71 25 129.5t74.5 93.5t120.5 35q119 0 169 -82h2v310h94v-750h-90v72h-2zM437 254q0 48 -16.5 92t-50.5 72t-85 28q-67 0 -103 -52t-36 -132q0 -86 38.5 -142t102.5 -56q49 0 83 28
t50.5 71.5t16.5 90.5z" />
    <glyph glyph-name="e" unicode="e" 
d="M311 -12q-129 0 -197 71.5t-68 204.5q0 76 30 134.5t84.5 91t124.5 32.5q225 0 225 -288h-364q0 -50 23.5 -88.5t61.5 -60t83 -21.5q39 0 85.5 15.5t71.5 35.5v-94q-50 -20 -86 -26.5t-74 -6.5zM282 446q-56 0 -92 -38t-44 -104h264q-1 63 -35 102.5t-93 39.5z" />
    <glyph glyph-name="f" unicode="f" horiz-adv-x="389" 
d="M21 434v76h120v50q0 104 39 153t132 49q27 0 63 -6l-4 -76q-17 6 -45 6q-50 0 -70.5 -26.5t-20.5 -86.5v-63h135v-76h-135v-434h-94v434h-120z" />
    <glyph glyph-name="g" unicode="g" horiz-adv-x="611" 
d="M264 0q-70 0 -119.5 34.5t-74 91.5t-24.5 125q0 71 27 133t78.5 100t122.5 38q124 0 168 -88h2v76h87v-489q0 -119 -65 -181t-198 -62q-47 0 -86.5 8t-96.5 27l10 87q57 -27 96.5 -36.5t86.5 -9.5q75 0 117 47t42 128v50h-2q-29 -38 -74.5 -58.5t-96.5 -20.5zM437 250
q0 84 -39 140t-110 56q-44 0 -76 -27.5t-49 -71t-17 -91.5q0 -50 18 -91t50 -65t74 -24q41 0 75 22.5t54 62t20 89.5z" />
    <glyph glyph-name="h" unicode="h" horiz-adv-x="611" 
d="M326 446q-79 0 -115.5 -60t-36.5 -147v-239h-94v750h94v-313h2q26 41 68.5 63t95.5 22q95 0 143 -56.5t48 -162.5v-303h-94v268q0 87 -24.5 132.5t-86.5 45.5z" />
    <glyph glyph-name="i" unicode="i" horiz-adv-x="278" 
d="M192 730v-106h-106v106h106zM186 510v-510h-94v510h94z" />
    <glyph glyph-name="j" unicode="j" horiz-adv-x="278" 
d="M192 730v-106h-106v106h106zM24 -140q34 0 51 29.5t17 79.5v541h94v-543q0 -103 -38 -146t-106 -43q-41 0 -58 4l3 81q15 -3 37 -3z" />
    <glyph glyph-name="k" unicode="k" 
d="M174 0h-94v750h94v-447l205 207h128l-237 -226l267 -284h-135l-228 262v-262z" />
    <glyph glyph-name="l" unicode="l" horiz-adv-x="278" 
d="M186 750v-750h-94v750h94z" />
    <glyph glyph-name="m" unicode="m" horiz-adv-x="889" 
d="M626 446q-65 0 -99.5 -53t-34.5 -137v-256h-94v306q0 65 -22.5 102.5t-68.5 37.5q-64 0 -99 -53t-35 -136v-257h-94v510h88v-74h2q28 45 67 65.5t95 20.5q49 0 88 -26t57 -73q21 45 66 72t93 27q86 0 131 -50t45 -145v-327h-94v306q0 66 -23 103t-68 37z" />
    <glyph glyph-name="n" unicode="n" horiz-adv-x="611" 
d="M325 446q-73 0 -112 -56t-39 -153v-237h-94v510h91v-81h2q23 44 68 68.5t99 24.5q95 0 143 -56t48 -161v-305h-94v276q0 94 -29.5 132t-82.5 38z" />
    <glyph glyph-name="o" unicode="o" horiz-adv-x="611" 
d="M46 255q0 77 32.5 138t91.5 95t136 34q74 0 133 -33.5t92.5 -94t33.5 -139.5q0 -72 -32.5 -133t-92 -97.5t-135.5 -36.5q-73 0 -132.5 35.5t-93 97t-33.5 134.5zM465 255q0 51 -19.5 95t-56 70t-84.5 26q-47 0 -83.5 -27t-56 -70.5t-19.5 -93.5q0 -51 18.5 -94.5
t54.5 -70t87 -26.5q50 0 86 26.5t54.5 70t18.5 94.5z" />
    <glyph glyph-name="p" unicode="p" horiz-adv-x="611" 
d="M170 510v-72h2q27 39 73 61.5t100 22.5q69 0 119 -34t75.5 -92.5t25.5 -131.5q0 -75 -24 -137.5t-73.5 -100.5t-121.5 -38q-119 0 -170 82h-2v-280h-94v720h90zM465 258q0 93 -39.5 140.5t-99.5 47.5q-48 0 -82.5 -27t-52 -71t-17.5 -94q0 -47 16.5 -91t50.5 -71.5
t83 -27.5q43 0 75 26.5t49 71t17 96.5z" />
    <glyph glyph-name="q" unicode="q" horiz-adv-x="611" 
d="M435 67q-23 -37 -69 -58t-101 -21q-71 0 -120.5 37t-74 99.5t-24.5 139.5q0 70 24.5 129t74 94t121.5 35q55 0 101 -22.5t72 -62.5h2v73h90v-720h-94v277h-2zM437 254q0 49 -17 93t-51.5 71.5t-83.5 27.5q-66 0 -102.5 -52t-36.5 -132q0 -58 18 -103t50 -70t73 -25
q52 0 85.5 29.5t49 73t15.5 87.5z" />
    <glyph glyph-name="r" unicode="r" horiz-adv-x="389" 
d="M168 510v-79h2q19 41 56 66t78 25q29 0 61 -7v-84q-22 9 -52 9q-64 0 -101.5 -57t-37.5 -151v-232h-94v510h88z" />
    <glyph glyph-name="s" unicode="s" horiz-adv-x="389" 
d="M159 64q41 0 68.5 18.5t27.5 54.5q0 23 -20 43t-72 43q-74 33 -101.5 66.5t-27.5 76.5q0 76 50.5 116t129.5 40q30 0 57 -5t60 -15l-8 -82q-14 9 -47.5 17.5t-51.5 8.5q-40 0 -65 -16.5t-25 -45.5t23 -48.5t76 -42.5q66 -29 94 -62t28 -84q0 -72 -49 -115.5t-130 -43.5
q-87 0 -139 28l5 84q23 -15 57.5 -25.5t59.5 -10.5z" />
    <glyph glyph-name="t" unicode="t" horiz-adv-x="389" 
d="M278 -12q-77 0 -116.5 38.5t-39.5 108.5v299h-115v76h115v118l94 30v-148h135v-76h-135v-281q0 -37 21 -63t58 -26q35 0 64 18v-80q-50 -14 -81 -14z" />
    <glyph glyph-name="u" unicode="u" horiz-adv-x="611" 
d="M438 81q-19 -41 -64.5 -67t-102.5 -26q-95 0 -143 56t-48 162v304h94v-257q0 -111 29 -150t83 -39q71 0 111 55t40 154v237h94v-510h-91v81h-2z" />
    <glyph glyph-name="v" unicode="v" horiz-adv-x="500" 
d="M114 510l138 -416h2l141 416h94l-183 -510h-112l-183 510h103z" />
    <glyph glyph-name="w" unicode="w" horiz-adv-x="833" 
d="M414 428l-129 -428h-109l-164 510h103l117 -422h2l130 422h111l128 -422h2l124 422h92l-164 -510h-109l-132 428h-2z" />
    <glyph glyph-name="x" unicode="x" horiz-adv-x="500" 
d="M122 0h-112l184 267l-166 243h117l111 -182l113 182h105l-164 -243l180 -267h-116l-126 200z" />
    <glyph glyph-name="y" unicode="y" horiz-adv-x="500" 
d="M86 -146q43 0 72 36.5t40 88.5q0 8 -6.5 24t-7.5 20l-177 487h103l137 -422h2l140 422h95l-202 -560q-29 -82 -69 -127t-113 -45q-26 0 -43.5 3t-20.5 4l6 77q24 -8 44 -8z" />
    <glyph glyph-name="z" unicode="z" horiz-adv-x="500" 
d="M337 434h-280v76h389v-82l-294 -352h305v-76h-414v82z" />
    <glyph glyph-name="braceleft" unicode="{" horiz-adv-x="333" 
d="M123 -16v185q0 44 -25 73.5t-61 30.5v70q35 1 60.5 29.5t25.5 71.5v186q0 54 34 90t86 36h71v-70h-53q-50 0 -50 -75v-184q0 -44 -24.5 -76t-67.5 -42v-2q44 -7 68 -39.5t24 -81.5v-178q0 -39 12 -58.5t39 -19.5h52v-70h-76q-30 0 -56.5 16t-42.5 44.5t-16 63.5z" />
    <glyph glyph-name="bar" unicode="|" horiz-adv-x="222" 
d="M155 750v-1000h-88v1000h88z" />
    <glyph glyph-name="braceright" unicode="}" horiz-adv-x="333" 
d="M72 -70q50 0 50 75v184q0 44 24.5 76t67.5 42v2q-44 7 -68 39.5t-24 81.5v178q0 39 -12 58.5t-39 19.5h-52v70h76q30 0 56.5 -16t42.5 -44.5t16 -63.5v-185q0 -44 25 -73.5t61 -30.5v-70q-35 -1 -60.5 -29.5t-25.5 -71.5v-186q0 -54 -34 -90t-86 -36h-71v70h53z" />
    <glyph glyph-name="asciitilde" unicode="~" horiz-adv-x="600" 
d="M406 178q-42 0 -113 32q-43 20 -64 28t-35 8q-23 0 -43 -16t-46 -57l-36 70q44 85 125 85q44 0 118 -34q40 -19 60 -26.5t35 -7.5q24 0 44.5 17.5t43.5 55.5l36 -70q-44 -85 -125 -85z" />
    <glyph glyph-name="uni00A0" unicode="&#xa0;" horiz-adv-x="278" 
 />
    <glyph glyph-name="exclamdown" unicode="&#xa1;" horiz-adv-x="389" 
d="M251 510v-112h-112v112h112zM238 314l13 -502h-112l13 502h86z" />
    <glyph glyph-name="cent" unicode="&#xa2;" 
d="M349 -12q-41 0 -79 12l-39 -133h-57l45 156q-61 34 -95.5 95.5t-34.5 136.5q0 77 32.5 137.5t91.5 95t136 34.5q8 0 14 -1l33 113h57l-35 -119q32 -7 45 -13l-8 -78q-30 13 -58 17l-105 -365q33 -12 67 -12q25 0 52.5 7.5t48.5 21.5l7 -84q-46 -21 -118 -21zM189 255
q0 -42 13.5 -80.5t41.5 -65.5l97 336q-45 -3 -79.5 -29.5t-53.5 -68.5t-19 -92z" />
    <glyph glyph-name="sterling" unicode="&#xa3;" 
d="M150 88v260h-79v58h79v57q0 70 27 126t81.5 88.5t134.5 32.5q58 0 117 -19l-8 -93q-54 24 -100 24q-74 0 -113 -43t-39 -123v-50h161v-58h-161v-260h247v-88h-438v88h91z" />
    <glyph glyph-name="currency" unicode="&#xa4;" 
d="M281 101q-42 0 -81 13t-67 38l-55 -57l-51 51l56 57q-50 59 -50 146q0 43 12.5 82t37.5 66l-56 54l51 52l55 -55q28 23 68.5 36t79.5 13q42 0 81 -13t69 -36l54 55l50 -52l-54 -54q23 -26 35.5 -65.5t12.5 -82.5q0 -41 -12.5 -79.5t-35.5 -66.5l54 -57l-50 -51l-54 57
q-28 -25 -67.5 -38t-82.5 -13zM441 349q0 43 -20.5 81t-57.5 61.5t-83 23.5q-43 0 -79.5 -22.5t-58 -60.5t-21.5 -83q0 -44 21 -82t58 -61t81 -23q45 0 81.5 23t57.5 61t21 82z" />
    <glyph glyph-name="yen" unicode="&#xa5;" 
d="M88 162v58h141v72l-8 16h-133v58h101l-183 332h111l164 -313l158 313h111l-181 -332h101v-58h-133l-8 -16v-72h141v-58h-141v-162h-100v162h-141z" />
    <glyph glyph-name="brokenbar" unicode="&#xa6;" horiz-adv-x="222" 
d="M155 675v-350h-88v350h88zM155 175v-350h-88v350h88z" />
    <glyph glyph-name="section" unicode="&#xa7;" 
d="M262 -42q52 0 86 24.5t34 65.5q0 27 -25.5 46t-86.5 39q-93 30 -139.5 67.5t-46.5 104.5q0 42 18 72t55 52q-34 19 -51.5 49.5t-17.5 69.5q0 51 30 87.5t78 55.5t103 19q67 0 143 -19l-9 -91q-32 14 -65 21t-57 7q-51 0 -90 -18t-39 -58q0 -31 27 -52t88 -41
q98 -32 142 -68t44 -99q0 -39 -16 -67t-55 -59q30 -19 47 -49.5t17 -65.5q0 -58 -33 -97.5t-85 -58.5t-109 -19q-90 0 -160 25l9 92q67 -35 164 -35zM395 273q0 32 -27 56.5t-90 45.5q-60 21 -69 27q-37 -28 -37 -77q0 -35 31 -60t94 -45q51 -17 62 -22q20 22 28 39t8 36z
" />
    <glyph glyph-name="dieresis" unicode="&#xa8;" horiz-adv-x="278" 
d="M104 684v-100h-94v100h94zM268 684v-100h-94v100h94z" />
    <glyph glyph-name="copyright" unicode="&#xa9;" horiz-adv-x="800" 
d="M39 349q0 97 48 180t131 132t182 49t181.5 -49t131 -132t48.5 -180t-48.5 -180t-131 -132t-181.5 -49q-97 0 -180 48.5t-132 131.5t-49 181zM673 349q0 80 -35.5 147t-98 105.5t-140.5 38.5q-75 0 -137.5 -38.5t-98.5 -105t-36 -147.5q0 -84 36.5 -150t99 -103.5
t137.5 -37.5t137.5 37.5t99 104t36.5 149.5zM409 129q-60 0 -107 28.5t-72.5 78.5t-25.5 113q0 62 23.5 111.5t69.5 78t109 28.5q70 0 118.5 -41t57.5 -109h-73q-7 37 -35 58.5t-67 21.5q-60 0 -93.5 -40.5t-33.5 -105.5q0 -67 35 -109.5t94 -42.5q39 0 66.5 22t33.5 64h73
q-11 -71 -58.5 -113.5t-114.5 -42.5z" />
    <glyph glyph-name="ordfeminine" unicode="&#xaa;" horiz-adv-x="361" 
d="M251 434q-29 -46 -98 -46q-52 0 -91 23.5t-39 72.5q0 48 46.5 75.5t130.5 27.5q32 0 52 -2q0 37 -20.5 52t-58.5 15q-62 0 -107 -33l-3 63q55 28 118 28q82 0 117.5 -29.5t35.5 -98.5v-133q0 -18 3 -53h-84v38h-2zM252 533q-28 2 -41 2q-49 0 -77.5 -13.5t-28.5 -40.5
q0 -16 17.5 -25.5t42.5 -9.5q87 0 87 60v27z" />
    <glyph glyph-name="guillemotleft" unicode="&#xab;" 
d="M194 471h88l-130 -202l130 -202h-88l-143 202zM396 471h88l-130 -202l130 -202h-88l-143 202z" />
    <glyph glyph-name="logicalnot" unicode="&#xac;" horiz-adv-x="600" 
d="M47 314v88h506v-298h-88v210h-418z" />
    <glyph glyph-name="uni00AD" unicode="&#xad;" horiz-adv-x="333" 
d="M295 307v-76h-257v76h257z" />
    <glyph glyph-name="registered" unicode="&#xae;" horiz-adv-x="800" 
d="M39 349q0 97 48 180t131 132t182 49t181.5 -49t131 -132t48.5 -180t-48.5 -180t-131 -132t-181.5 -49q-97 0 -180 48.5t-132 131.5t-49 181zM673 349q0 80 -35.5 147t-98 105.5t-140.5 38.5q-75 0 -137.5 -38.5t-98.5 -105t-36 -147.5q0 -84 36.5 -150t99 -103.5
t137.5 -37.5t137.5 37.5t99 104t36.5 149.5zM337 322v-176h-76v409h152q74 0 112.5 -28t38.5 -92q0 -101 -107 -110l110 -179h-78l-106 176h-46zM488 441q0 56 -82 56h-69v-117h71q42 0 61 14t19 47z" />
    <glyph glyph-name="macron" unicode="&#xaf;" horiz-adv-x="278" 
d="M287 665v-58h-296v58h296z" />
    <glyph glyph-name="degree" unicode="&#xb0;" horiz-adv-x="400" 
d="M57 567q0 38 19 71t52 52.5t72 19.5q38 0 71 -19t52.5 -52t19.5 -72t-19 -72t-52 -52t-72 -19t-72 19.5t-52 52.5t-19 71zM200 646q-33 0 -56 -23t-23 -56t23 -56t56 -23t56 23t23 56t-23 56t-56 23z" />
    <glyph glyph-name="plusminus" unicode="&#xb1;" horiz-adv-x="600" 
d="M256 124v147h-209v88h209v147h88v-147h209v-88h-209v-147h-88zM553 88v-88h-506v88h506z" />
    <glyph glyph-name="uni00B2" unicode="&#xb2;" horiz-adv-x="361" 
d="M235 732q0 24 -23.5 39t-57.5 15q-53 0 -103 -29l-6 74q59 25 124 25q69 0 111.5 -31t42.5 -90q0 -45 -50.5 -107t-113.5 -110q-22 -16 -28 -18v-2h199v-70h-299v76q113 88 158.5 140.5t45.5 87.5zM419 850z" />
    <glyph glyph-name="uni00B3" unicode="&#xb3;" horiz-adv-x="361" 
d="M136 492q41 0 73.5 13t32.5 40q0 32 -31.5 49.5t-68.5 17.5h-49v70h37q48 0 78 16.5t30 40.5t-27.5 35.5t-62.5 11.5q-44 0 -96 -22l-4 72q25 9 57.5 14.5t64.5 5.5q70 0 113 -30t43 -83q0 -36 -27.5 -61.5t-72.5 -33.5v-2q51 -7 77.5 -35.5t26.5 -69.5q0 -57 -44 -88
t-141 -31q-55 0 -113 16l10 76q12 -9 39.5 -15.5t54.5 -6.5zM416 850zM393 428z" />
    <glyph glyph-name="acute" unicode="&#xb4;" horiz-adv-x="278" 
d="M271 706l-131 -144h-67l89 144h109z" />
    <glyph glyph-name="mu" unicode="&#xb5;" horiz-adv-x="611" 
d="M438 81q-19 -42 -65.5 -67.5t-101.5 -25.5q-61 0 -97 20v-218h-94v720h94v-270q0 -95 28.5 -135.5t83.5 -40.5q70 0 110.5 54t40.5 154v238h94v-510h-91v81h-2z" />
    <glyph glyph-name="paragraph" unicode="&#xb6;" horiz-adv-x="600" 
d="M324 628v-740h-88v445q-67 0 -115.5 23.5t-74.5 64t-26 92.5q0 91 59.5 138t171.5 47h276v-810h-88v740h-115z" />
    <glyph glyph-name="periodcentered" unicode="&#xb7;" horiz-adv-x="278" 
d="M80 304q0 23 18 40.5t42 17.5t41 -16.5t17 -41.5t-17 -42.5t-41 -17.5t-42 18.5t-18 41.5z" />
    <glyph glyph-name="cedilla" unicode="&#xb8;" horiz-adv-x="278" 
d="M184 -182q24 0 40 11.5t16 34.5q0 18 -13 28.5t-33 10.5q-19 0 -41 -8l-17 19l64 86h47l-46 -60l2 -2q14 5 30 5q35 0 59 -20t24 -53q0 -43 -37.5 -67.5t-93.5 -24.5q-45 0 -84 21l18 34q22 -9 35.5 -12t29.5 -3z" />
    <glyph glyph-name="uni00B9" unicode="&#xb9;" horiz-adv-x="361" 
d="M84 719l-34 46l111 85h81v-422h-88v346z" />
    <glyph glyph-name="ordmasculine" unicode="&#xba;" horiz-adv-x="397" 
d="M198 388q-51 0 -90.5 22.5t-60.5 59t-21 79.5q0 72 48 116.5t124 44.5q77 0 124.5 -44.5t47.5 -116.5q0 -45 -22 -82t-61.5 -58t-88.5 -21zM288 549q0 47 -23.5 75t-66.5 28q-42 0 -66 -28t-24 -75q0 -50 23 -76.5t67 -26.5q45 0 67.5 26.5t22.5 76.5z" />
    <glyph glyph-name="guillemotright" unicode="&#xbb;" 
d="M72 471h88l143 -202l-143 -202h-88l130 202zM274 471h88l143 -202l-143 -202h-88l130 202z" />
    <glyph glyph-name="onequarter" unicode="&#xbc;" horiz-adv-x="834" 
d="M648 720l-433 -742h-72l433 742h72zM67 573l-34 46l111 85h81v-422h-88v346zM449 83v61l184 278h116v-269h52v-70h-52v-83h-88v83h-212zM531 153h130v199h-2z" />
    <glyph glyph-name="onehalf" unicode="&#xbd;" horiz-adv-x="834" 
d="M617 720l-433 -742h-72l433 742h72zM67 573l-34 46l111 85h81v-422h-88v346zM706 304q0 24 -23.5 39t-57.5 15q-53 0 -103 -29l-6 74q59 25 124 25q69 0 111.5 -31t42.5 -90q0 -44 -50.5 -106.5t-113.5 -110.5q-22 -16 -28 -18v-2h199v-70h-299v76q113 88 158.5 141
t45.5 87zM900 422z" />
    <glyph glyph-name="threequarters" unicode="&#xbe;" horiz-adv-x="834" 
d="M691 720l-433 -742h-72l433 742h72zM136 346q41 0 73.5 13t32.5 40q0 32 -31.5 49.5t-68.5 17.5h-49v70h37q48 0 78 16.5t30 40.5t-27.5 35.5t-62.5 11.5q-44 0 -96 -22l-4 72q24 9 57 14.5t65 5.5q70 0 113 -29.5t43 -83.5q0 -36 -27.5 -61t-72.5 -34v-2
q51 -7 77.5 -35.5t26.5 -69.5q0 -55 -42.5 -87t-142.5 -32q-55 0 -113 16l10 76q12 -9 39.5 -15.5t54.5 -6.5zM449 83v61l184 278h116v-269h52v-70h-52v-83h-88v83h-212zM531 153h130v199h-2zM-48 698zM-50 282z" />
    <glyph glyph-name="questiondown" unicode="&#xbf;" horiz-adv-x="500" 
d="M305 510v-112h-112v112h112zM260 -200q-56 0 -105.5 21.5t-80 62.5t-30.5 98q0 36 12 66.5t31 56t54 66.5q36 42 48.5 65t12.5 57v21h94v-14q0 -39 -6 -63.5t-23 -50.5t-56 -69q-61 -67 -61 -128q0 -48 34 -74.5t88 -26.5q91 0 147 40l7 -95q-78 -33 -166 -33z" />
    <glyph glyph-name="Agrave" unicode="&#xc0;" horiz-adv-x="722" 
d="M188 176l-71 -176h-105l298 698h105l295 -698h-109l-71 176h-342zM498 258l-139 346l-139 -346h278zM338 884l89 -144h-67l-131 144h109z" />
    <glyph glyph-name="Aacute" unicode="&#xc1;" horiz-adv-x="722" 
d="M188 176l-71 -176h-105l298 698h105l295 -698h-109l-71 176h-342zM498 258l-139 346l-139 -346h278zM493 884l-131 -144h-67l89 144h109z" />
    <glyph glyph-name="Acircumflex" unicode="&#xc2;" horiz-adv-x="722" 
d="M188 176l-71 -176h-105l298 698h105l295 -698h-109l-71 176h-342zM498 258l-139 346l-139 -346h278zM295 740h-79l99 144h91l100 -144h-80l-66 98z" />
    <glyph glyph-name="Atilde" unicode="&#xc3;" horiz-adv-x="722" 
d="M188 176l-71 -176h-105l298 698h105l295 -698h-109l-71 176h-342zM498 258l-139 346l-139 -346h278zM437 751q-16 0 -34.5 5.5t-45.5 17.5q-30 13 -45 18t-30 5q-20 0 -31 -12.5t-14 -33.5h-46q8 54 31.5 83t62.5 29q17 0 36 -6t46 -18q29 -13 44 -17.5t31 -4.5
q18 0 29 12t14 34h46q-8 -56 -32.5 -84t-61.5 -28z" />
    <glyph glyph-name="Adieresis" unicode="&#xc4;" horiz-adv-x="722" 
d="M188 176l-71 -176h-105l298 698h105l295 -698h-109l-71 176h-342zM498 258l-139 346l-139 -346h278zM326 862v-100h-94v100h94zM490 862v-100h-94v100h94z" />
    <glyph glyph-name="Aring" unicode="&#xc5;" horiz-adv-x="722" 
d="M188 176l-71 -176h-105l298 698h105l295 -698h-109l-71 176h-342zM498 258l-139 346l-139 -346h278zM259 833q0 42 30.5 72t71.5 30t71.5 -30t30.5 -72q0 -41 -30 -71.5t-72 -30.5t-72 30t-30 72zM361 895q-25 0 -43.5 -19t-18.5 -43t18.5 -43t43.5 -19q24 0 43 19t19 43
t-18.5 43t-43.5 19z" />
    <glyph glyph-name="AE" unicode="&#xc6;" horiz-adv-x="944" 
d="M218 176l-105 -176h-111l422 698h439v-88h-277l13 -204h246v-88h-241l14 -230h255v-88h-347l-11 176h-297zM266 258h244l-22 370h-2z" />
    <glyph glyph-name="Ccedilla" unicode="&#xc7;" horiz-adv-x="611" 
d="M426 -12q-19 0 -28 2l-38 -50l2 -2q15 5 30 5q36 0 59.5 -20t23.5 -53q0 -46 -39.5 -69t-91.5 -23q-45 0 -84 21l18 34q35 -15 64 -15q27 0 42 12t15 34q0 18 -13 28.5t-33 10.5q-19 0 -41 -8l-17 19l58 79q-141 22 -220.5 118t-79.5 241q0 104 47 185.5t130.5 127
t191.5 45.5q87 0 157 -30l-8 -97q-66 39 -144 39q-81 0 -142 -36t-93.5 -98.5t-32.5 -138.5q0 -78 34 -140t94 -97.5t135 -35.5q41 0 84 9.5t68 24.5l6 -97q-29 -12 -70 -18.5t-84 -6.5z" />
    <glyph glyph-name="Egrave" unicode="&#xc8;" 
d="M485 698v-88h-291v-204h265v-88h-265v-230h291v-88h-391v698h391zM255 884l89 -144h-67l-131 144h109z" />
    <glyph glyph-name="Eacute" unicode="&#xc9;" 
d="M485 698v-88h-291v-204h265v-88h-265v-230h291v-88h-391v698h391zM410 884l-131 -144h-67l89 144h109z" />
    <glyph glyph-name="Ecircumflex" unicode="&#xca;" 
d="M485 698v-88h-291v-204h265v-88h-265v-230h291v-88h-391v698h391zM212 740h-79l99 144h91l100 -144h-80l-66 98z" />
    <glyph glyph-name="Edieresis" unicode="&#xcb;" 
d="M485 698v-88h-291v-204h265v-88h-265v-230h291v-88h-391v698h391zM243 862v-100h-94v100h94zM407 862v-100h-94v100h94z" />
    <glyph glyph-name="Igrave" unicode="&#xcc;" horiz-adv-x="278" 
d="M189 698v-698h-100v698h100zM116 884l89 -144h-67l-131 144h109z" />
    <glyph glyph-name="Iacute" unicode="&#xcd;" horiz-adv-x="278" 
d="M189 698v-698h-100v698h100zM271 884l-131 -144h-67l89 144h109z" />
    <glyph glyph-name="Icircumflex" unicode="&#xce;" horiz-adv-x="278" 
d="M189 698v-698h-100v698h100zM73 740h-79l99 144h91l100 -144h-80l-66 98z" />
    <glyph glyph-name="Idieresis" unicode="&#xcf;" horiz-adv-x="278" 
d="M189 698v-698h-100v698h100zM104 862v-100h-94v100h94zM268 862v-100h-94v100h94z" />
    <glyph glyph-name="Eth" unicode="&#xd0;" horiz-adv-x="722" 
d="M15 342v64h68v292h206q106 0 190.5 -42t133 -120t48.5 -182q0 -170 -97.5 -262t-273.5 -92h-207v342h-68zM555 351q0 78 -32.5 137t-91 90.5t-132.5 31.5h-116v-204h183v-64h-183v-254h107q125 0 195 62.5t70 200.5z" />
    <glyph glyph-name="Ntilde" unicode="&#xd1;" horiz-adv-x="722" 
d="M188 574v-574h-100v698h136l308 -562h2v562h100v-698h-128l-316 574h-2zM437 751q-16 0 -34.5 5.5t-45.5 17.5q-30 13 -45 18t-30 5q-20 0 -31 -12.5t-14 -33.5h-46q8 54 31.5 83t62.5 29q17 0 36 -6t46 -18q29 -13 44 -17.5t31 -4.5q18 0 29 12t14 34h46
q-8 -56 -32.5 -84t-61.5 -28z" />
    <glyph glyph-name="Ograve" unicode="&#xd2;" horiz-adv-x="778" 
d="M53 349q0 103 40 185t115.5 129t180.5 47q102 0 178 -45.5t117 -127.5t41 -188q0 -109 -41 -190.5t-117 -126t-178 -44.5t-178 44.5t-117 126.5t-41 190zM619 349q0 73 -25.5 135t-77.5 100t-128 38q-71 0 -123 -36.5t-79 -98.5t-27 -138q0 -79 27 -141t79 -97t124 -35
t124 35t79 97.5t27 140.5zM366 884l89 -144h-67l-131 144h109z" />
    <glyph glyph-name="Oacute" unicode="&#xd3;" horiz-adv-x="778" 
d="M53 349q0 103 40 185t115.5 129t180.5 47q102 0 178 -45.5t117 -127.5t41 -188q0 -109 -41 -190.5t-117 -126t-178 -44.5t-178 44.5t-117 126.5t-41 190zM619 349q0 73 -25.5 135t-77.5 100t-128 38q-71 0 -123 -36.5t-79 -98.5t-27 -138q0 -79 27 -141t79 -97t124 -35
t124 35t79 97.5t27 140.5zM521 884l-131 -144h-67l89 144h109z" />
    <glyph glyph-name="Ocircumflex" unicode="&#xd4;" horiz-adv-x="778" 
d="M53 349q0 103 40 185t115.5 129t180.5 47q102 0 178 -45.5t117 -127.5t41 -188q0 -109 -41 -190.5t-117 -126t-178 -44.5t-178 44.5t-117 126.5t-41 190zM619 349q0 73 -25.5 135t-77.5 100t-128 38q-71 0 -123 -36.5t-79 -98.5t-27 -138q0 -79 27 -141t79 -97t124 -35
t124 35t79 97.5t27 140.5zM323 740h-79l99 144h91l100 -144h-80l-66 98z" />
    <glyph glyph-name="Otilde" unicode="&#xd5;" horiz-adv-x="778" 
d="M53 349q0 103 40 185t115.5 129t180.5 47q102 0 178 -45.5t117 -127.5t41 -188q0 -109 -41 -190.5t-117 -126t-178 -44.5t-178 44.5t-117 126.5t-41 190zM619 349q0 73 -25.5 135t-77.5 100t-128 38q-71 0 -123 -36.5t-79 -98.5t-27 -138q0 -79 27 -141t79 -97t124 -35
t124 35t79 97.5t27 140.5zM465 751q-16 0 -34.5 5.5t-45.5 17.5q-30 13 -45 18t-30 5q-20 0 -31 -12.5t-14 -33.5h-46q8 54 31.5 83t62.5 29q17 0 36 -6t46 -18q29 -13 44 -17.5t31 -4.5q18 0 29 12t14 34h46q-8 -56 -32.5 -84t-61.5 -28z" />
    <glyph glyph-name="Odieresis" unicode="&#xd6;" horiz-adv-x="778" 
d="M53 349q0 103 40 185t115.5 129t180.5 47q102 0 178 -45.5t117 -127.5t41 -188q0 -109 -41 -190.5t-117 -126t-178 -44.5t-178 44.5t-117 126.5t-41 190zM619 349q0 73 -25.5 135t-77.5 100t-128 38q-71 0 -123 -36.5t-79 -98.5t-27 -138q0 -79 27 -141t79 -97t124 -35
t124 35t79 97.5t27 140.5zM354 862v-100h-94v100h94zM518 862v-100h-94v100h94z" />
    <glyph glyph-name="multiply" unicode="&#xd7;" horiz-adv-x="600" 
d="M68 83l170 170l-170 170l62 62l170 -171l170 171l62 -62l-171 -170l171 -170l-62 -62l-170 171l-170 -171z" />
    <glyph glyph-name="Oslash" unicode="&#xd8;" horiz-adv-x="778" 
d="M53 349q0 104 40 186t116 128.5t180 46.5q115 0 202 -62l53 69l36 -28l-54 -71q49 -49 74 -118t25 -151q0 -108 -40.5 -189.5t-116.5 -126.5t-179 -45q-120 0 -203 61l-54 -70l-38 26l57 74q-48 48 -73 117t-25 153zM391 622q-80 0 -132 -40.5t-76 -102.5t-24 -130
q0 -55 14 -103.5t41 -85.5l318 412q-58 50 -141 50zM389 76q76 0 127.5 37.5t77 99.5t25.5 136q0 53 -14.5 102t-41.5 86l-317 -411q56 -50 143 -50z" />
    <glyph glyph-name="Ugrave" unicode="&#xd9;" horiz-adv-x="722" 
d="M632 287q0 -142 -70 -220.5t-201 -78.5t-201 78t-70 221v411h100v-398q0 -113 42 -168.5t129 -55.5t129 56t42 168v398h100v-411zM338 884l89 -144h-67l-131 144h109z" />
    <glyph glyph-name="Uacute" unicode="&#xda;" horiz-adv-x="722" 
d="M632 287q0 -142 -70 -220.5t-201 -78.5t-201 78t-70 221v411h100v-398q0 -113 42 -168.5t129 -55.5t129 56t42 168v398h100v-411zM493 884l-131 -144h-67l89 144h109z" />
    <glyph glyph-name="Ucircumflex" unicode="&#xdb;" horiz-adv-x="722" 
d="M632 287q0 -142 -70 -220.5t-201 -78.5t-201 78t-70 221v411h100v-398q0 -113 42 -168.5t129 -55.5t129 56t42 168v398h100v-411zM295 740h-79l99 144h91l100 -144h-80l-66 98z" />
    <glyph glyph-name="Udieresis" unicode="&#xdc;" horiz-adv-x="722" 
d="M632 287q0 -142 -70 -220.5t-201 -78.5t-201 78t-70 221v411h100v-398q0 -113 42 -168.5t129 -55.5t129 56t42 168v398h100v-411zM326 862v-100h-94v100h94zM490 862v-100h-94v100h94z" />
    <glyph glyph-name="Yacute" unicode="&#xdd;" horiz-adv-x="667" 
d="M11 698h117l208 -313l203 313h117l-272 -406v-292h-100v292zM466 884l-131 -144h-67l89 144h109z" />
    <glyph glyph-name="Thorn" unicode="&#xde;" 
d="M183 698v-102h85q126 0 193 -52.5t67 -156.5q0 -103 -67 -156.5t-181 -53.5h-97v-177h-100v698h100zM422 388q0 57 -46.5 88.5t-111.5 31.5h-81v-243h98q60 0 100.5 31.5t40.5 91.5z" />
    <glyph glyph-name="germandbls" unicode="&#xdf;" horiz-adv-x="611" 
d="M321 70q58 0 98.5 37t40.5 106t-41 106.5t-141 37.5h-6v76h3q79 0 116 31t37 98q0 51 -29.5 87.5t-82.5 36.5q-72 0 -107 -54.5t-35 -142.5v-489h-94v478q0 143 59.5 213.5t184.5 70.5q53 0 100 -23.5t75.5 -68t28.5 -104.5q0 -127 -117 -163v-2q45 -5 78.5 -31.5t52 -67
t18.5 -85.5q0 -62 -26 -113t-76.5 -80.5t-118.5 -29.5q-52 0 -97 14v79q39 -17 79 -17z" />
    <glyph glyph-name="agrave" unicode="&#xe0;" 
d="M391 66q-27 -38 -68 -58t-91 -20q-89 0 -137.5 41t-48.5 118q0 79 67.5 123.5t176.5 44.5q51 0 93 -2q0 70 -29.5 101.5t-96.5 31.5q-39 0 -78.5 -13.5t-69.5 -38.5l-5 80q81 48 168 48q105 0 155 -51t50 -159v-224q0 -56 4 -88h-88v66h-2zM322 245q-82 0 -129 -25
t-47 -73q0 -36 28.5 -59.5t67.5 -23.5q65 0 103 37t38 97v45q-7 0 -25 1t-36 1zM255 706l89 -144h-67l-131 144h109z" />
    <glyph glyph-name="aacute" unicode="&#xe1;" 
d="M391 66q-27 -38 -68 -58t-91 -20q-89 0 -137.5 41t-48.5 118q0 79 67.5 123.5t176.5 44.5q51 0 93 -2q0 70 -29.5 101.5t-96.5 31.5q-39 0 -78.5 -13.5t-69.5 -38.5l-5 80q81 48 168 48q105 0 155 -51t50 -159v-224q0 -56 4 -88h-88v66h-2zM322 245q-82 0 -129 -25
t-47 -73q0 -36 28.5 -59.5t67.5 -23.5q65 0 103 37t38 97v45q-7 0 -25 1t-36 1zM410 706l-131 -144h-67l89 144h109z" />
    <glyph glyph-name="acircumflex" unicode="&#xe2;" 
d="M391 66q-27 -38 -68 -58t-91 -20q-89 0 -137.5 41t-48.5 118q0 79 67.5 123.5t176.5 44.5q51 0 93 -2q0 70 -29.5 101.5t-96.5 31.5q-39 0 -78.5 -13.5t-69.5 -38.5l-5 80q81 48 168 48q105 0 155 -51t50 -159v-224q0 -56 4 -88h-88v66h-2zM322 245q-82 0 -129 -25
t-47 -73q0 -36 28.5 -59.5t67.5 -23.5q65 0 103 37t38 97v45q-7 0 -25 1t-36 1zM212 562h-79l99 144h91l100 -144h-80l-66 98z" />
    <glyph glyph-name="atilde" unicode="&#xe3;" 
d="M391 66q-27 -38 -68 -58t-91 -20q-89 0 -137.5 41t-48.5 118q0 79 67.5 123.5t176.5 44.5q51 0 93 -2q0 70 -29.5 101.5t-96.5 31.5q-39 0 -78.5 -13.5t-69.5 -38.5l-5 80q81 48 168 48q105 0 155 -51t50 -159v-224q0 -56 4 -88h-88v66h-2zM322 245q-82 0 -129 -25
t-47 -73q0 -36 28.5 -59.5t67.5 -23.5q65 0 103 37t38 97v45q-7 0 -25 1t-36 1zM354 580q-16 0 -34.5 5.5t-45.5 17.5q-31 14 -46.5 18.5t-29.5 4.5q-20 0 -31 -13.5t-13 -32.5h-46q8 54 32 83t62 29q17 0 36 -6t46 -18q29 -13 44 -17.5t31 -4.5q18 0 29.5 13t13.5 33h46
q-8 -56 -32.5 -84t-61.5 -28z" />
    <glyph glyph-name="adieresis" unicode="&#xe4;" 
d="M391 66q-27 -38 -68 -58t-91 -20q-89 0 -137.5 41t-48.5 118q0 79 67.5 123.5t176.5 44.5q51 0 93 -2q0 70 -29.5 101.5t-96.5 31.5q-39 0 -78.5 -13.5t-69.5 -38.5l-5 80q81 48 168 48q105 0 155 -51t50 -159v-224q0 -56 4 -88h-88v66h-2zM322 245q-82 0 -129 -25
t-47 -73q0 -36 28.5 -59.5t67.5 -23.5q65 0 103 37t38 97v45q-7 0 -25 1t-36 1zM243 684v-100h-94v100h94zM407 684v-100h-94v100h94z" />
    <glyph glyph-name="aring" unicode="&#xe5;" 
d="M391 66q-27 -38 -68 -58t-91 -20q-89 0 -137.5 41t-48.5 118q0 79 67.5 123.5t176.5 44.5q51 0 93 -2q0 70 -29.5 101.5t-96.5 31.5q-39 0 -78.5 -13.5t-69.5 -38.5l-5 80q81 48 168 48q105 0 155 -51t50 -159v-224q0 -56 4 -88h-88v66h-2zM322 245q-82 0 -129 -25
t-47 -73q0 -36 28.5 -59.5t67.5 -23.5q65 0 103 37t38 97v45q-7 0 -25 1t-36 1zM176 660q0 42 30 72t72 30q41 0 71.5 -30.5t30.5 -71.5q0 -40 -30 -71t-72 -31q-41 0 -71.5 30t-30.5 72zM278 722q-25 0 -43.5 -19t-18.5 -43q0 -25 19 -43.5t43 -18.5t43 19t19 43
q0 25 -19 43.5t-43 18.5z" />
    <glyph glyph-name="ae" unicode="&#xe6;" horiz-adv-x="889" 
d="M649 -12q-84 0 -142 31.5t-78 87.5h-2q-14 -56 -67.5 -87.5t-121.5 -31.5q-50 0 -95.5 20t-73.5 57t-28 86q0 79 65.5 121.5t185.5 42.5q36 0 101 -5q0 66 -37 101t-106 35t-143 -52l-5 79q79 49 169 49q60 0 107 -23.5t69 -65.5q24 43 70 66t107 23q109 0 166.5 -74
t57.5 -214h-361q0 -47 22 -86.5t60 -61.5t85 -22q35 0 73 14.5t68 38.5v-95q-76 -34 -146 -34zM622 446q-58 0 -96.5 -40t-38.5 -102h261q-1 37 -17 69.5t-44.5 52.5t-64.5 20zM305 245q-77 0 -120.5 -24.5t-43.5 -72.5q0 -38 28.5 -61t71.5 -23q42 0 77 23.5t55 64.5t20 90
q-63 3 -88 3z" />
    <glyph glyph-name="ccedilla" unicode="&#xe7;" horiz-adv-x="444" 
d="M240 -182q26 0 41 12t15 34q0 19 -13.5 29t-32.5 10t-41 -8l-17 19l59 79q-63 10 -111.5 47.5t-75 94t-26.5 120.5q0 77 32.5 138t91.5 95t136 34q28 0 61 -6t53 -14l-8 -78q-53 22 -102 22t-86.5 -26t-57.5 -70t-20 -95q0 -49 18 -92.5t56.5 -71t95.5 -27.5
q25 0 52.5 7.5t48.5 21.5l7 -84q-45 -21 -122 -21l-37 -48l2 -2q18 5 30 5q36 0 59.5 -20.5t23.5 -52.5q0 -46 -39.5 -69t-91.5 -23q-45 0 -84 21l18 34q21 -9 34.5 -12t30.5 -3z" />
    <glyph glyph-name="egrave" unicode="&#xe8;" 
d="M311 -12q-129 0 -197 71.5t-68 204.5q0 76 30 134.5t84.5 91t124.5 32.5q225 0 225 -288h-364q0 -50 23.5 -88.5t61.5 -60t83 -21.5q39 0 85.5 15.5t71.5 35.5v-94q-50 -20 -86 -26.5t-74 -6.5zM282 446q-56 0 -92 -38t-44 -104h264q-1 63 -35 102.5t-93 39.5zM255 706
l89 -144h-67l-131 144h109z" />
    <glyph glyph-name="eacute" unicode="&#xe9;" 
d="M311 -12q-129 0 -197 71.5t-68 204.5q0 76 30 134.5t84.5 91t124.5 32.5q225 0 225 -288h-364q0 -50 23.5 -88.5t61.5 -60t83 -21.5q39 0 85.5 15.5t71.5 35.5v-94q-50 -20 -86 -26.5t-74 -6.5zM282 446q-56 0 -92 -38t-44 -104h264q-1 63 -35 102.5t-93 39.5zM410 706
l-131 -144h-67l89 144h109z" />
    <glyph glyph-name="ecircumflex" unicode="&#xea;" 
d="M311 -12q-129 0 -197 71.5t-68 204.5q0 76 30 134.5t84.5 91t124.5 32.5q225 0 225 -288h-364q0 -50 23.5 -88.5t61.5 -60t83 -21.5q39 0 85.5 15.5t71.5 35.5v-94q-50 -20 -86 -26.5t-74 -6.5zM282 446q-56 0 -92 -38t-44 -104h264q-1 63 -35 102.5t-93 39.5zM212 562
h-79l99 144h91l100 -144h-80l-66 98z" />
    <glyph glyph-name="edieresis" unicode="&#xeb;" 
d="M311 -12q-129 0 -197 71.5t-68 204.5q0 76 30 134.5t84.5 91t124.5 32.5q225 0 225 -288h-364q0 -50 23.5 -88.5t61.5 -60t83 -21.5q39 0 85.5 15.5t71.5 35.5v-94q-50 -20 -86 -26.5t-74 -6.5zM282 446q-56 0 -92 -38t-44 -104h264q-1 63 -35 102.5t-93 39.5zM243 684
v-100h-94v100h94zM407 684v-100h-94v100h94z" />
    <glyph glyph-name="igrave" unicode="&#xec;" horiz-adv-x="278" 
d="M186 510v-510h-94v510h94zM116 706l89 -144h-67l-131 144h109z" />
    <glyph glyph-name="iacute" unicode="&#xed;" horiz-adv-x="278" 
d="M186 510v-510h-94v510h94zM271 706l-131 -144h-67l89 144h109z" />
    <glyph glyph-name="icircumflex" unicode="&#xee;" horiz-adv-x="278" 
d="M186 510v-510h-94v510h94zM73 562h-79l99 144h91l100 -144h-80l-66 98z" />
    <glyph glyph-name="idieresis" unicode="&#xef;" horiz-adv-x="278" 
d="M186 510v-510h-94v510h94zM104 684v-100h-94v100h94zM268 684v-100h-94v100h94z" />
    <glyph glyph-name="eth" unicode="&#xf0;" horiz-adv-x="611" 
d="M283 608l-129 -69l-46 53l110 59q-57 34 -125 58l72 53q74 -26 137 -66l122 66l46 -53l-104 -56q96 -74 147.5 -177t51.5 -221q0 -74 -33.5 -135t-93 -96.5t-132.5 -35.5q-76 0 -135 36t-92 97.5t-33 133.5q0 75 31.5 135.5t90.5 96t139 35.5q46 0 83 -22h2
q-47 63 -109 108zM465 255q0 48 -18.5 92t-55 71.5t-86.5 27.5q-48 0 -84.5 -27t-55.5 -71.5t-19 -92.5t17.5 -91.5t53.5 -71.5t89 -28t88.5 28t53 71.5t17.5 91.5z" />
    <glyph glyph-name="ntilde" unicode="&#xf1;" horiz-adv-x="611" 
d="M325 446q-73 0 -112 -56t-39 -153v-237h-94v510h91v-81h2q23 44 68 68.5t99 24.5q95 0 143 -56t48 -161v-305h-94v276q0 94 -29.5 132t-82.5 38zM382 580q-16 0 -34.5 5.5t-45.5 17.5q-31 14 -46.5 18.5t-29.5 4.5q-20 0 -31 -13.5t-13 -32.5h-46q8 54 32 83t62 29
q17 0 36 -6t46 -18q29 -13 44 -17.5t31 -4.5q18 0 29.5 13t13.5 33h46q-8 -56 -32.5 -84t-61.5 -28z" />
    <glyph glyph-name="ograve" unicode="&#xf2;" horiz-adv-x="611" 
d="M46 255q0 77 32.5 138t91.5 95t136 34q74 0 133 -33.5t92.5 -94t33.5 -139.5q0 -72 -32.5 -133t-92 -97.5t-135.5 -36.5q-73 0 -132.5 35.5t-93 97t-33.5 134.5zM465 255q0 51 -19.5 95t-56 70t-84.5 26q-47 0 -83.5 -27t-56 -70.5t-19.5 -93.5q0 -51 18.5 -94.5
t54.5 -70t87 -26.5q50 0 86 26.5t54.5 70t18.5 94.5zM283 706l89 -144h-67l-131 144h109z" />
    <glyph glyph-name="oacute" unicode="&#xf3;" horiz-adv-x="611" 
d="M46 255q0 77 32.5 138t91.5 95t136 34q74 0 133 -33.5t92.5 -94t33.5 -139.5q0 -72 -32.5 -133t-92 -97.5t-135.5 -36.5q-73 0 -132.5 35.5t-93 97t-33.5 134.5zM465 255q0 51 -19.5 95t-56 70t-84.5 26q-47 0 -83.5 -27t-56 -70.5t-19.5 -93.5q0 -51 18.5 -94.5
t54.5 -70t87 -26.5q50 0 86 26.5t54.5 70t18.5 94.5zM438 706l-131 -144h-67l89 144h109z" />
    <glyph glyph-name="ocircumflex" unicode="&#xf4;" horiz-adv-x="611" 
d="M46 255q0 77 32.5 138t91.5 95t136 34q74 0 133 -33.5t92.5 -94t33.5 -139.5q0 -72 -32.5 -133t-92 -97.5t-135.5 -36.5q-73 0 -132.5 35.5t-93 97t-33.5 134.5zM465 255q0 51 -19.5 95t-56 70t-84.5 26q-47 0 -83.5 -27t-56 -70.5t-19.5 -93.5q0 -51 18.5 -94.5
t54.5 -70t87 -26.5q50 0 86 26.5t54.5 70t18.5 94.5zM240 562h-79l99 144h91l100 -144h-80l-66 98z" />
    <glyph glyph-name="otilde" unicode="&#xf5;" horiz-adv-x="611" 
d="M46 255q0 77 32.5 138t91.5 95t136 34q74 0 133 -33.5t92.5 -94t33.5 -139.5q0 -72 -32.5 -133t-92 -97.5t-135.5 -36.5q-73 0 -132.5 35.5t-93 97t-33.5 134.5zM465 255q0 51 -19.5 95t-56 70t-84.5 26q-47 0 -83.5 -27t-56 -70.5t-19.5 -93.5q0 -51 18.5 -94.5
t54.5 -70t87 -26.5q50 0 86 26.5t54.5 70t18.5 94.5zM382 580q-16 0 -34.5 5.5t-45.5 17.5q-31 14 -46.5 18.5t-29.5 4.5q-20 0 -31 -13.5t-13 -32.5h-46q8 54 32 83t62 29q17 0 36 -6t46 -18q29 -13 44 -17.5t31 -4.5q18 0 29.5 13t13.5 33h46q-8 -56 -32.5 -84t-61.5 -28z
" />
    <glyph glyph-name="odieresis" unicode="&#xf6;" horiz-adv-x="611" 
d="M46 255q0 77 32.5 138t91.5 95t136 34q74 0 133 -33.5t92.5 -94t33.5 -139.5q0 -72 -32.5 -133t-92 -97.5t-135.5 -36.5q-73 0 -132.5 35.5t-93 97t-33.5 134.5zM465 255q0 51 -19.5 95t-56 70t-84.5 26q-47 0 -83.5 -27t-56 -70.5t-19.5 -93.5q0 -51 18.5 -94.5
t54.5 -70t87 -26.5q50 0 86 26.5t54.5 70t18.5 94.5zM271 684v-100h-94v100h94zM435 684v-100h-94v100h94z" />
    <glyph glyph-name="divide" unicode="&#xf7;" horiz-adv-x="600" 
d="M224 460q0 31 22.5 54t54.5 23q30 0 53 -23.5t23 -53.5q0 -29 -23 -52.5t-52 -23.5q-32 0 -55 22.5t-23 53.5zM553 297v-88h-506v88h506zM224 46q0 31 22.5 53.5t54.5 22.5q31 0 53.5 -23t22.5 -53q0 -28 -23 -52.5t-52 -24.5q-32 0 -55 23t-23 54z" />
    <glyph glyph-name="oslash" unicode="&#xf8;" horiz-adv-x="611" 
d="M46 255q0 79 33.5 139.5t92.5 94t134 33.5q90 0 153 -46l53 65l30 -25l-53 -65q37 -36 56.5 -86t19.5 -110q0 -73 -33 -134t-92.5 -97t-133.5 -36q-89 0 -155 50l-57 -69l-30 25l57 71q-36 37 -55.5 85.5t-19.5 104.5zM305 446q-48 0 -84.5 -27.5t-55.5 -71t-19 -92.5
q0 -68 33 -120l224 273q-40 38 -98 38zM306 64q53 0 88.5 28t53 71.5t17.5 91.5q0 34 -9.5 65.5t-26.5 57.5l-225 -275q41 -39 102 -39z" />
    <glyph glyph-name="ugrave" unicode="&#xf9;" horiz-adv-x="611" 
d="M438 81q-19 -41 -64.5 -67t-102.5 -26q-95 0 -143 56t-48 162v304h94v-257q0 -111 29 -150t83 -39q71 0 111 55t40 154v237h94v-510h-91v81h-2zM283 706l89 -144h-67l-131 144h109z" />
    <glyph glyph-name="uacute" unicode="&#xfa;" horiz-adv-x="611" 
d="M438 81q-19 -41 -64.5 -67t-102.5 -26q-95 0 -143 56t-48 162v304h94v-257q0 -111 29 -150t83 -39q71 0 111 55t40 154v237h94v-510h-91v81h-2zM438 706l-131 -144h-67l89 144h109z" />
    <glyph glyph-name="ucircumflex" unicode="&#xfb;" horiz-adv-x="611" 
d="M438 81q-19 -41 -64.5 -67t-102.5 -26q-95 0 -143 56t-48 162v304h94v-257q0 -111 29 -150t83 -39q71 0 111 55t40 154v237h94v-510h-91v81h-2zM240 562h-79l99 144h91l100 -144h-80l-66 98z" />
    <glyph glyph-name="udieresis" unicode="&#xfc;" horiz-adv-x="611" 
d="M438 81q-19 -41 -64.5 -67t-102.5 -26q-95 0 -143 56t-48 162v304h94v-257q0 -111 29 -150t83 -39q71 0 111 55t40 154v237h94v-510h-91v81h-2zM271 684v-100h-94v100h94zM435 684v-100h-94v100h94z" />
    <glyph glyph-name="yacute" unicode="&#xfd;" horiz-adv-x="500" 
d="M86 -146q43 0 72 36.5t40 88.5q0 8 -6.5 24t-7.5 20l-177 487h103l137 -422h2l140 422h95l-202 -560q-29 -82 -69 -127t-113 -45q-26 0 -43.5 3t-20.5 4l6 77q24 -8 44 -8zM382 706l-131 -144h-67l89 144h109z" />
    <glyph glyph-name="thorn" unicode="&#xfe;" horiz-adv-x="611" 
d="M174 750v-310h2q51 82 169 82q69 0 119 -34t75.5 -92.5t25.5 -131.5q0 -77 -24.5 -139.5t-74 -99.5t-120.5 -37q-119 0 -170 82h-2v-280h-94v960h94zM465 258q0 86 -37 137t-104 51q-46 0 -80 -26t-52 -70t-18 -96q0 -47 16.5 -91t50.5 -71.5t83 -27.5q64 0 102.5 55.5
t38.5 138.5z" />
    <glyph glyph-name="ydieresis" unicode="&#xff;" horiz-adv-x="500" 
d="M86 -146q43 0 72 36.5t40 88.5q0 8 -6.5 24t-7.5 20l-177 487h103l137 -422h2l140 422h95l-202 -560q-29 -82 -69 -127t-113 -45q-26 0 -43.5 3t-20.5 4l6 77q24 -8 44 -8zM215 684v-100h-94v100h94zM379 684v-100h-94v100h94z" />
    <glyph glyph-name="dotlessi" unicode="&#x131;" horiz-adv-x="278" 
d="M186 510v-510h-94v510h94z" />
    <glyph glyph-name="OE" unicode="&#x152;" horiz-adv-x="944" 
d="M506 -3q-40 -3 -69 -3q-114 0 -201 44t-135 126.5t-48 193.5q0 106 49 184t136.5 120t199.5 42q33 0 87 -4q42 -2 54 -2h296v-88h-282v-204h262v-88h-262v-230h289v-88h-297q-21 0 -41.5 -1t-37.5 -2zM431 616q-124 0 -198 -66t-74 -192q0 -85 34 -147t95.5 -95.5
t144.5 -33.5q37 0 60 6v522q-39 6 -62 6z" />
    <glyph glyph-name="oe" unicode="&#x153;" horiz-adv-x="944" 
d="M704 -12q-78 0 -131.5 28t-78.5 82q-23 -51 -77.5 -80.5t-123.5 -29.5q-76 0 -133.5 34.5t-88 95t-30.5 137.5q0 69 31 130.5t89 99t133 37.5q71 0 123.5 -25.5t79.5 -74.5q23 49 71 74.5t111 25.5q113 0 168.5 -76t55.5 -212h-361q0 -48 22 -86.5t60.5 -61t84.5 -22.5
q35 0 73 14.5t68 38.5v-95q-75 -34 -146 -34zM448 255q0 45 -17 89t-51.5 73t-85.5 29q-46 0 -81 -26.5t-53.5 -70.5t-18.5 -95q0 -86 40 -138t114 -52q47 0 82 28t53 72.5t18 90.5zM677 446q-58 0 -96.5 -40t-38.5 -102h261q-1 36 -17 69t-44.5 53t-64.5 20z" />
    <glyph glyph-name="Scaron" unicode="&#x160;" horiz-adv-x="500" 
d="M210 76q54 0 95.5 30t41.5 84q0 40 -28 69.5t-107 65.5q-53 24 -87.5 48t-56 59.5t-21.5 87.5q0 87 61 138.5t163 51.5q78 0 149 -25l-14 -92q-41 17 -68.5 23t-61.5 6q-59 0 -91 -24.5t-32 -68.5q0 -36 27.5 -60.5t81.5 -49.5l22 -11q53 -26 86.5 -49.5t58 -63.5
t24.5 -99q0 -100 -67.5 -154t-186.5 -54q-35 0 -66.5 7t-77.5 22l10 93q37 -15 76 -24.5t69 -9.5zM185 884l66 -98l65 98h79l-99 -144h-91l-100 144h80z" />
    <glyph glyph-name="scaron" unicode="&#x161;" horiz-adv-x="389" 
d="M159 64q41 0 68.5 18.5t27.5 54.5q0 23 -20 43t-72 43q-74 33 -101.5 66.5t-27.5 76.5q0 76 50.5 116t129.5 40q30 0 57 -5t60 -15l-8 -82q-14 9 -47.5 17.5t-51.5 8.5q-40 0 -65 -16.5t-25 -45.5t23 -48.5t76 -42.5q66 -29 94 -62t28 -84q0 -72 -49 -115.5t-130 -43.5
q-87 0 -139 28l5 84q23 -15 57.5 -25.5t59.5 -10.5zM130 706l66 -98l65 98h79l-99 -144h-91l-100 144h80z" />
    <glyph glyph-name="Ydieresis" unicode="&#x178;" horiz-adv-x="667" 
d="M11 698h117l208 -313l203 313h117l-272 -406v-292h-100v292zM299 863v-100h-94v100h94zM463 863v-100h-94v100h94z" />
    <glyph glyph-name="Zcaron" unicode="&#x17d;" 
d="M394 610h-350v88h465v-90l-361 -520h367v-88h-483v90zM213 884l66 -98l65 98h79l-99 -144h-91l-100 144h80z" />
    <glyph glyph-name="zcaron" unicode="&#x17e;" horiz-adv-x="500" 
d="M337 434h-280v76h389v-82l-294 -352h305v-76h-414v82zM185 706l66 -98l65 98h79l-99 -144h-91l-100 144h80z" />
    <glyph glyph-name="florin" unicode="&#x192;" 
d="M79 -140q36 0 56 23t30 77l72 384h-112l14 70h111l20 104q12 62 30.5 102.5t54.5 65t95 24.5q19 0 73 -8l-14 -80q-27 6 -41 6q-46 0 -65.5 -23t-30.5 -78l-23 -113h126l-14 -70h-126l-68 -362q-14 -71 -28.5 -111t-50.5 -66.5t-104 -26.5q-28 0 -51 5l16 81q12 -4 30 -4
z" />
    <glyph glyph-name="circumflex" unicode="&#x2c6;" horiz-adv-x="278" 
d="M73 562h-79l99 144h91l100 -144h-80l-66 98z" />
    <glyph glyph-name="caron" unicode="&#x2c7;" horiz-adv-x="278" 
d="M74 706l66 -98l65 98h79l-99 -144h-91l-100 144h80z" />
    <glyph glyph-name="ring" unicode="&#x2da;" horiz-adv-x="278" 
d="M37 665q0 42 30 72t72 30q41 0 71.5 -30.5t30.5 -71.5q0 -40 -30 -71t-72 -31q-41 0 -71.5 30t-30.5 72zM139 727q-25 0 -43.5 -19t-18.5 -43q0 -25 19 -43.5t43 -18.5t43 19t19 43q0 25 -19 43.5t-43 18.5z" />
    <glyph glyph-name="tilde" unicode="&#x2dc;" horiz-adv-x="278" 
d="M215 580q-16 0 -34.5 5.5t-45.5 17.5q-31 14 -46.5 18.5t-29.5 4.5q-20 0 -31 -13.5t-13 -32.5h-46q8 54 32 83t62 29q17 0 36 -6t46 -18q29 -13 44 -17.5t31 -4.5q18 0 29.5 13t13.5 33h46q-8 -56 -32.5 -84t-61.5 -28z" />
    <glyph glyph-name="endash" unicode="&#x2013;" horiz-adv-x="500" 
d="M500 304v-70h-500v70h500z" />
    <glyph glyph-name="emdash" unicode="&#x2014;" horiz-adv-x="1000" 
d="M1000 304v-70h-1000v70h1000z" />
    <glyph glyph-name="quoteleft" unicode="&#x2018;" horiz-adv-x="278" 
d="M226 698l-63 -245h-111l85 245h89z" />
    <glyph glyph-name="quoteright" unicode="&#x2019;" horiz-adv-x="278" 
d="M226 698l-88 -245h-86l62 245h112z" />
    <glyph glyph-name="quotesinglbase" unicode="&#x201a;" horiz-adv-x="278" 
d="M226 112l-85 -245h-89l63 245h111z" />
    <glyph glyph-name="quotedblleft" unicode="&#x201c;" 
d="M270 698l-62 -245h-112l86 245h88zM460 698l-64 -245h-110l84 245h90z" />
    <glyph glyph-name="quotedblright" unicode="&#x201d;" 
d="M270 698l-85 -245h-89l63 245h111zM460 698l-85 -245h-89l63 245h111z" />
    <glyph glyph-name="quotedblbase" unicode="&#x201e;" 
d="M270 112l-85 -245h-89l63 245h111zM460 112l-85 -245h-89l63 245h111z" />
    <glyph glyph-name="dagger" unicode="&#x2020;" 
d="M67 453v70h167v175h88v-175h167v-70h-167v-453h-88v453h-167z" />
    <glyph glyph-name="daggerdbl" unicode="&#x2021;" 
d="M234 0v162h-167v70h167v234h-167v70h167v162h88v-162h167v-70h-167v-234h167v-70h-167v-162h-88z" />
    <glyph glyph-name="bullet" unicode="&#x2022;" horiz-adv-x="500" 
d="M76 349q0 48 23.5 88t63.5 63t87 23t87 -23t64 -63t24 -88q0 -47 -23 -87t-63 -64t-89 -24q-48 0 -88 23.5t-63 63.5t-23 88z" />
    <glyph glyph-name="ellipsis" unicode="&#x2026;" horiz-adv-x="1000" 
d="M223 112v-112h-112v112h112zM556 112v-112h-112v112h112zM889 112v-112h-112v112h112z" />
    <glyph glyph-name="perthousand" unicode="&#x2030;" horiz-adv-x="1000" 
d="M583 720l-433 -742h-72l433 742h72zM3 510q0 104 37.5 152t112.5 48q78 0 114 -50.5t36 -149.5q0 -96 -39 -148t-111 -52t-111 52t-39 148zM215 519q0 55 -12 88t-51 33q-36 0 -48.5 -37t-12.5 -91q0 -75 16.5 -103.5t45.5 -28.5q38 0 50 38t12 101zM359 188
q0 104 37.5 152t112.5 48q78 0 114 -50.5t36 -149.5q0 -96 -39 -148t-111 -52t-111 52t-39 148zM697 188q0 104 37.5 152t112.5 48q78 0 114 -50.5t36 -149.5q0 -96 -39 -148t-111 -52t-111 52t-39 148zM571 197q0 59 -12 90t-51 31q-36 0 -48.5 -37t-12.5 -91
q0 -75 16.5 -103.5t45.5 -28.5q39 0 50.5 38.5t11.5 100.5zM909 197q0 61 -13 91t-50 30q-36 0 -48.5 -37t-12.5 -91q0 -75 16.5 -103.5t45.5 -28.5q38 0 50 36t12 103z" />
    <glyph glyph-name="guilsinglleft" unicode="&#x2039;" horiz-adv-x="278" 
d="M163 471h88l-130 -202l130 -202h-88l-143 202z" />
    <glyph glyph-name="guilsinglright" unicode="&#x203a;" horiz-adv-x="278" 
d="M27 471h88l143 -202l-143 -202h-88l130 202z" />
    <glyph glyph-name="Euro" unicode="&#x20ac;" 
d="M423 -12q-127 0 -214 70t-114 195h-95l13 54h75q0 4 -1 15.5t-1 28.5t1 27t1 13h-88l13 54h83q18 81 64.5 140.5t114 92t148.5 32.5q89 0 153 -26l-20 -83q-23 12 -59 19.5t-66 7.5q-82 0 -142 -48t-83 -135h318l-13 -54h-317q0 -3 -1 -13.5t-1 -26.5q0 -17 1 -29t1 -15
h299l-12 -54h-275q22 -84 80.5 -132.5t144.5 -48.5q32 0 65.5 6.5t59.5 18.5l6 -87q-26 -10 -63 -16t-76 -6z" />
    <glyph glyph-name="trademark" unicode="&#x2122;" horiz-adv-x="990" 
d="M54 628v70h332v-70h-128v-346h-76v346h-128zM858 600l-117 -318h-62l-117 318h-2v-318h-76v416h118l109 -281l107 281h118v-416h-76v318h-2z" />
    <glyph glyph-name="uniE300" unicode="&#xe300;" horiz-adv-x="278" 
d="M116 884l89 -144h-67l-131 144h109z" />
    <glyph glyph-name="uniE301" unicode="&#xe301;" horiz-adv-x="278" 
d="M271 884l-131 -144h-67l89 144h109z" />
    <glyph glyph-name="uniE302" unicode="&#xe302;" horiz-adv-x="278" 
d="M73 740h-79l99 144h91l100 -144h-80l-66 98z" />
    <glyph glyph-name="uniE303" unicode="&#xe303;" horiz-adv-x="278" 
d="M74 884l66 -98l65 98h79l-99 -144h-91l-100 144h80z" />
    <glyph glyph-name="uniE304" unicode="&#xe304;" horiz-adv-x="278" 
d="M215 751q-16 0 -34.5 5.5t-45.5 17.5q-30 13 -45 18t-30 5q-20 0 -31 -12.5t-14 -33.5h-46q8 54 31.5 83t62.5 29q17 0 36 -6t46 -18q29 -13 44 -17.5t31 -4.5q18 0 29 12t14 34h46q-8 -56 -32.5 -84t-61.5 -28z" />
    <glyph glyph-name="uniE305" unicode="&#xe305;" horiz-adv-x="278" 
d="M104 862v-100h-94v100h94zM268 862v-100h-94v100h94z" />
    <glyph glyph-name="uniE308" unicode="&#xe308;" horiz-adv-x="278" 
d="M37 831q0 42 30.5 72t71.5 30t71.5 -30t30.5 -72q0 -41 -30 -71.5t-72 -30.5t-72 30t-30 72zM139 893q-25 0 -43.5 -19t-18.5 -43t18.5 -43t43.5 -19q24 0 43 19t19 43t-18.5 43t-43.5 19z" />
    </font>
</defs>
</svg>
