
<?xml version="1.0" standalone="no"?>
<!DOCTYPE svg PUBLIC "-//W3C//DTD SVG 1.1//EN" "http://www.w3.org/Graphics/SVG/1.1/DTD/svg11.dtd" >
<svg>
<metadata>
Created by FontForge 20120731 at Fri Apr  8 21:36:55 2016
 By www
(c) 1981 Linotype-Hell AG
</metadata>
<defs>
<font id="Frutiger-Bold" horiz-adv-x="1138" >
  <font-face 
    font-family="Frutiger Bold"
    font-weight="700"
    font-stretch="normal"
    units-per-em="2048"
    panose-1="2 11 7 2 2 5 4 2 2 4"
    ascent="1638"
    descent="-410"
    x-height="1055"
    cap-height="1422"
    bbox="-341 -512 2048 1891"
    underline-thickness="102"
    underline-position="-154"
    unicode-range="U+0020-FB02"
  />
<missing-glyph horiz-adv-x="1536" 
d="M256 0v1280h1024v-1280h-1024zM288 32h960v1216h-960v-1216z" />
    <glyph glyph-name=".notdef" horiz-adv-x="1536" 
d="M256 0v1280h1024v-1280h-1024zM288 32h960v1216h-960v-1216z" />
    <glyph glyph-name=".null" horiz-adv-x="0" 
 />
    <glyph glyph-name="nonmarkingreturn" horiz-adv-x="0" 
 />
    <glyph glyph-name="space" unicode=" " horiz-adv-x="569" 
 />
    <glyph glyph-name="exclam" unicode="!" horiz-adv-x="796" 
d="M282 412l-43 1010h322l-49 -1010h-230zM256 0v273h282v-273h-282z" />
    <glyph glyph-name="quotedbl" unicode="&#x22;" horiz-adv-x="985" 
d="M385 868h-141l-37 545v51h215v-51zM741 868h-141l-37 545v51h215v-51z" />
    <glyph glyph-name="numbersign" unicode="#" horiz-adv-x="1139" 
d="M205 0h-198l141 410h-214l56 172h213l105 303h-214l56 172h214l140 407h199l-141 -407h227l141 407h201l-140 -407h213l-55 -172h-214l-105 -303h214l-55 -172h-214l-141 -410h-199l141 410h-230zM632 582l104 303h-229l-105 -303h230z" />
    <glyph glyph-name="dollar" unicode="$" 
d="M520 1422v183h111v-176q26 1 30 1q67 0 154.5 -14t152.5 -34l-26 -239q-59 29 -141.5 48t-138.5 19q-12 0 -31 -1v-360q235 -58 333.5 -169t98.5 -270q0 -170 -117 -287t-324 -132v-181h-114v173q-34 -1 -48 -1q-176 0 -355 63l26 258q68 -37 173 -64.5t177 -27.5
q13 0 27 2v394q-248 75 -337.5 176.5t-89.5 248.5q0 184 135.5 283t303.5 107zM520 887v322q-79 -13 -121.5 -57.5t-42.5 -103.5q0 -51 32 -87q44 -49 132 -74zM622 576v-360q82 22 122.5 69.5t40.5 109.5q0 58 -38.5 105t-124.5 76z" />
    <glyph glyph-name="percent" unicode="%" horiz-adv-x="2048" 
d="M1333 1496h168l-798 -1539h-169zM218 1071q0 187 83.5 295t248.5 108q159 0 252 -94.5t93 -267.5q0 -105 -34.5 -196.5t-109.5 -143t-189 -51.5q-112 0 -191 46t-116 128.5t-37 175.5zM672 1107q0 114 -39 166q-26 35 -78 35q-51 0 -79 -38q-38 -53 -38 -185
q0 -114 33 -157.5t86 -43.5q51 0 83 44.5t32 178.5zM1150 322q0 187 83.5 295t248.5 108q159 0 251.5 -94.5t92.5 -268.5q0 -105 -34 -196t-109.5 -142.5t-189.5 -51.5q-111 0 -190 45.5t-116 128t-37 176.5zM1603 358q0 113 -38 166q-26 35 -78 35t-79 -38
q-38 -53 -38 -184q0 -115 33 -158.5t85 -43.5q51 0 83 44.5t32 178.5z" />
    <glyph glyph-name="ampersand" unicode="&#x26;" horiz-adv-x="1479" 
d="M1119 0l-98 123q-61 -65 -165 -107t-228 -42q-149 0 -266.5 56.5t-178 159.5t-60.5 216q0 96 42.5 177t121.5 137q54 38 137 65q-81 59 -136.5 154t-55.5 179q0 87 50 164.5t149.5 123t232.5 45.5q123 0 217.5 -39t143.5 -115.5t49 -173.5q0 -108 -61 -194t-219 -178
l263 -289q35 40 61.5 128.5t26.5 157.5v22h251q-7 -148 -59 -281q-38 -96 -124 -205l256 -284h-350zM635 901q91 47 141.5 106t50.5 109q0 56 -43.5 96t-114.5 40q-76 0 -122.5 -41t-46.5 -96q0 -45 29.5 -96t105.5 -118zM889 273l-318 355q-91 -47 -128.5 -105t-37.5 -117
q0 -51 32 -108.5t85.5 -87.5t130.5 -30q66 0 127.5 24.5t108.5 68.5z" />
    <glyph glyph-name="quotesingle" unicode="'" horiz-adv-x="569" 
d="M352 868h-135l-40 545v51h215v-51z" />
    <glyph glyph-name="parenleft" unicode="(" horiz-adv-x="683" 
d="M405 1550h261q-159 -265 -228.5 -484.5t-69.5 -431.5q0 -230 73.5 -453.5t227.5 -469.5h-261q-94 130 -154 249q-89 174 -130 333.5t-41 338.5q0 223 62.5 412.5t259.5 505.5z" />
    <glyph glyph-name="parenright" unicode=")" horiz-adv-x="683" 
d="M275 -289h-261q140 217 220.5 453t80.5 463q0 229 -73 451.5t-228 471.5h261q177 -247 262 -511q60 -183 60 -404q0 -164 -32.5 -306t-103 -292.5t-186.5 -325.5z" />
    <glyph glyph-name="asterisk" unicode="*" 
d="M704 1079l197 -219l-187 -135l-147 254l-154 -254l-187 135l201 219l-282 64l69 220l272 -123l-28 296h225l-31 -294l273 114l64 -216z" />
    <glyph glyph-name="plus" unicode="+" horiz-adv-x="1229" 
d="M510 0v426h-426v209h426v426h209v-426h426v-209h-426v-426h-209z" />
    <glyph glyph-name="comma" unicode="," horiz-adv-x="569" 
d="M208 284h297l-185 -512h-242z" />
    <glyph glyph-name="hyphen" unicode="-" horiz-adv-x="683" 
d="M76 436v228h538v-228h-538z" />
    <glyph glyph-name="hyphen" unicode="&#xad;" horiz-adv-x="683" 
d="M76 436v228h538v-228h-538z" />
    <glyph glyph-name="period" unicode="." horiz-adv-x="569" 
d="M140 0v284h289v-284h-289z" />
    <glyph glyph-name="slash" unicode="/" horiz-adv-x="796" 
d="M24 0l500 1422h244l-497 -1422h-247z" />
    <glyph glyph-name="zero" unicode="0" 
d="M73 709q0 167 24 301.5t87.5 230.5t159 151.5t226.5 55.5q133 0 231.5 -57t158.5 -155.5t84.5 -237t24.5 -281.5q0 -190 -34 -346q-13 -64 -42 -122q-37 -78 -95 -138.5t-138.5 -96t-189.5 -35.5q-135 0 -232 55.5t-155.5 152t-84 234t-25.5 288.5zM365 711
q0 -267 52.5 -392t149.5 -125q52 0 98.5 38t79 150t32.5 327q0 186 -24.5 313t-72 169.5t-107.5 42.5q-66 0 -114.5 -50.5t-71 -187.5t-22.5 -285z" />
    <glyph glyph-name="one" unicode="1" 
d="M512 1105l-237 -197l-145 185l420 329h251v-1422h-289v1105z" />
    <glyph glyph-name="two" unicode="2" 
d="M83 0v239l183 166q69 63 191 202t164.5 206t59.5 119q11 38 11 80q0 89 -58.5 144t-164.5 55q-74 0 -167.5 -33t-161.5 -85l-24 251q89 47 203.5 74.5t226.5 27.5q153 0 251 -52.5t148.5 -145t50.5 -195.5q0 -83 -24.5 -163t-102.5 -198.5t-213 -265.5q-77 -85 -201 -196
h579v-230h-951z" />
    <glyph glyph-name="three" unicode="3" 
d="M92 31l17 244q168 -69 324 -69q141 0 213 61t72 152q0 90 -65 137q-88 65 -298 65q-37 0 -83 -5v235q42 -5 76 -5q152 0 228.5 29.5t107.5 78t31 95.5q0 44 -25 82.5t-83.5 61.5t-146.5 23q-79 0 -167 -21.5t-139 -51.5l-17 232q185 69 380 69q161 0 277 -51t165 -126.5
t49 -185.5q0 -157 -82.5 -237.5t-184.5 -99.5q50 0 113 -38q83 -49 123 -128t40 -181q0 -180 -123 -282q-158 -132 -438 -132q-79 0 -156.5 10t-207.5 38z" />
    <glyph glyph-name="four" unicode="4" 
d="M566 1422h358v-915h180v-218h-180v-289h-284v289h-607v240zM291 507h358v628z" />
    <glyph glyph-name="five" unicode="5" 
d="M147 26l7 258q90 -38 157.5 -54.5t133.5 -16.5q145 0 221 68.5t76 173.5q0 102 -82 172t-242 70q-125 0 -250 -40l15 756h820v-218h-550l-7 -287q43 9 102 9q172 0 283.5 -61.5t162.5 -168.5t51 -227q0 -134 -63 -246.5t-188.5 -171.5t-303.5 -59q-78 0 -186.5 15
t-156.5 28z" />
    <glyph glyph-name="six" unicode="6" 
d="M991 1396l-35 -232q-59 28 -124 43.5t-118 15.5q-98 0 -178 -49t-120.5 -143.5t-45.5 -243.5q35 60 107 101t167 41q120 0 215.5 -54t149 -170t53.5 -260q0 -139 -56 -249.5t-166 -166t-255 -55.5q-156 0 -261 66.5t-170.5 215.5t-65.5 384q0 202 50 375
q37 129 109 225.5t165 145.5q120 64 278 64q151 0 301 -54zM387 460q0 -62 24 -130.5t71 -104.5t102 -36q76 0 134 68.5t58 185.5q0 78 -27.5 142.5t-73.5 94t-99 29.5q-89 0 -139 -73.5t-50 -175.5z" />
    <glyph glyph-name="seven" unicode="7" 
d="M735 1190h-635v223h924v-225l-507 -1188h-313z" />
    <glyph glyph-name="eight" unicode="8" 
d="M334 744q-104 28 -170.5 118.5t-66.5 213.5q0 158 110 254q134 116 361 116q206 0 334.5 -92t128.5 -251q0 -117 -70 -211.5t-169 -123.5q133 -39 204 -132.5t71 -235.5q0 -192 -128 -309t-367 -117t-370 117.5t-131 292.5q0 92 32 166.5t85 117.5t146 76zM595 853
q10 0 49 26q50 34 80 85t30 106q0 73 -49 121t-134 48q-88 0 -142 -49.5t-54 -118.5q0 -48 24.5 -88.5t75.5 -72.5q25 -16 120 -57zM541 626q-5 0 -43 -22q-61 -34 -98 -86.5t-37 -118.5q0 -55 26.5 -106.5t75.5 -78.5t112 -27q88 0 143 54t55 137q0 77 -44 133t-113 85.5
t-77 29.5z" />
    <glyph glyph-name="nine" unicode="9" 
d="M149 24l36 232q126 -59 242 -59q97 0 177.5 48.5t120.5 143.5t45 244q-34 -60 -106 -101.5t-167 -41.5q-121 0 -216 54.5t-149 170.5t-54 259q0 140 56 250.5t166.5 166t254.5 55.5q155 0 260 -65.5t171.5 -215t66.5 -384.5q0 -190 -43 -350q-28 -105 -77 -191t-108 -139
t-145 -86q-118 -45 -248 -45q-145 0 -283 54zM754 960q0 63 -24.5 131t-71.5 103.5t-102 35.5q-75 0 -133 -68t-58 -185q0 -78 27 -143t73 -94t99 -29q90 0 140 74t50 175z" />
    <glyph glyph-name="colon" unicode=":" horiz-adv-x="569" 
d="M429 773h-289v284h289v-284zM140 0v284h289v-284h-289z" />
    <glyph glyph-name="semicolon" unicode=";" horiz-adv-x="569" 
d="M144 773v284h289v-284h-289zM170 284h297l-185 -512h-242z" />
    <glyph glyph-name="less" unicode="&#x3c;" horiz-adv-x="1229" 
d="M1200 -26l-1171 454v204l1171 454v-222l-905 -334l905 -334v-222z" />
    <glyph glyph-name="equal" unicode="=" horiz-adv-x="1229" 
d="M84 649v209h1061v-209h-1061zM84 203v209h1061v-209h-1061z" />
    <glyph glyph-name="greater" unicode="&#x3e;" horiz-adv-x="1229" 
d="M29 1086l1171 -454v-204l-1171 -454v222l906 334l-906 334v222z" />
    <glyph glyph-name="question" unicode="?" horiz-adv-x="1024" 
d="M126 1140l-24 240q204 68 398 68q172 0 272.5 -49t151.5 -135t51 -175q0 -76 -30.5 -143.5t-107.5 -156.5l-145 -166q-31 -36 -49 -89.5t-18 -103.5q0 -8 1 -22h-249q-1 17 -1 26q0 45 9.5 100.5t29 102t45.5 76.5l145 171q68 82 68 164q0 75 -59 126.5t-166 51.5
q-68 0 -160 -23.5t-162 -62.5zM358 0v273h284v-273h-284z" />
    <glyph glyph-name="at" unicode="@" horiz-adv-x="1638" 
d="M1440 254l55 -74q-164 -119 -314 -171q-151 -52 -325 -52q-238 0 -420.5 98t-286.5 273t-104 384q0 210 107 397.5t307 294t430 106.5q200 0 365 -80t252 -224.5t87 -317.5q0 -106 -31 -200t-80.5 -161.5t-103 -108t-108.5 -59.5t-104 -19q-52 0 -92.5 20.5t-60.5 58
t-20 73.5q0 18 7 52q-31 -61 -60 -94q-44 -50 -102.5 -80t-131.5 -30q-122 0 -202 85.5t-80 234.5q0 131 62 252.5t156.5 185t197.5 63.5q69 0 123.5 -27t84.5 -81q20 -34 24 -87l48 162h155l-118 -396q-28 -94 -37 -135q-6 -30 -6 -56q0 -43 24 -66.5t67 -23.5q57 0 126 52
t116.5 161t47.5 230q0 147 -74.5 267.5t-216 185t-314.5 64.5q-209 0 -384 -92.5t-269 -260t-94 -350.5q0 -153 59 -273.5t145.5 -198.5t185.5 -120q147 -61 327 -61q152 0 293 46q141 47 287 153zM750 451q69 0 129.5 59t108.5 201q35 107 35 179q0 76 -41 118.5t-105 42.5
q-119 0 -200.5 -135.5t-81.5 -265.5q0 -99 43.5 -149t111.5 -50z" />
    <glyph glyph-name="A" unicode="A" horiz-adv-x="1479" 
d="M19 0l559 1422h323l562 -1422h-318l-119 325h-587l-121 -325h-299zM526 555h413l-206 583z" />
    <glyph glyph-name="B" unicode="B" horiz-adv-x="1252" 
d="M149 0v1422h363q171 0 229 -6q95 -11 155.5 -38t107 -75.5t70 -110.5t23.5 -132q0 -122 -71.5 -206.5t-205.5 -111.5q143 -11 234 -107.5t91 -236.5q0 -97 -38.5 -173.5t-110.5 -131.5q-47 -36 -118 -58q-113 -35 -234 -35h-495zM429 846h137q134 0 189 50t55 130
q0 61 -31 102.5t-74 55.5t-125 15l-151 3v-356zM429 220h140q152 0 219.5 58t67.5 151q0 109 -69.5 157.5t-220.5 48.5h-137v-415z" />
    <glyph glyph-name="C" unicode="C" horiz-adv-x="1252" 
d="M1206 1375l-23 -244q-66 32 -157.5 50.5t-166.5 18.5q-127 0 -231 -60.5t-158.5 -173t-54.5 -248.5q0 -221 133 -356t348 -135q157 0 301 60l12 -254q-55 -17 -153 -32t-186 -15q-197 0 -359 66q-195 80 -301 247t-106 406q0 328 202.5 529t537.5 201q191 0 362 -60z" />
    <glyph glyph-name="D" unicode="D" horiz-adv-x="1479" 
d="M168 0v1422h325q223 0 354 -22.5t228 -76.5t170 -145t105 -199.5t32 -249.5q0 -147 -34 -265.5t-103 -209.5t-157 -144t-244 -86q-110 -24 -290 -24h-386zM455 1204v-981q38 -4 75 -4q117 0 216 25q73 18 126 51t102 92t78 144t29 184q0 95 -26 175.5t-77 145t-114 100
t-152.5 52.5t-256.5 16z" />
    <glyph glyph-name="E" unicode="E" 
d="M168 0v1415h841v-237h-552v-337h505v-232h-505v-372h557v-237h-846z" />
    <glyph glyph-name="F" unicode="F" horiz-adv-x="1024" 
d="M154 0v1415h792v-237h-503v-341h479v-233h-479v-604h-289z" />
    <glyph glyph-name="G" unicode="G" horiz-adv-x="1479" 
d="M1299 1380l-19 -256q-61 32 -174 58.5t-200 26.5q-141 0 -258 -60t-177.5 -174.5t-60.5 -261.5q0 -149 62 -263t178.5 -169.5t240.5 -55.5q39 0 92.5 7.5t80.5 16.5v346h-301v228h574v-759q-112 -37 -243.5 -56.5t-240.5 -19.5q-156 0 -294 43.5t-242 139.5t-159.5 236
t-55.5 307q0 211 90 372.5t279 257t437 95.5q213 0 391 -59z" />
    <glyph glyph-name="H" unicode="H" horiz-adv-x="1479" 
d="M171 0v1422h289v-569h569v569h289v-1422h-289v612h-569v-612h-289z" />
    <glyph glyph-name="I" unicode="I" horiz-adv-x="569" 
d="M140 0v1422h289v-1422h-289z" />
    <glyph glyph-name="J" unicode="J" horiz-adv-x="796" 
d="M346 1422h290v-972q0 -171 -43 -263.5t-141 -145.5t-219 -53q-101 0 -209 31l7 246q75 -21 137 -21q96 0 144 65q34 46 34 170v943z" />
    <glyph glyph-name="K" unicode="K" horiz-adv-x="1365" 
d="M168 0v1422h289v-607l515 607h353l-588 -659l611 -763h-374l-517 664v-664h-289z" />
    <glyph glyph-name="L" unicode="L" horiz-adv-x="1024" 
d="M149 0v1422h289v-1178h550v-244h-839z" />
    <glyph glyph-name="M" unicode="M" horiz-adv-x="1934" 
d="M161 0v1422h460l341 -1081l351 1081h450v-1422h-272v1185l-403 -1185h-268l-394 1185v-1185h-265z" />
    <glyph glyph-name="N" unicode="N" horiz-adv-x="1479" 
d="M154 0v1422h346l562 -1090v1090h258v-1422h-348l-562 1090v-1090h-256z" />
    <glyph glyph-name="O" unicode="O" horiz-adv-x="1593" 
d="M102 718q0 160 47 298t135.5 233t199.5 143q141 61 317 61q204 0 358 -83t242 -260.5t88 -394.5t-85.5 -391t-247.5 -263.5t-364 -89.5q-198 0 -360.5 89.5t-246 259.5t-83.5 398zM797 194q156 0 257 121q127 149 127 397q0 169 -57.5 292.5t-143 176t-185.5 52.5
q-159 0 -260 -121q-125 -149 -125 -404q0 -164 52 -281t140.5 -175t194.5 -58z" />
    <glyph glyph-name="P" unicode="P" 
d="M142 0v1422h313q183 0 241 -7q103 -14 172 -47t122.5 -90.5t81.5 -131.5t28 -160q0 -96 -34 -175t-89.5 -136.5t-122.5 -87t-158 -43.5q-55 -8 -144 -6l-121 2v-540h-289zM431 1204v-443q45 -1 60 -1q105 0 160 17q34 12 69.5 37.5t58 67t22.5 105.5q0 98 -72.5 159.5
t-233.5 61.5q-27 0 -64 -4z" />
    <glyph glyph-name="Q" unicode="Q" horiz-adv-x="1593" 
d="M1121 36l336 -309h-350l-242 245q-57 -3 -87 -3q-301 0 -487.5 195.5t-186.5 538.5q0 137 36 272.5t122 243.5t230.5 167.5t302.5 59.5q161 0 297.5 -57t219.5 -149t130 -231t47 -295q0 -146 -41 -286q-27 -95 -71 -166t-123 -141q-59 -52 -133 -85zM1183 716
q0 135 -44 251q-24 63 -68 122t-112 98t-159 39q-103 0 -193.5 -57.5t-143.5 -177.5t-53 -282q0 -253 126 -403q98 -116 262 -116q182 0 283.5 148t101.5 378z" />
    <glyph glyph-name="R" unicode="R" horiz-adv-x="1252" 
d="M156 1422h405q175 0 232 -6q85 -10 141 -37t103 -77t71.5 -114.5t24.5 -137.5q0 -83 -28.5 -145.5t-68 -102t-83.5 -61t-110 -32.5q38 -2 77 -36.5t68 -101.5l33 -76l204 -495h-320l-154 401q-27 70 -40 94q-22 42 -43.5 62t-47.5 28q-40 11 -114 11q-26 0 -61 -3v-593
h-289v1422zM445 1199v-386h126q137 0 200.5 58t63.5 149q0 78 -56.5 128.5t-167.5 50.5h-166z" />
    <glyph glyph-name="S" unicode="S" 
d="M960 1384l-26 -237q-57 29 -140.5 48t-153.5 19q-110 0 -168.5 -49t-58.5 -113q0 -49 32.5 -89.5t126.5 -78.5l215 -88q119 -48 186.5 -147t67.5 -226q0 -115 -46.5 -200.5t-119.5 -137t-171 -74.5t-206 -23q-171 0 -355 57l26 261q66 -39 152 -63.5t166 -24.5
q125 0 190.5 55.5t65.5 129.5q0 56 -35.5 97.5t-114.5 75.5l-197 85q-92 40 -142 81q-66 53 -100.5 124t-34.5 164q0 179 129 293t378 114q161 0 334 -53z" />
    <glyph glyph-name="T" unicode="T" 
d="M1129 1420v-242h-413v-1178h-289v1178h-403v242h1105z" />
    <glyph glyph-name="U" unicode="U" horiz-adv-x="1479" 
d="M159 1422h289v-837q0 -111 16 -173t53 -107.5t86 -72.5t136 -27q143 0 221 87t78 293v837h278v-837q0 -158 -23.5 -253t-65.5 -152.5t-109.5 -104t-146.5 -68.5q-112 -31 -240 -31q-127 0 -227.5 28.5t-167 78.5t-103.5 110t-59 163q-15 70 -15 253v813z" />
    <glyph glyph-name="V" unicode="V" horiz-adv-x="1365" 
d="M1344 1422l-481 -1422h-353l-493 1422h308l370 -1114l365 1114h284z" />
    <glyph glyph-name="W" unicode="W" horiz-adv-x="2048" 
d="M1475 294l270 1128h280l-375 -1422h-367l-261 1138l-256 -1138h-370l-379 1422h301l268 -1100l246 1100h389z" />
    <glyph glyph-name="X" unicode="X" horiz-adv-x="1365" 
d="M489 744l-427 678h332l299 -502l305 502h306l-429 -678l469 -744h-339l-329 557l-334 -557h-325z" />
    <glyph glyph-name="Y" unicode="Y" horiz-adv-x="1365" 
d="M825 0h-289v569l-519 853h337l336 -592l344 592h303l-512 -853v-569z" />
    <glyph glyph-name="Z" unicode="Z" 
d="M1064 0h-991v247l668 938h-642v237h951v-246l-669 -939h683v-237z" />
    <glyph glyph-name="bracketleft" unicode="[" horiz-adv-x="683" 
d="M171 1548h453v-190h-202v-1455h202v-190h-453v1835z" />
    <glyph glyph-name="backslash" unicode="\" horiz-adv-x="797" 
d="M516 0l-481 1422h244l484 -1422h-247z" />
    <glyph glyph-name="bracketright" unicode="]" horiz-adv-x="683" 
d="M529 1548v-1835h-453v190h202v1455h-202v190h453z" />
    <glyph glyph-name="asciicircum" unicode="^" horiz-adv-x="1229" 
d="M164 594l358 870h185l359 -870h-201l-250 621l-251 -621h-200z" />
    <glyph glyph-name="underscore" unicode="_" horiz-adv-x="1024" 
d="M0 -256v102h1024v-102h-1024z" />
    <glyph glyph-name="grave" unicode="`" horiz-adv-x="569" 
d="M59 1498h280l170 -296h-170z" />
    <glyph glyph-name="a" unicode="a" 
d="M770 0l-7 156q-35 -74 -127.5 -124.5t-206.5 -50.5q-99 0 -183 41t-129.5 117.5t-45.5 175.5q0 179 163 270q125 69 377 69q63 0 143 -7q1 19 1 29q0 99 -58 153.5t-178 54.5q-87 0 -176 -34t-151 -84l-7 237q53 27 160 50t211 23q133 0 225.5 -37t150.5 -112
q40 -53 54 -138.5t14 -250.5v-156l3 -154l4 -162l5 -66h-242zM756 481q-51 4 -69 4q-100 0 -183.5 -18t-121.5 -61.5t-38 -99.5q0 -60 43 -99t119 -39q67 0 130.5 39.5t91.5 102.5t28 171z" />
    <glyph glyph-name="b" unicode="b" horiz-adv-x="1252" 
d="M140 0v1536h270v-633q47 61 77 85q50 40 112.5 63t141.5 23q186 0 306 -135.5t120 -394.5q0 -172 -52 -300t-153.5 -193t-228.5 -65q-105 0 -191 44t-141 124v-154h-261zM413 524q0 -164 70 -245.5t167 -81.5q96 0 164.5 81.5t68.5 247.5q0 164 -65.5 243.5t-162.5 79.5
q-99 0 -170.5 -83t-71.5 -242z" />
    <glyph glyph-name="c" unicode="c" horiz-adv-x="910" 
d="M839 1031l-23 -220q-68 36 -166 36q-127 0 -212 -88t-85 -226q0 -90 36.5 -164t105 -114t153.5 -40q48 0 103 14t95 34l12 -230q-112 -38 -244 -38q-124 0 -224 36.5t-166.5 101t-102.5 141.5q-52 113 -52 254q0 160 66 282t194.5 188t275.5 66q53 0 120.5 -9.5
t113.5 -23.5z" />
    <glyph glyph-name="d" unicode="d" horiz-adv-x="1252" 
d="M846 903v633h270v-1536h-260v154q-53 -78 -140 -123t-192 -45q-87 0 -155.5 27.5t-112 65.5t-81 97.5t-61.5 156t-24 207.5q0 247 113.5 390.5t310.5 143.5q108 0 186 -41t146 -130zM600 849q-95 0 -161 -79.5t-66 -243.5q0 -170 70.5 -249.5t162.5 -79.5q97 0 167 81.5
t70 242.5q0 143 -64 235.5t-179 92.5z" />
    <glyph glyph-name="e" unicode="e" 
d="M1060 443h-714q3 -71 43.5 -133.5t104.5 -93.5t157 -31q84 0 166 23.5t174 75.5l3 -225q-36 -27 -143.5 -55t-220.5 -28q-168 0 -292.5 62.5t-190.5 192.5t-66 300q0 168 63.5 297t184.5 194.5t267 65.5q156 0 267 -77.5t155.5 -210.5t44.5 -301q0 -19 -3 -56zM344 633
h462q-6 131 -67 196t-162 65q-94 0 -147 -57q-75 -78 -86 -204z" />
    <glyph glyph-name="f" unicode="f" horiz-adv-x="796" 
d="M778 1524l-22 -225q-48 24 -104 24q-80 0 -105 -52t-30 -221h239v-206h-239v-844h-275v844h-204v206h204q3 202 37 297t113.5 147t217.5 52q93 0 168 -22z" />
    <glyph glyph-name="g" unicode="g" horiz-adv-x="1252" 
d="M849 889v166h263v-927q0 -150 -25 -238.5t-66 -144.5t-101 -97.5t-128 -63.5q-105 -32 -230 -32q-195 0 -370 73l24 240q68 -43 159.5 -68t168.5 -25q97 0 174 45.5t107.5 127t32.5 266.5q-60 -108 -154 -160.5t-196 -52.5q-112 0 -212.5 61t-156.5 185.5t-56 297.5
q0 254 125.5 393t308.5 139q83 0 155.5 -29t119.5 -74q33 -32 57 -82zM367 564q0 -172 67 -254t166 -82q100 0 172 81.5t72 225.5q0 150 -72 234t-170 84q-64 0 -120 -36.5t-85.5 -105.5t-29.5 -147z" />
    <glyph glyph-name="h" unicode="h" horiz-adv-x="1252" 
d="M145 0v1536h275v-633q126 168 332 168q99 0 176.5 -37.5t116.5 -94t59 -160.5q10 -57 10 -175v-604h-274v607q0 122 -51.5 182t-126.5 60q-67 0 -125.5 -38t-82.5 -106q-34 -91 -34 -174v-531h-275z" />
    <glyph glyph-name="i" unicode="i" horiz-adv-x="569" 
d="M422 1247h-275v258h275v-258zM147 0v1055h275v-1055h-275z" />
    <glyph glyph-name="j" unicode="j" horiz-adv-x="569" 
d="M152 1247v258h275v-258h-275zM-28 -424l10 196q12 -2 27 -2q82 0 117 54q26 40 26 150v1081h275v-1119q0 -94 -22 -165.5t-65.5 -118t-106.5 -70t-145 -23.5q-69 0 -116 17z" />
    <glyph glyph-name="k" unicode="k" 
d="M427 0h-275v1536h275v-903l332 422h322l-393 -472l443 -583h-348l-356 512v-512z" />
    <glyph glyph-name="l" unicode="l" horiz-adv-x="569" 
d="M149 0v1536h275v-1536h-275z" />
    <glyph glyph-name="m" unicode="m" horiz-adv-x="1820" 
d="M389 1055l7 -161q52 84 139 130.5t192 46.5q117 0 196 -57q60 -44 99 -130q24 51 59 84q50 48 125 77t154 29q94 0 164 -40t107 -103q27 -46 43 -140q11 -62 11 -182v-609h-275v581q0 113 -16 161.5t-55.5 75t-86.5 26.5q-54 0 -104 -36.5t-74 -110t-24 -142.5v-555h-275
v633q0 107 -45 159t-113 52q-79 0 -142 -76.5t-63 -238.5v-529h-275v794l-4 175q-1 46 -5 86h261z" />
    <glyph glyph-name="n" unicode="n" horiz-adv-x="1252" 
d="M396 1055l7 -161q113 178 341 178q86 0 154.5 -25t112.5 -68.5t66 -95.5t32 -147q4 -45 5 -238v-498h-273v529q0 172 -30 232q-46 90 -153 90q-67 0 -126 -38t-86 -108t-27 -205v-500h-275v847q0 109 -9 208h261z" />
    <glyph glyph-name="o" unicode="o" horiz-adv-x="1252" 
d="M1174 514q0 -95 -32 -193.5t-97.5 -173.5t-171 -125.5t-247.5 -50.5q-242 0 -396 154.5t-154 399.5q0 249 154 405t397 156q242 0 394.5 -156t152.5 -416zM365 531q0 -173 75 -262t183 -89q126 0 196 97t70 247q0 136 -67 246t-194 110q-57 0 -102 -22.5t-79 -65.5
t-54 -97q-28 -78 -28 -164z" />
    <glyph glyph-name="p" unicode="p" horiz-adv-x="1252" 
d="M415 145v-579h-273v1181l-4 206l-3 73l-2 29h265l5 -164q54 86 139.5 134.5t195.5 48.5q181 0 294 -115q139 -143 139 -416q0 -164 -50 -292t-152 -196.5t-242 -68.5q-108 0 -187 43t-125 116zM415 521q0 -157 70.5 -239.5t166.5 -82.5q93 0 164 85.5t71 248.5
q0 160 -71 248q-55 68 -148 68q-106 0 -179.5 -84.5t-73.5 -243.5z" />
    <glyph glyph-name="q" unicode="q" horiz-adv-x="1252" 
d="M839 891l5 164l265 -3l-2 -26l-7 -279v-1181h-273v579q-44 -71 -123 -115t-189 -44q-129 0 -231 61.5t-157.5 191.5t-55.5 300q0 264 121.5 399.5t310.5 135.5q219 0 336 -183zM577 849q-95 0 -158.5 -77.5t-63.5 -238.5q0 -162 71 -248t165 -86q59 0 116 37t90 112.5
t33 171.5q0 156 -74 242.5t-179 86.5z" />
    <glyph glyph-name="r" unicode="r" horiz-adv-x="796" 
d="M135 1055h251l5 -268q27 128 111 202.5t191 74.5q39 0 75 -7v-258q-31 17 -84 17q-74 0 -124.5 -29t-82.5 -77.5t-45 -109.5t-13 -166v-434h-275v735l-7 291z" />
    <glyph glyph-name="s" unicode="s" horiz-adv-x="910" 
d="M789 1036l-19 -209q-125 48 -226 48q-97 0 -143 -35.5t-46 -78.5q0 -33 27.5 -57t48.5 -26l10 -2l192 -67q95 -33 148 -108t53 -182q0 -89 -33 -148.5t-83.5 -99.5t-100.5 -59q-80 -31 -207 -31q-160 0 -325 47l17 228q159 -66 266 -66q100 0 152 40q37 28 37 82
q0 35 -17 57t-54 34l-119 38q-162 52 -222 126t-60 186q0 135 98 219q123 105 324 105q129 0 282 -41z" />
    <glyph glyph-name="t" unicode="t" horiz-adv-x="796" 
d="M229 846h-201v204h204v216l263 87v-303h246v-204h-246v-386q0 -139 24 -178q41 -66 136 -66q48 0 98 16l7 -218q-81 -26 -186 -26q-76 0 -132.5 17.5t-96.5 49t-64 71t-40 114.5q-12 55 -12 163v443z" />
    <glyph glyph-name="u" unicode="u" horiz-adv-x="1252" 
d="M145 1055h275v-519l2 -93q3 -109 36 -158q52 -76 149 -76q57 0 103 28.5t73.5 77.5t40.5 128q6 37 6 126v486h275v-645l7 -348l7 -62h-265l-7 161q-47 -79 -135.5 -127.5t-205.5 -48.5q-83 0 -149 23.5t-107.5 61.5t-63 83t-33.5 136q-8 61 -8 232v534z" />
    <glyph glyph-name="v" unicode="v" 
d="M1114 1055l-388 -1055h-311l-391 1055h296l263 -771l256 771h275z" />
    <glyph glyph-name="w" unicode="w" horiz-adv-x="1820" 
d="M1796 1055l-324 -1055h-323l-232 806l-228 -806h-312l-356 1055h289l237 -780l214 780h320l232 -780l220 780h263z" />
    <glyph glyph-name="x" unicode="x" 
d="M382 552l-327 503h325l206 -344l204 341h289l-315 -504l358 -548h-330l-235 393l-237 -393h-303z" />
    <glyph glyph-name="y" unicode="y" 
d="M839 1055h280l-424 -1128l-50 -114q-34 -79 -80.5 -132.5t-122 -88.5t-160.5 -35q-33 0 -102 8q-48 6 -90 20l19 204q67 -20 133 -20t120 48t72 128l-410 1110h303l256 -775z" />
    <glyph glyph-name="z" unicode="z" horiz-adv-x="1024" 
d="M97 1055h834v-223l-524 -619h545v-213h-879v213l536 628h-512v214z" />
    <glyph glyph-name="braceleft" unicode="{" horiz-adv-x="682" 
d="M-17 609q109 14 165.5 56t73.5 95t17 152v112q0 192 37.5 278t136.5 141.5t287 65.5v-139q-65 -7 -109 -27t-73.5 -59t-40.5 -95t-11 -145v-75q0 -163 -25 -240q-25 -78 -91.5 -127.5t-180.5 -61.5q85 -10 139 -36.5t91 -75.5t52 -111.5t15 -206.5v-75
q0 -110 19.5 -175.5t71 -103.5t143.5 -47v-139q-187 10 -286.5 65.5t-137 141t-37.5 278.5v112q0 107 -20.5 160.5t-79 92t-156.5 50.5v139z" />
    <glyph glyph-name="bar" unicode="|" horiz-adv-x="455" 
d="M123 -512v2048h209v-2048h-209z" />
    <glyph glyph-name="braceright" unicode="}" horiz-adv-x="682" 
d="M700 609v-139q-98 -11 -157 -50t-79 -92t-20 -161v-112q0 -191 -37.5 -277t-136.5 -142t-287 -66v139q58 6 97.5 22t66 42t41.5 61.5t23 94.5q6 37 6 106v75q0 165 25.5 242t91 125.5t180.5 62.5q-73 7 -116 25q-57 24 -100.5 69.5t-62 113t-18.5 221.5v75
q0 114 -20.5 178t-72 101.5t-141.5 46.5v139q187 -10 286 -65t137 -140q38 -86 38 -280v-112q0 -91 12 -136q13 -46 39.5 -77t76.5 -55.5t128 -34.5z" />
    <glyph glyph-name="asciitilde" unicode="~" horiz-adv-x="1229" 
d="M154 313h-140q24 144 66.5 231t109.5 130t139 43q92 0 242 -57l129 -49q116 -44 143 -52q28 -8 50 -8q57 0 103.5 42.5t78.5 154.5h140q-39 -218 -140 -327q-73 -80 -169 -80q-52 0 -117 16q-66 16 -197 67l-100 40q-74 29 -104 36q-31 8 -58 8q-56 0 -102 -43t-74 -152z
" />
    <glyph glyph-name="Adieresis" unicode="&#xc4;" horiz-adv-x="1479" 
d="M19 0l559 1422h323l562 -1422h-318l-119 325h-587l-121 -325h-299zM526 555h413l-206 583zM1063 1794v-237h-232v237h232zM414 1557v237h232v-237h-232z" />
    <glyph glyph-name="Aring" unicode="&#xc5;" horiz-adv-x="1479" 
d="M19 0l559 1422h323l562 -1422h-318l-119 325h-587l-121 -325h-299zM526 555h413l-206 583zM531 1680q0 88 62 149.5t148 61.5t148 -62t62 -150q0 -86 -62.5 -148t-149.5 -62q-85 0 -146.5 61.5t-61.5 149.5zM853 1678q0 49 -34 83.5t-81 34.5q-46 0 -79 -33.5t-33 -80.5
q0 -48 33.5 -83t76.5 -35q48 0 82.5 34t34.5 80z" />
    <glyph glyph-name="Ccedilla" unicode="&#xc7;" horiz-adv-x="1252" 
d="M846 -14l-82 -123q45 11 86 11q81 0 124.5 -40t43.5 -104q0 -77 -64.5 -131t-190.5 -54q-108 0 -207 43l40 87q28 -16 70.5 -27t71.5 -11q57 0 85.5 24.5t28.5 59.5q0 27 -24.5 47.5t-70.5 20.5q-45 0 -85 -19l-31 55l106 168q-305 37 -474 225t-169 487q0 328 202.5 529
t537.5 201q191 0 362 -60l-23 -244q-66 32 -157.5 50.5t-166.5 18.5q-127 0 -231 -60.5t-158.5 -173t-54.5 -248.5q0 -221 133 -356t348 -135q157 0 301 60l12 -254q-59 -19 -162.5 -34t-200.5 -13z" />
    <glyph glyph-name="Eacute" unicode="&#xc9;" 
d="M168 0v1415h841v-237h-552v-337h505v-232h-505v-372h557v-237h-846zM850 1808l-289 -296h-161l171 296h279z" />
    <glyph glyph-name="Ntilde" unicode="&#xd1;" horiz-adv-x="1479" 
d="M154 0v1422h346l562 -1090v1090h258v-1422h-348l-562 1090v-1090h-256zM997 1807h109q-12 -121 -75 -186t-154 -65q-45 0 -91 16l-126 45q-46 17 -79 17q-36 0 -60.5 -19.5t-40.5 -72.5h-104q10 74 46 133.5t87.5 88t103.5 28.5q26 0 49 -6q11 -2 95 -33q85 -32 102 -37
q29 -7 51 -7q33 0 56.5 23t30.5 75z" />
    <glyph glyph-name="Odieresis" unicode="&#xd6;" horiz-adv-x="1593" 
d="M102 718q0 160 47 298t135.5 233t199.5 143q141 61 317 61q204 0 358 -83t242 -260.5t88 -394.5t-85.5 -391t-247.5 -263.5t-364 -89.5q-198 0 -360.5 89.5t-246 259.5t-83.5 398zM797 194q156 0 257 121q127 149 127 397q0 169 -57.5 292.5t-143 176t-185.5 52.5
q-159 0 -260 -121q-125 -149 -125 -404q0 -164 52 -281t140.5 -175t194.5 -58zM1120 1794v-237h-232v237h232zM471 1557v237h232v-237h-232z" />
    <glyph glyph-name="Udieresis" unicode="&#xdc;" horiz-adv-x="1479" 
d="M159 1422h289v-837q0 -111 16 -173t53 -107.5t86 -72.5t136 -27q143 0 221 87t78 293v837h278v-837q0 -158 -23.5 -253t-65.5 -152.5t-109.5 -104t-146.5 -68.5q-112 -31 -240 -31q-127 0 -227.5 28.5t-167 78.5t-103.5 110t-59 163q-15 70 -15 253v813zM1064 1794v-237
h-232v237h232zM415 1557v237h232v-237h-232z" />
    <glyph glyph-name="aacute" unicode="&#xe1;" 
d="M770 0l-7 156q-35 -74 -127.5 -124.5t-206.5 -50.5q-99 0 -183 41t-129.5 117.5t-45.5 175.5q0 179 163 270q125 69 377 69q63 0 143 -7q1 19 1 29q0 99 -58 153.5t-178 54.5q-87 0 -176 -34t-151 -84l-7 237q53 27 160 50t211 23q133 0 225.5 -37t150.5 -112
q40 -53 54 -138.5t14 -250.5v-156l3 -154l4 -162l5 -66h-242zM756 481q-51 4 -69 4q-100 0 -183.5 -18t-121.5 -61.5t-38 -99.5q0 -60 43 -99t119 -39q67 0 130.5 39.5t91.5 102.5t28 171zM864 1498l-289 -296h-161l171 296h279z" />
    <glyph glyph-name="agrave" unicode="&#xe0;" 
d="M770 0l-7 156q-35 -74 -127.5 -124.5t-206.5 -50.5q-99 0 -183 41t-129.5 117.5t-45.5 175.5q0 179 163 270q125 69 377 69q63 0 143 -7q1 19 1 29q0 99 -58 153.5t-178 54.5q-87 0 -176 -34t-151 -84l-7 237q53 27 160 50t211 23q133 0 225.5 -37t150.5 -112
q40 -53 54 -138.5t14 -250.5v-156l3 -154l4 -162l5 -66h-242zM756 481q-51 4 -69 4q-100 0 -183.5 -18t-121.5 -61.5t-38 -99.5q0 -60 43 -99t119 -39q67 0 130.5 39.5t91.5 102.5t28 171zM272 1498h280l170 -296h-170z" />
    <glyph glyph-name="acircumflex" unicode="&#xe2;" 
d="M770 0l-7 156q-35 -74 -127.5 -124.5t-206.5 -50.5q-99 0 -183 41t-129.5 117.5t-45.5 175.5q0 179 163 270q125 69 377 69q63 0 143 -7q1 19 1 29q0 99 -58 153.5t-178 54.5q-87 0 -176 -34t-151 -84l-7 237q53 27 160 50t211 23q133 0 225.5 -37t150.5 -112
q40 -53 54 -138.5t14 -250.5v-156l3 -154l4 -162l5 -66h-242zM756 481q-51 4 -69 4q-100 0 -183.5 -18t-121.5 -61.5t-38 -99.5q0 -60 43 -99t119 -39q67 0 130.5 39.5t91.5 102.5t28 171zM469 1498h206l215 -296h-182l-140 173l-142 -173h-185z" />
    <glyph glyph-name="adieresis" unicode="&#xe4;" 
d="M770 0l-7 156q-35 -74 -127.5 -124.5t-206.5 -50.5q-99 0 -183 41t-129.5 117.5t-45.5 175.5q0 179 163 270q125 69 377 69q63 0 143 -7q1 19 1 29q0 99 -58 153.5t-178 54.5q-87 0 -176 -34t-151 -84l-7 237q53 27 160 50t211 23q133 0 225.5 -37t150.5 -112
q40 -53 54 -138.5t14 -250.5v-156l3 -154l4 -162l5 -66h-242zM756 481q-51 4 -69 4q-100 0 -183.5 -18t-121.5 -61.5t-38 -99.5q0 -60 43 -99t119 -39q67 0 130.5 39.5t91.5 102.5t28 171zM893 1484v-237h-232v237h232zM244 1247v237h232v-237h-232z" />
    <glyph glyph-name="atilde" unicode="&#xe3;" 
d="M770 0l-7 156q-35 -74 -127.5 -124.5t-206.5 -50.5q-99 0 -183 41t-129.5 117.5t-45.5 175.5q0 179 163 270q125 69 377 69q63 0 143 -7q1 19 1 29q0 99 -58 153.5t-178 54.5q-87 0 -176 -34t-151 -84l-7 237q53 27 160 50t211 23q133 0 225.5 -37t150.5 -112
q40 -53 54 -138.5t14 -250.5v-156l3 -154l4 -162l5 -66h-242zM756 481q-51 4 -69 4q-100 0 -183.5 -18t-121.5 -61.5t-38 -99.5q0 -60 43 -99t119 -39q67 0 130.5 39.5t91.5 102.5t28 171zM827 1498h109q-12 -121 -75 -186t-154 -65q-45 0 -91 16l-126 45q-46 17 -79 17
q-36 0 -60.5 -19.5t-40.5 -72.5h-104q10 74 46 133.5t87.5 88t103.5 28.5q26 0 49 -6q11 -2 95 -33q85 -32 102 -37q29 -7 51 -7q33 0 56.5 23t30.5 75z" />
    <glyph glyph-name="aring" unicode="&#xe5;" 
d="M770 0l-7 156q-35 -74 -127.5 -124.5t-206.5 -50.5q-99 0 -183 41t-129.5 117.5t-45.5 175.5q0 179 163 270q125 69 377 69q63 0 143 -7q1 19 1 29q0 99 -58 153.5t-178 54.5q-87 0 -176 -34t-151 -84l-7 237q53 27 160 50t211 23q133 0 225.5 -37t150.5 -112
q40 -53 54 -138.5t14 -250.5v-156l3 -154l4 -162l5 -66h-242zM756 481q-51 4 -69 4q-100 0 -183.5 -18t-121.5 -61.5t-38 -99.5q0 -60 43 -99t119 -39q67 0 130.5 39.5t91.5 102.5t28 171zM360 1370q0 88 62 149.5t148 61.5t148 -62t62 -150q0 -86 -62.5 -148t-149.5 -62
q-85 0 -146.5 61.5t-61.5 149.5zM682 1368q0 49 -34 83.5t-81 34.5q-46 0 -79 -33.5t-33 -80.5q0 -48 33.5 -83t76.5 -35q48 0 82.5 34t34.5 80z" />
    <glyph glyph-name="ccedilla" unicode="&#xe7;" horiz-adv-x="910" 
d="M605 -5l-88 -132q45 11 86 11q81 0 124.5 -40t43.5 -104q0 -77 -64.5 -131t-190.5 -54q-108 0 -207 43l40 87q28 -16 70.5 -27t71.5 -11q57 0 85.5 24.5t28.5 59.5q0 27 -24.5 47.5t-70.5 20.5q-45 0 -85 -19l-31 55l112 178q-207 34 -322 171.5t-115 353.5q0 160 66 282
t194.5 188t275.5 66q53 0 120.5 -9.5t113.5 -23.5l-23 -220q-68 36 -166 36q-127 0 -212 -88t-85 -226q0 -90 36.5 -164t105 -114t153.5 -40q48 0 103 14t95 34l12 -230q-112 -38 -253 -38z" />
    <glyph glyph-name="eacute" unicode="&#xe9;" 
d="M1060 443h-714q3 -71 43.5 -133.5t104.5 -93.5t157 -31q84 0 166 23.5t174 75.5l3 -225q-36 -27 -143.5 -55t-220.5 -28q-168 0 -292.5 62.5t-190.5 192.5t-66 300q0 168 63.5 297t184.5 194.5t267 65.5q156 0 267 -77.5t155.5 -210.5t44.5 -301q0 -19 -3 -56zM344 633
h462q-6 131 -67 196t-162 65q-94 0 -147 -57q-75 -78 -86 -204zM874 1498l-289 -296h-161l171 296h279z" />
    <glyph glyph-name="egrave" unicode="&#xe8;" 
d="M1060 443h-714q3 -71 43.5 -133.5t104.5 -93.5t157 -31q84 0 166 23.5t174 75.5l3 -225q-36 -27 -143.5 -55t-220.5 -28q-168 0 -292.5 62.5t-190.5 192.5t-66 300q0 168 63.5 297t184.5 194.5t267 65.5q156 0 267 -77.5t155.5 -210.5t44.5 -301q0 -19 -3 -56zM344 633
h462q-6 131 -67 196t-162 65q-94 0 -147 -57q-75 -78 -86 -204zM273 1498h280l170 -296h-170z" />
    <glyph glyph-name="ecircumflex" unicode="&#xea;" 
d="M1060 443h-714q3 -71 43.5 -133.5t104.5 -93.5t157 -31q84 0 166 23.5t174 75.5l3 -225q-36 -27 -143.5 -55t-220.5 -28q-168 0 -292.5 62.5t-190.5 192.5t-66 300q0 168 63.5 297t184.5 194.5t267 65.5q156 0 267 -77.5t155.5 -210.5t44.5 -301q0 -19 -3 -56zM344 633
h462q-6 131 -67 196t-162 65q-94 0 -147 -57q-75 -78 -86 -204zM494 1498h206l215 -296h-182l-140 173l-142 -173h-185z" />
    <glyph glyph-name="edieresis" unicode="&#xeb;" 
d="M1060 443h-714q3 -71 43.5 -133.5t104.5 -93.5t157 -31q84 0 166 23.5t174 75.5l3 -225q-36 -27 -143.5 -55t-220.5 -28q-168 0 -292.5 62.5t-190.5 192.5t-66 300q0 168 63.5 297t184.5 194.5t267 65.5q156 0 267 -77.5t155.5 -210.5t44.5 -301q0 -19 -3 -56zM344 633
h462q-6 131 -67 196t-162 65q-94 0 -147 -57q-75 -78 -86 -204zM917 1484v-237h-232v237h232zM268 1247v237h232v-237h-232z" />
    <glyph glyph-name="iacute" unicode="&#xed;" horiz-adv-x="569" 
d="M147 0v1055h275v-1055h-275zM580 1498l-289 -296h-161l171 296h279z" />
    <glyph glyph-name="igrave" unicode="&#xec;" horiz-adv-x="569" 
d="M147 0v1055h275v-1055h-275zM-11 1498h280l170 -296h-170z" />
    <glyph glyph-name="icircumflex" unicode="&#xee;" horiz-adv-x="569" 
d="M147 0v1055h275v-1055h-275zM185 1498h206l215 -296h-182l-140 173l-142 -173h-185z" />
    <glyph glyph-name="idieresis" unicode="&#xef;" horiz-adv-x="569" 
d="M147 0v1055h275v-1055h-275zM609 1484v-237h-232v237h232zM-40 1247v237h232v-237h-232z" />
    <glyph glyph-name="ntilde" unicode="&#xf1;" horiz-adv-x="1252" 
d="M396 1055l7 -161q113 178 341 178q86 0 154.5 -25t112.5 -68.5t66 -95.5t32 -147q4 -45 5 -238v-498h-273v529q0 172 -30 232q-46 90 -153 90q-67 0 -126 -38t-86 -108t-27 -205v-500h-275v847q0 109 -9 208h261zM884 1498h109q-12 -121 -75 -186t-154 -65q-45 0 -91 16
l-126 45q-46 17 -79 17q-36 0 -60.5 -19.5t-40.5 -72.5h-104q10 74 46 133.5t87.5 88t103.5 28.5q26 0 49 -6q11 -2 95 -33q85 -32 102 -37q29 -7 51 -7q33 0 56.5 23t30.5 75z" />
    <glyph glyph-name="oacute" unicode="&#xf3;" horiz-adv-x="1252" 
d="M1174 514q0 -95 -32 -193.5t-97.5 -173.5t-171 -125.5t-247.5 -50.5q-242 0 -396 154.5t-154 399.5q0 249 154 405t397 156q242 0 394.5 -156t152.5 -416zM365 531q0 -173 75 -262t183 -89q126 0 196 97t70 247q0 136 -67 246t-194 110q-57 0 -102 -22.5t-79 -65.5
t-54 -97q-28 -78 -28 -164zM922 1498l-289 -296h-161l171 296h279z" />
    <glyph glyph-name="ograve" unicode="&#xf2;" horiz-adv-x="1252" 
d="M1174 514q0 -95 -32 -193.5t-97.5 -173.5t-171 -125.5t-247.5 -50.5q-242 0 -396 154.5t-154 399.5q0 249 154 405t397 156q242 0 394.5 -156t152.5 -416zM365 531q0 -173 75 -262t183 -89q126 0 196 97t70 247q0 136 -67 246t-194 110q-57 0 -102 -22.5t-79 -65.5
t-54 -97q-28 -78 -28 -164zM329 1498h280l170 -296h-170z" />
    <glyph glyph-name="ocircumflex" unicode="&#xf4;" horiz-adv-x="1252" 
d="M1174 514q0 -95 -32 -193.5t-97.5 -173.5t-171 -125.5t-247.5 -50.5q-242 0 -396 154.5t-154 399.5q0 249 154 405t397 156q242 0 394.5 -156t152.5 -416zM365 531q0 -173 75 -262t183 -89q126 0 196 97t70 247q0 136 -67 246t-194 110q-57 0 -102 -22.5t-79 -65.5
t-54 -97q-28 -78 -28 -164zM526 1498h206l215 -296h-182l-140 173l-142 -173h-185z" />
    <glyph glyph-name="odieresis" unicode="&#xf6;" horiz-adv-x="1252" 
d="M1174 514q0 -95 -32 -193.5t-97.5 -173.5t-171 -125.5t-247.5 -50.5q-242 0 -396 154.5t-154 399.5q0 249 154 405t397 156q242 0 394.5 -156t152.5 -416zM365 531q0 -173 75 -262t183 -89q126 0 196 97t70 247q0 136 -67 246t-194 110q-57 0 -102 -22.5t-79 -65.5
t-54 -97q-28 -78 -28 -164zM950 1484v-237h-232v237h232zM301 1247v237h232v-237h-232z" />
    <glyph glyph-name="otilde" unicode="&#xf5;" horiz-adv-x="1252" 
d="M1174 514q0 -95 -32 -193.5t-97.5 -173.5t-171 -125.5t-247.5 -50.5q-242 0 -396 154.5t-154 399.5q0 249 154 405t397 156q242 0 394.5 -156t152.5 -416zM365 531q0 -173 75 -262t183 -89q126 0 196 97t70 247q0 136 -67 246t-194 110q-57 0 -102 -22.5t-79 -65.5
t-54 -97q-28 -78 -28 -164zM884 1498h109q-12 -121 -75 -186t-154 -65q-45 0 -91 16l-126 45q-46 17 -79 17q-36 0 -60.5 -19.5t-40.5 -72.5h-104q10 74 46 133.5t87.5 88t103.5 28.5q26 0 49 -6q11 -2 95 -33q85 -32 102 -37q29 -7 51 -7q33 0 56.5 23t30.5 75z" />
    <glyph glyph-name="uacute" unicode="&#xfa;" horiz-adv-x="1252" 
d="M145 1055h275v-519l2 -93q3 -109 36 -158q52 -76 149 -76q57 0 103 28.5t73.5 77.5t40.5 128q6 37 6 126v486h275v-645l7 -348l7 -62h-265l-7 161q-47 -79 -135.5 -127.5t-205.5 -48.5q-83 0 -149 23.5t-107.5 61.5t-63 83t-33.5 136q-8 61 -8 232v534zM922 1498
l-289 -296h-161l171 296h279z" />
    <glyph glyph-name="ugrave" unicode="&#xf9;" horiz-adv-x="1252" 
d="M145 1055h275v-519l2 -93q3 -109 36 -158q52 -76 149 -76q57 0 103 28.5t73.5 77.5t40.5 128q6 37 6 126v486h275v-645l7 -348l7 -62h-265l-7 161q-47 -79 -135.5 -127.5t-205.5 -48.5q-83 0 -149 23.5t-107.5 61.5t-63 83t-33.5 136q-8 61 -8 232v534zM329 1498h280
l170 -296h-170z" />
    <glyph glyph-name="ucircumflex" unicode="&#xfb;" horiz-adv-x="1252" 
d="M145 1055h275v-519l2 -93q3 -109 36 -158q52 -76 149 -76q57 0 103 28.5t73.5 77.5t40.5 128q6 37 6 126v486h275v-645l7 -348l7 -62h-265l-7 161q-47 -79 -135.5 -127.5t-205.5 -48.5q-83 0 -149 23.5t-107.5 61.5t-63 83t-33.5 136q-8 61 -8 232v534zM527 1498h206
l215 -296h-182l-140 173l-142 -173h-185z" />
    <glyph glyph-name="udieresis" unicode="&#xfc;" horiz-adv-x="1252" 
d="M145 1055h275v-519l2 -93q3 -109 36 -158q52 -76 149 -76q57 0 103 28.5t73.5 77.5t40.5 128q6 37 6 126v486h275v-645l7 -348l7 -62h-265l-7 161q-47 -79 -135.5 -127.5t-205.5 -48.5q-83 0 -149 23.5t-107.5 61.5t-63 83t-33.5 136q-8 61 -8 232v534zM950 1484v-237
h-232v237h232zM301 1247v237h232v-237h-232z" />
    <glyph glyph-name="dagger" unicode="&#x2020;" 
d="M126 875v218h318v329h251v-329h318v-218h-318v-875h-251v875h-318z" />
    <glyph glyph-name="degree" unicode="&#xb0;" horiz-adv-x="819" 
d="M409 1509q79 0 154 -40t117 -115.5t42 -156.5t-41.5 -155.5t-116 -115.5t-155.5 -41t-155.5 41t-115.5 115.5t-41 155.5q0 82 42 157t117 115t153 40zM409 1374q-74 0 -125.5 -51.5t-51.5 -124.5q0 -74 52 -126t125 -52q74 0 126 52.5t52 125.5t-52 124.5t-126 51.5z" />
    <glyph glyph-name="cent" unicode="&#xa2;" 
d="M766 1062l79 246h118l-83 -260q36 -6 74 -17l-24 -220q-68 25 -109 33l-187 -602q48 -26 129 -26q46 0 104.5 14.5t93.5 32.5l12 -230q-117 -38 -253 -38q-80 0 -158 19l-87 -277h-119l100 315q-73 38 -119 82q-66 63 -110 160.5t-44 233.5q0 111 34.5 211.5t108.5 174
t180.5 113t201.5 39.5q39 0 58 -4zM536 318l162 523q-102 -23 -166.5 -105.5t-64.5 -204.5q0 -65 21 -123.5t48 -89.5z" />
    <glyph glyph-name="sterling" unicode="&#xa3;" 
d="M111 0v216h178v452h-154v155h154q-2 42 -2 65q0 162 49 282.5t170 191t306 70.5q126 0 235 -33l-14 -230q-101 35 -193 35q-130 0 -198 -86.5t-68 -239.5q0 -18 2 -55h303v-155h-303v-452h457v-216h-922z" />
    <glyph glyph-name="section" unicode="&#xa7;" 
d="M166 -225l19 234q63 -31 162 -54.5t173 -23.5q75 0 122.5 18t69 50.5t21.5 68.5q0 37 -24.5 70.5t-65.5 51.5l-218 90q-142 58 -207.5 133.5t-65.5 183.5q0 161 145 259q-61 39 -98.5 100.5t-37.5 137.5q0 95 51 178t154 131t236 48q54 0 144.5 -11t180.5 -32l-21 -223
q-66 29 -150 44.5t-148 15.5q-101 0 -149.5 -39.5t-48.5 -92.5q0 -45 39 -88t146 -82l133 -47q96 -34 155.5 -77t92 -105t32.5 -135q0 -82 -41.5 -152t-108.5 -105q131 -86 131 -237q0 -90 -52.5 -180.5t-156 -140t-245.5 -49.5q-70 0 -168.5 14.5t-200.5 45.5zM723 396
q74 55 74 137q0 66 -46 107q-35 31 -158 81l-166 66q-33 -28 -53.5 -68.5t-20.5 -71.5q0 -45 35 -88t134 -83z" />
    <glyph glyph-name="bullet" unicode="&#x2022;" horiz-adv-x="1024" 
d="M512 1102q93 0 182 -48t138.5 -137t49.5 -185q0 -95 -49 -183.5t-137 -137.5t-184 -49q-97 0 -185 49.5t-137 137t-49 183.5q0 97 50 185.5t139 136.5t182 48z" />
    <glyph glyph-name="paragraph" unicode="&#xb6;" horiz-adv-x="1271" 
d="M1173 1317h-104v-1682h-185v1682h-223v-1682h-184v880q-116 2 -216.5 57.5t-154 161.5t-53.5 236q0 220 143 357t394 137h583v-147z" />
    <glyph glyph-name="germandbls" unicode="&#xdf;" horiz-adv-x="1252" 
d="M145 0v991q0 187 59 308t181 187.5t272 66.5q130 0 235.5 -50t160.5 -141.5t55 -201.5q0 -131 -70 -220t-196 -120q160 -30 247 -132.5t87 -252.5q0 -120 -56 -229.5t-170.5 -165t-258.5 -55.5q-93 0 -160 22l7 216q17 -7 52 -13t65 -6q109 0 176.5 70t67.5 184
q0 112 -73 181.5t-211 69.5q-16 0 -34 -3v207q13 -3 29 -3q68 0 118.5 24t78.5 79.5t28 127.5q0 98 -54 155.5t-136 57.5q-87 0 -153 -77t-70 -229l-2 -114v-934h-275z" />
    <glyph glyph-name="registered" unicode="&#xae;" horiz-adv-x="1638" 
d="M836 1509q196 0 382 -100t290 -286.5t104 -389.5q0 -127 -39 -243q-39 -117 -106 -210q-68 -93 -163 -166q-95 -74 -216.5 -115.5t-248.5 -41.5q-129 0 -246.5 41t-209.5 109q-93 69 -165 164q-72 96 -112 216.5t-40 245.5q0 203 104.5 389.5t290 286.5t375.5 100z
M836 1411q-165 0 -327 -87.5t-253.5 -250.5t-91.5 -340q0 -110 35 -215t98 -188q63 -84 144 -144t183 -95q103 -36 215 -36q152 0 291 67q101 48 185 131t141.5 207.5t57.5 272.5q0 176 -91 339.5t-253.5 251t-333.5 87.5zM529 1163h291q125 0 185 -16q82 -22 130.5 -80
t48.5 -148q0 -88 -52.5 -145.5t-153.5 -68.5q65 -9 112 -47t64 -88q18 -50 19 -141q2 -64 5 -84t10 -38h-148q-10 28 -12 85q-4 104 -12 140t-35 64t-66 39.5t-123 11.5h-116v-340h-147v856zM676 758h136q124 0 174.5 41.5t50.5 110.5q0 76 -55 109.5t-173 33.5h-133v-295z
" />
    <glyph glyph-name="copyright" unicode="&#xa9;" horiz-adv-x="1639" 
d="M819 1509q195 0 381.5 -100t290.5 -286.5t104 -388.5q0 -128 -39 -244q-39 -117 -107 -210q-68 -94 -163 -167q-95 -74 -217 -115t-250 -41q-169 0 -311 65t-237.5 162t-150.5 214q-77 159 -77 336q0 202 104.5 388.5t290.5 286.5t381 100zM819 1411q-171 0 -333.5 -87.5
t-253.5 -250.5t-91 -339q0 -154 67 -293q48 -102 131 -187t207.5 -142t272.5 -57q110 0 215 35t188 98q84 63 144 144q60 82 95 185q36 103 36 217q0 158 -72 303q-48 97 -128 178q-80 82 -207 139t-271 57zM1201 588q-13 -111 -91 -196q-103 -111 -270 -111
q-179 0 -302 127.5t-123 327.5q0 126 52.5 234t147 165t208.5 57q156 0 260 -92t114 -226h-135q-16 90 -78.5 142.5t-151.5 52.5q-108 0 -182.5 -85.5t-74.5 -241.5q0 -104 36 -183t98.5 -117.5t135.5 -38.5q86 0 144.5 48.5t76.5 136.5h135z" />
    <glyph glyph-name="trademark" unicode="&#x2122;" horiz-adv-x="2048" 
d="M474 742v612h-234v110h610v-110h-229v-613zM979 741v723h207l180 -503l181 503h207v-723h-123v597l-210 -597h-110l-209 597v-597h-123z" />
    <glyph glyph-name="acute" unicode="&#xb4;" horiz-adv-x="569" 
d="M509 1498l-289 -296h-161l171 296h279z" />
    <glyph glyph-name="dieresis" unicode="&#xa8;" horiz-adv-x="569" 
d="M609 1484v-237h-232v237h232zM-40 1247v237h232v-237h-232z" />
    <glyph glyph-name="notequal" unicode="&#x2260;" horiz-adv-x="1230" 
d="M900 858h246v-209h-352l-124 -237h476v-209h-582l-157 -305l-186 90l112 215h-248v209h353l124 237h-477v209h582l157 304l186 -94z" />
    <glyph glyph-name="AE" unicode="&#xc6;" horiz-adv-x="1934" 
d="M1804 1417v-239h-548l31 -334h476v-235h-457l35 -370h479v-239h-751l-26 325h-548l-175 -325h-306l780 1417h1010zM618 555h406l-52 666z" />
    <glyph glyph-name="Oslash" unicode="&#xd8;" horiz-adv-x="1593" 
d="M292 165q-91 94 -140.5 236t-49.5 314q0 185 60 338q44 111 124.5 198.5t181.5 134.5q140 67 326 67q117 0 224 -28t186 -82l109 141l93 -76l-111 -143q96 -105 145 -247.5t49 -301.5q0 -219 -86 -392.5t-248 -263t-360 -89.5q-233 0 -411 118l-121 -155l-92 75zM473 399
l567 732q-98 102 -246 102q-181 0 -283.5 -153.5t-102.5 -376.5q0 -87 17.5 -167.5t47.5 -136.5zM1112 1028l-567 -731q46 -47 115 -75t141 -28q152 0 254 122q126 149 126 397q0 177 -69 315z" />
    <glyph glyph-name="infinity" unicode="&#x221e;" horiz-adv-x="1625" 
d="M813 641q80 90 136 138q57 48 123 76t136 28q87 0 166.5 -44t121 -123.5t41.5 -182.5q0 -161 -93.5 -258t-237.5 -97q-94 0 -183.5 48t-209.5 179q-91 -93 -134 -127q-68 -53 -128.5 -76.5t-130.5 -23.5q-144 0 -238.5 97t-94.5 254q0 159 93 255.5t235 96.5
q94 0 183.5 -50t214.5 -190zM920 524q46 -50 98.5 -93t97.5 -62t90 -19q69 0 114 47.5t45 130.5q0 84 -46.5 133.5t-117.5 49.5q-50 0 -114 -37t-167 -150zM704 525q-106 109 -171 146.5t-117 37.5q-64 0 -110.5 -50.5t-46.5 -131.5q0 -82 45.5 -129.5t118.5 -47.5
q60 0 129.5 42t151.5 133z" />
    <glyph glyph-name="plusminus" unicode="&#xb1;" horiz-adv-x="1229" 
d="M510 268v293h-426v197h426v303h209v-303h426v-197h-426v-293h-209zM84 0v197h1061v-197h-1061z" />
    <glyph glyph-name="lessequal" unicode="&#x2264;" horiz-adv-x="1230" 
d="M85 634v199l1061 359v-208l-793 -251l793 -260v-209zM1146 197v-197h-1061v197h1061z" />
    <glyph glyph-name="greaterequal" unicode="&#x2265;" horiz-adv-x="1230" 
d="M1146 822v-199l-1061 -359v209l792 251l-792 260v208zM1146 197v-197h-1061v197h1061z" />
    <glyph glyph-name="yen" unicode="&#xa5;" 
d="M1164 1416l-353 -665h210v-151h-290l-15 -28v-113h305v-150h-305v-309h-290v309h-304v150h304v104l-19 37h-285v151h205l-353 665h311l211 -408q21 -41 29 -59l54 -120q42 98 84 179l213 408h288z" />
    <glyph glyph-name="mu" unicode="&#xb5;" horiz-adv-x="1252" 
d="M1102 1037v-629q0 -260 12 -408h-259l-7 153q-55 -99 -132 -148q-51 -32 -129 -32q-107 0 -176 65q6 -179 6 -184v-272h-274v1455h274v-489q0 -163 13 -220q14 -57 60 -91.5t116 -34.5q80 0 131.5 44.5t70.5 111.5q20 67 20 212v467h274z" />
    <glyph glyph-name="partialdiff" unicode="&#x2202;" horiz-adv-x="1015" 
d="M226 1497q168 -38 307.5 -115.5t234.5 -197t142.5 -278t47.5 -347.5q0 -300 -124.5 -441t-332.5 -141q-186 0 -299 105q-143 132 -143 399q0 142 39 244t101.5 156.5t141.5 78.5t143 24q117 0 218 -87q-43 103 -91 162q-78 99 -202.5 172t-292.5 109zM759 486
q0 166 -70 245.5t-184 79.5q-113 0 -181 -80t-68 -256q0 -159 68.5 -236t179.5 -77q75 0 134 37t90 114.5t31 172.5z" />
    <glyph glyph-name="summation" unicode="&#x2211;" horiz-adv-x="1153" 
d="M1080 1464v-196h-732l457 -522l-487 -549h787v-197h-1057v174l502 569l-477 538v183h1007z" />
    <glyph glyph-name="product" unicode="&#x220f;" horiz-adv-x="1368" 
d="M1245 1464v-1464h-209v1255h-704v-1255h-209v1464h1122z" />
    <glyph glyph-name="pi" unicode="&#x3c0;" horiz-adv-x="1187" 
d="M1145 995v-196h-160v-501q0 -67 3 -85q4 -27 23.5 -45.5t55.5 -18.5q35 0 84 14v-149q-62 -23 -93 -30t-70 -7q-74 0 -121.5 32t-65.5 86q-13 40 -13 143v561h-448v-799h-197v799h-141v196h1143z" />
    <glyph glyph-name="integral" unicode="&#x222b;" horiz-adv-x="1213" 
d="M738 1272l-60 -1129q-10 -185 -24 -262q-21 -116 -69 -191.5t-118.5 -118t-151.5 -42.5q-79 0 -123.5 39.5t-44.5 96.5q0 46 28.5 75t73.5 29q36 0 62 -23t38 -73q5 -19 12 -26t15 -7q32 0 53.5 60.5t30.5 236.5l67 1184q10 195 36 286q26 92 74.5 155.5t108.5 96.5
t140 33q78 0 123 -40t45 -96q0 -43 -28.5 -71.5t-73.5 -28.5q-35 0 -58.5 18.5t-39.5 65.5q-9 27 -18 37q-5 5 -11 5q-21 0 -40 -32q-36 -64 -47 -278z" />
    <glyph glyph-name="ordfeminine" unicode="&#xaa;" horiz-adv-x="739" 
d="M501 799l-5 94q-23 -44 -83 -74.5t-134 -30.5q-108 0 -170.5 57t-62.5 143q0 104 91 154t260 50q41 0 93 -5v18q0 58 -37 91.5t-116 33.5q-57 0 -115 -21t-97 -51l-5 143q36 17 105 30.5t138 13.5q98 0 158 -27.5t87 -65.5t34 -82.5t8 -118.5q3 -299 8 -352h-157z
M491 1088q-31 2 -45 2q-130 0 -185 -37q-38 -26 -38 -70q0 -35 27.5 -59t78.5 -24q44 0 85.5 24.5t59 61.5t17.5 102z" />
    <glyph glyph-name="ordmasculine" unicode="&#xba;" horiz-adv-x="812" 
d="M762 1102q0 -86 -41.5 -163t-125 -120t-189.5 -43q-161 0 -259 94.5t-98 238.5q0 146 98 241t260 95q161 0 258 -95t97 -248zM237 1112q0 -102 48 -156.5t120 -54.5q76 0 124.5 54.5t48.5 151.5q0 99 -49.5 156.5t-120.5 57.5t-121 -56t-50 -153z" />
    <glyph glyph-name="Omega" unicode="&#x2126;" horiz-adv-x="1576" 
d="M1486 184v-184h-578v204q93 34 173 118.5t119.5 193.5t39.5 256q0 171 -54 289t-159.5 178.5t-240.5 60.5t-240 -63t-158 -181t-53 -282q0 -205 89.5 -355.5t242.5 -214.5v-204h-582v184h356q-152 92 -239.5 248t-87.5 371q0 212 86.5 372t237.5 241t349 81
q304 0 489 -188t185 -503q0 -162 -49.5 -290.5t-132.5 -216.5q-58 -63 -150 -115h357z" />
    <glyph glyph-name="ae" unicode="&#xe6;" horiz-adv-x="1820" 
d="M1659 287l3 -230q-65 -32 -160.5 -53t-193.5 -21q-130 0 -212 29.5t-140 83.5q-40 37 -65 91q-27 -53 -61 -88t-91 -63t-122.5 -42.5t-128.5 -14.5q-119 0 -218 45.5t-145.5 123t-46.5 169.5q0 70 27.5 129t70 95t88 56.5t114.5 34.5q106 23 242 23q80 0 164 -10
q1 14 1 22q0 102 -59.5 158.5t-183.5 56.5q-98 0 -177 -24t-164 -78l-7 213q51 31 165 58.5t211 27.5t176 -24t124 -62q34 -28 61 -83q49 82 120 123q98 55 238 55q98 0 177 -29.5t134 -84t87.5 -122.5t49 -165t15.5 -241h-707q8 -88 48 -145.5t110.5 -85.5t148.5 -28
q74 0 164.5 30.5t142.5 69.5zM1043 635h436q-1 76 -31 139t-78.5 91.5t-101.5 28.5q-82 0 -147 -66t-78 -193zM784 476l-113 5q-28 1 -44 1q-133 0 -201 -53t-68 -117q0 -61 45.5 -103.5t122.5 -42.5q71 0 136 39t93 100.5t29 170.5z" />
    <glyph glyph-name="oslash" unicode="&#xf8;" horiz-adv-x="1252" 
d="M1023 928q75 -77 113 -182.5t38 -222.5q0 -121 -39 -222.5t-105.5 -169.5t-148.5 -106q-115 -54 -255 -54q-183 0 -322 93l-114 -137l-83 66l116 140q-147 156 -147 392q0 247 155.5 404t396.5 157q177 0 314 -90l108 130l83 -66zM398 343l391 469q-65 68 -161 68
q-108 0 -185.5 -92.5t-77.5 -262.5q0 -103 33 -182zM849 719l-391 -471q62 -68 165 -68q126 0 196 97t70 247q0 104 -40 195z" />
    <glyph glyph-name="questiondown" unicode="&#xbf;" horiz-adv-x="1024" 
d="M678 1055v-270h-284v270h284zM911 -78l23 -240q-205 -68 -397 -68q-173 0 -273 49t-151 134.5t-51 175.5q0 75 30.5 143.5t107.5 156.5l144 166q31 35 49.5 89t18.5 104q0 8 -2 22h249q1 -17 1 -27q0 -44 -9 -99.5t-29 -102t-46 -77.5l-144 -170q-69 -82 -69 -164
q0 -75 59 -126.5t167 -51.5q68 0 160.5 24t161.5 62z" />
    <glyph glyph-name="exclamdown" unicode="&#xa1;" horiz-adv-x="796" 
d="M543 1055v-273h-282v273h282zM517 642l42 -1009h-322l50 1009h230z" />
    <glyph glyph-name="logicalnot" unicode="&#xac;" horiz-adv-x="1229" 
d="M84 649v209h1061v-655h-209v446h-852z" />
    <glyph glyph-name="radical" unicode="&#x221a;" horiz-adv-x="1086" 
d="M1104 1729l-416 -1799h-188l-315 663l-98 -46l-74 151l290 131l269 -614l328 1514h204z" />
    <glyph glyph-name="florin" unicode="&#x192;" 
d="M17 -403l40 202q40 -11 91 -11q74 0 109 37q36 37 68 196l131 655h-233l31 170h235q47 280 83.5 378t101.5 156q46 40 117 63.5t160 23.5q38 0 90 -6t81 -13l-38 -218q-48 15 -98 15q-72 0 -113 -43t-71 -199l-31 -157h246l-26 -170h-253l-126 -657l-26 -119
q-35 -160 -135.5 -242t-257.5 -82q-43 0 -97 7t-79 14z" />
    <glyph glyph-name="approxequal" unicode="&#x2248;" horiz-adv-x="1229" 
d="M1162 903q-16 -169 -94.5 -251.5t-181.5 -82.5q-39 0 -81 10q-75 17 -309 89q-111 35 -150 35q-53 0 -94 -37t-51 -101h-133q11 104 47 178.5t97.5 115t126.5 40.5q42 0 83 -9q54 -12 261 -76q109 -34 143 -41t61 -7q51 0 90 34.5t53 102.5h132zM1162 498
q-16 -169 -94.5 -251.5t-181.5 -82.5q-39 0 -79 9q-85 20 -311 90q-110 35 -149 35q-55 0 -95.5 -37t-50.5 -101h-133q11 102 41 165q39 84 101.5 126.5t132.5 42.5q40 0 79 -9q62 -14 261 -76q106 -33 142 -41q37 -8 64 -8q49 0 88.5 35t52.5 103h132z" />
    <glyph glyph-name="Delta" unicode="&#x2206;" horiz-adv-x="1395" 
d="M798 1464l577 -1464h-1356l553 1464h226zM683 1209l-380 -1012h780z" />
    <glyph glyph-name="guillemotleft" unicode="&#xab;" 
d="M837 529l220 -420h-254l-241 420l241 419h254zM97 529l242 419h256l-223 -419l223 -420h-256z" />
    <glyph glyph-name="guillemotright" unicode="&#xbb;" 
d="M298 529l-220 419h254l241 -419l-241 -420h-254zM1038 529l-242 -420h-256l223 420l-223 419h256z" />
    <glyph glyph-name="ellipsis" unicode="&#x2026;" horiz-adv-x="2048" 
d="M207 0v297h270v-297h-270zM889 0v297h270v-297h-270zM1571 0v297h270v-297h-270z" />
    <glyph glyph-name="nonbreakingspace" unicode="&#xa0;" 
 />
    <glyph glyph-name="Agrave" unicode="&#xc0;" horiz-adv-x="1479" 
d="M19 0l559 1422h323l562 -1422h-318l-119 325h-587l-121 -325h-299zM526 555h413l-206 583zM457 1808h280l170 -296h-170z" />
    <glyph glyph-name="Atilde" unicode="&#xc3;" horiz-adv-x="1479" 
d="M19 0l559 1422h323l562 -1422h-318l-119 325h-587l-121 -325h-299zM526 555h413l-206 583zM998 1807h109q-12 -121 -75 -186t-154 -65q-45 0 -91 16l-126 45q-46 17 -79 17q-36 0 -60.5 -19.5t-40.5 -72.5h-104q10 74 46 133.5t87.5 88t103.5 28.5q26 0 49 -6
q11 -2 95 -33q85 -32 102 -37q29 -7 51 -7q33 0 56.5 23t30.5 75z" />
    <glyph glyph-name="Otilde" unicode="&#xd5;" horiz-adv-x="1593" 
d="M102 718q0 160 47 298t135.5 233t199.5 143q141 61 317 61q204 0 358 -83t242 -260.5t88 -394.5t-85.5 -391t-247.5 -263.5t-364 -89.5q-198 0 -360.5 89.5t-246 259.5t-83.5 398zM797 194q156 0 257 121q127 149 127 397q0 169 -57.5 292.5t-143 176t-185.5 52.5
q-159 0 -260 -121q-125 -149 -125 -404q0 -164 52 -281t140.5 -175t194.5 -58zM1054 1808h109q-12 -121 -75 -186t-154 -65q-45 0 -91 16l-126 45q-46 17 -79 17q-36 0 -60.5 -19.5t-40.5 -72.5h-104q10 74 46 133.5t87.5 88t103.5 28.5q26 0 49 -6q11 -2 95 -33
q85 -32 102 -37q29 -7 51 -7q33 0 56.5 23t30.5 75z" />
    <glyph glyph-name="OE" unicode="&#x152;" horiz-adv-x="1934" 
d="M1816 1415v-237h-536v-337h490v-232h-490v-374h545v-235h-417l-503 -5q-165 -1 -286.5 24t-221.5 85t-168.5 153.5t-100 209.5t-31.5 241q0 147 40 271.5t110 210.5t151 131.5t217 77.5q105 25 245 23l553 -7h403zM993 223v962q-71 10 -126 10q-93 0 -154 -18
q-95 -27 -169 -93.5t-112.5 -165t-38.5 -211.5q0 -155 67 -269.5t186 -168.5t247 -54q54 0 100 8z" />
    <glyph glyph-name="oe" unicode="&#x153;" horiz-adv-x="1934" 
d="M1778 282l7 -225q-162 -83 -363 -83q-98 0 -164 17.5t-117 50.5t-77 61q-17 17 -35 49q-61 -87 -137 -126q-101 -52 -250 -52q-168 0 -297.5 69t-196.5 199t-67 285q0 159 69.5 289t196.5 200t282 70q138 0 232.5 -49t155.5 -132q66 90 161 135.5t213 45.5q123 0 227 -49
t163.5 -138.5t84.5 -233.5q14 -83 14 -224h-711q0 -116 77.5 -188.5t222.5 -72.5q86 0 168.5 29.5t140.5 72.5zM1169 631h429q-2 125 -68 200q-50 58 -142 58q-90 0 -154.5 -71.5t-64.5 -186.5zM896 526q0 98 -33 185t-94.5 129t-131.5 42q-109 0 -189 -92t-80 -260
q0 -176 75.5 -265.5t189.5 -89.5q131 0 197 104t66 247z" />
    <glyph glyph-name="endash" unicode="&#x2013;" horiz-adv-x="1024" 
d="M-7 647h1038v-185h-1038v185z" />
    <glyph glyph-name="emdash" unicode="&#x2014;" horiz-adv-x="2048" 
d="M0 647h2048v-185h-2048v185z" />
    <glyph glyph-name="quotedblleft" unicode="&#x201c;" horiz-adv-x="986" 
d="M273 1422h239l-130 -512h-294zM688 1422h239l-130 -512h-294z" />
    <glyph glyph-name="quotedblright" unicode="&#x201d;" horiz-adv-x="986" 
d="M320 910h-239l130 512h294zM735 910h-239l130 512h294z" />
    <glyph glyph-name="quoteleft" unicode="&#x2018;" horiz-adv-x="569" 
d="M263 1422h242l-126 -512h-296z" />
    <glyph glyph-name="quoteright" unicode="&#x2019;" horiz-adv-x="569" 
d="M208 1422h297l-185 -512h-242z" />
    <glyph glyph-name="divide" unicode="&#xf7;" horiz-adv-x="1229" 
d="M479 770v270h271v-270h-271zM84 426v209h1061v-209h-1061zM479 25v270h271v-270h-271z" />
    <glyph glyph-name="lozenge" unicode="&#x25ca;" horiz-adv-x="1229" 
d="M706 1528l361 -801l-361 -799h-186l-357 799l358 801h185zM615 1325l-251 -598l251 -598l249 598z" />
    <glyph glyph-name="ydieresis" unicode="&#xff;" 
d="M839 1055h280l-424 -1128l-50 -114q-34 -79 -80.5 -132.5t-122 -88.5t-160.5 -35q-33 0 -102 8q-48 6 -90 20l19 204q67 -20 133 -20t120 48t72 128l-410 1110h303l256 -775zM893 1484v-237h-232v237h232zM244 1247v237h232v-237h-232z" />
    <glyph glyph-name="Ydieresis" unicode="&#x178;" horiz-adv-x="1365" 
d="M825 0h-289v569l-519 853h337l336 -592l344 592h303l-512 -853v-569zM1007 1794v-237h-232v237h232zM358 1557v237h232v-237h-232z" />
    <glyph glyph-name="fraction" unicode="&#x2215;" horiz-adv-x="341" 
d="M-173 -43h-168l856 1539h168z" />
    <glyph glyph-name="currency" unicode="&#xa4;" horiz-adv-x="1139" 
d="M71 351l141 139q-46 65 -64.5 119t-18.5 124q0 69 18.5 124t64.5 125l-141 135l115 115l138 -138q66 44 120 62t124 18q71 0 125 -18.5t120 -64.5l139 141l115 -115l-141 -140q45 -61 61 -108q21 -61 21 -134q0 -72 -18 -126t-64 -119l141 -139l-115 -115l-138 138
q-66 -44 -120 -61.5t-125 -17.5t-125 18t-120 64l-139 -141zM570 1002q-68 0 -132.5 -35t-100.5 -99t-36 -133q0 -111 78.5 -189.5t189.5 -78.5t189 78.5t78 189.5q0 69 -36 133t-100 99t-130 35z" />
    <glyph glyph-name="guilsinglleft" unicode="&#x2039;" horiz-adv-x="683" 
d="M100 529l242 419h258l-225 -419l225 -420h-258z" />
    <glyph glyph-name="guilsinglright" unicode="&#x203a;" horiz-adv-x="683" 
d="M583 529l-242 -420h-258l225 420l-225 419h258z" />
    <glyph glyph-name="fi" unicode="&#xfb01;" horiz-adv-x="1365" 
d="M778 1524l-22 -225q-48 24 -104 24q-80 0 -105 -52t-30 -221h239v-206h-239v-844h-275v844h-204v206h204q3 202 37 297t113.5 147t217.5 52q93 0 168 -22zM929 1247v258h280v-258h-280zM934 0v1055h273v-1055h-273z" />
    <glyph glyph-name="fl" unicode="&#xfb02;" horiz-adv-x="1365" 
d="M778 1524l-22 -225q-48 24 -104 24q-80 0 -105 -52t-30 -221h239v-206h-239v-844h-275v844h-204v206h204q3 202 37 297t113.5 147t217.5 52q93 0 168 -22zM934 1529h273v-1529h-273v1529z" />
    <glyph glyph-name="daggerdbl" unicode="&#x2021;" 
d="M126 334v218h318v323h-318v218h318v329h251v-329h318v-218h-318v-323h318v-218h-318v-334h-251v334h-318z" />
    <glyph glyph-name="periodcentered" unicode="&#x2219;" horiz-adv-x="569" 
d="M285 686q63 0 107 -44.5t44 -107.5q0 -64 -44.5 -108.5t-106.5 -44.5q-63 0 -107.5 44.5t-44.5 108.5q0 63 44 107.5t108 44.5z" />
    <glyph glyph-name="quotesinglbase" unicode="&#x201a;" horiz-adv-x="569" 
d="M208 284h297l-185 -512h-242z" />
    <glyph glyph-name="quotedblbase" unicode="&#x201e;" horiz-adv-x="986" 
d="M737 -228h-239l130 512h294zM322 -228h-239l130 512h294z" />
    <glyph glyph-name="perthousand" unicode="&#x2030;" horiz-adv-x="2048" 
d="M1194 1498l-879 -1538h-168l879 1538h168zM302 1477q81 0 146 -33t102.5 -109t37.5 -204q0 -191 -77 -277t-210 -86q-81 0 -147.5 35t-103 114t-36.5 207q0 135 36.5 208.5t103 109t148.5 35.5zM301 922q28 0 48.5 15.5t29.5 56.5q12 53 12 134q0 122 -28 163
q-19 29 -59 29q-48 0 -70 -51t-22 -170q0 -107 25 -142t64 -35zM1051 687q81 0 145.5 -33t102.5 -108.5t38 -204.5q0 -190 -77 -276t-210 -86q-82 0 -148 35t-102.5 114t-36.5 207q0 134 36 207.5t103 109t149 35.5zM1050 133q28 0 48.5 15.5t29.5 55.5q12 54 12 135
q0 121 -28 163q-19 29 -59 29q-48 0 -70 -51t-22 -171q0 -106 25 -141t64 -35zM1740 687q82 0 146.5 -33t102.5 -108.5t38 -203.5q0 -191 -77 -277t-210 -86q-81 0 -147.5 35t-103 113.5t-36.5 207.5q0 134 36 207.5t102.5 109t148.5 35.5zM1740 133q28 0 48.5 15.5
t29.5 55.5q12 53 12 134q0 122 -28 164q-20 29 -59 29q-48 0 -70 -51t-22 -171q0 -106 25 -141t64 -35z" />
    <glyph glyph-name="Acircumflex" unicode="&#xc2;" horiz-adv-x="1479" 
d="M19 0l559 1422h323l562 -1422h-318l-119 325h-587l-121 -325h-299zM526 555h413l-206 583zM640 1808h206l215 -296h-182l-140 173l-142 -173h-185z" />
    <glyph glyph-name="Ecircumflex" unicode="&#xca;" 
d="M168 0v1415h841v-237h-552v-337h505v-232h-505v-372h557v-237h-846zM469 1808h206l215 -296h-182l-140 173l-142 -173h-185z" />
    <glyph glyph-name="Aacute" unicode="&#xc1;" horiz-adv-x="1479" 
d="M19 0l559 1422h323l562 -1422h-318l-119 325h-587l-121 -325h-299zM526 555h413l-206 583zM1021 1808l-289 -296h-161l171 296h279z" />
    <glyph glyph-name="Edieresis" unicode="&#xcb;" 
d="M168 0v1415h841v-237h-552v-337h505v-232h-505v-372h557v-237h-846zM892 1794v-237h-232v237h232zM243 1557v237h232v-237h-232z" />
    <glyph glyph-name="Egrave" unicode="&#xc8;" 
d="M168 0v1415h841v-237h-552v-337h505v-232h-505v-372h557v-237h-846zM286 1808h280l170 -296h-170z" />
    <glyph glyph-name="Iacute" unicode="&#xcd;" horiz-adv-x="569" 
d="M140 0v1422h289v-1422h-289zM566 1808l-289 -296h-161l171 296h279z" />
    <glyph glyph-name="Icircumflex" unicode="&#xce;" horiz-adv-x="569" 
d="M140 0v1422h289v-1422h-289zM185 1808h206l215 -296h-182l-140 173l-142 -173h-185z" />
    <glyph glyph-name="Idieresis" unicode="&#xcf;" horiz-adv-x="569" 
d="M140 0v1422h289v-1422h-289zM609 1794v-237h-232v237h232zM-40 1557v237h232v-237h-232z" />
    <glyph glyph-name="Igrave" unicode="&#xcc;" horiz-adv-x="569" 
d="M140 0v1422h289v-1422h-289zM3 1808h280l170 -296h-170z" />
    <glyph glyph-name="Oacute" unicode="&#xd3;" horiz-adv-x="1593" 
d="M102 718q0 160 47 298t135.5 233t199.5 143q141 61 317 61q204 0 358 -83t242 -260.5t88 -394.5t-85.5 -391t-247.5 -263.5t-364 -89.5q-198 0 -360.5 89.5t-246 259.5t-83.5 398zM797 194q156 0 257 121q127 149 127 397q0 169 -57.5 292.5t-143 176t-185.5 52.5
q-159 0 -260 -121q-125 -149 -125 -404q0 -164 52 -281t140.5 -175t194.5 -58zM1078 1808l-289 -296h-161l171 296h279z" />
    <glyph glyph-name="Ocircumflex" unicode="&#xd4;" horiz-adv-x="1593" 
d="M102 718q0 160 47 298t135.5 233t199.5 143q141 61 317 61q204 0 358 -83t242 -260.5t88 -394.5t-85.5 -391t-247.5 -263.5t-364 -89.5q-198 0 -360.5 89.5t-246 259.5t-83.5 398zM797 194q156 0 257 121q127 149 127 397q0 169 -57.5 292.5t-143 176t-185.5 52.5
q-159 0 -260 -121q-125 -149 -125 -404q0 -164 52 -281t140.5 -175t194.5 -58zM697 1808h206l215 -296h-182l-140 173l-142 -173h-185z" />
    <glyph glyph-name="frame" horiz-adv-x="1536" 
d="M256 0v1280h1024v-1280h-1024zM288 32h960v1216h-960v-1216z" />
    <glyph glyph-name="Ograve" unicode="&#xd2;" horiz-adv-x="1593" 
d="M102 718q0 160 47 298t135.5 233t199.5 143q141 61 317 61q204 0 358 -83t242 -260.5t88 -394.5t-85.5 -391t-247.5 -263.5t-364 -89.5q-198 0 -360.5 89.5t-246 259.5t-83.5 398zM797 194q156 0 257 121q127 149 127 397q0 169 -57.5 292.5t-143 176t-185.5 52.5
q-159 0 -260 -121q-125 -149 -125 -404q0 -164 52 -281t140.5 -175t194.5 -58zM514 1808h280l170 -296h-170z" />
    <glyph glyph-name="Uacute" unicode="&#xda;" horiz-adv-x="1479" 
d="M159 1422h289v-837q0 -111 16 -173t53 -107.5t86 -72.5t136 -27q143 0 221 87t78 293v837h278v-837q0 -158 -23.5 -253t-65.5 -152.5t-109.5 -104t-146.5 -68.5q-112 -31 -240 -31q-127 0 -227.5 28.5t-167 78.5t-103.5 110t-59 163q-15 70 -15 253v813zM1021 1808
l-289 -296h-161l171 296h279z" />
    <glyph glyph-name="Ucircumflex" unicode="&#xdb;" horiz-adv-x="1479" 
d="M159 1422h289v-837q0 -111 16 -173t53 -107.5t86 -72.5t136 -27q143 0 221 87t78 293v837h278v-837q0 -158 -23.5 -253t-65.5 -152.5t-109.5 -104t-146.5 -68.5q-112 -31 -240 -31q-127 0 -227.5 28.5t-167 78.5t-103.5 110t-59 163q-15 70 -15 253v813zM640 1808h206
l215 -296h-182l-140 173l-142 -173h-185z" />
    <glyph glyph-name="Ugrave" unicode="&#xd9;" horiz-adv-x="1479" 
d="M159 1422h289v-837q0 -111 16 -173t53 -107.5t86 -72.5t136 -27q143 0 221 87t78 293v837h278v-837q0 -158 -23.5 -253t-65.5 -152.5t-109.5 -104t-146.5 -68.5q-112 -31 -240 -31q-127 0 -227.5 28.5t-167 78.5t-103.5 110t-59 163q-15 70 -15 253v813zM457 1808h280
l170 -296h-170z" />
    <glyph glyph-name="dotlessi" unicode="&#x131;" horiz-adv-x="569" 
d="M147 0v1055h275v-1055h-275z" />
    <glyph glyph-name="circumflex" unicode="&#x2c6;" horiz-adv-x="569" 
d="M185 1498h206l215 -296h-182l-140 173l-142 -173h-185z" />
    <glyph glyph-name="tilde" unicode="&#x2dc;" horiz-adv-x="569" 
d="M543 1498h109q-12 -121 -75 -186t-154 -65q-45 0 -91 16l-126 45q-46 17 -79 17q-36 0 -60.5 -19.5t-40.5 -72.5h-104q10 74 46 133.5t87.5 88t103.5 28.5q26 0 49 -6q11 -2 95 -33q85 -32 102 -37q29 -7 51 -7q33 0 56.5 23t30.5 75z" />
    <glyph glyph-name="macron" unicode="&#xaf;" horiz-adv-x="569" 
d="M-12 1292v137h593v-137h-593z" />
    <glyph glyph-name="breve" unicode="&#x2d8;" horiz-adv-x="569" 
d="M-50 1496h130q9 -70 65 -118t138 -48q81 0 132.5 40.5t74.5 125.5h131q-13 -97 -55.5 -162.5t-121 -101t-164.5 -35.5q-138 0 -231.5 86.5t-98.5 212.5z" />
    <glyph glyph-name="dotaccent" unicode="&#x2d9;" horiz-adv-x="569" 
d="M427 1499v-257h-279v257h279z" />
    <glyph glyph-name="ring" unicode="&#x2da;" horiz-adv-x="569" 
d="M76 1370q0 88 62 149.5t148 61.5t148 -62t62 -150q0 -86 -62.5 -148t-149.5 -62q-85 0 -146.5 61.5t-61.5 149.5zM398 1368q0 49 -34 83.5t-81 34.5q-46 0 -79 -33.5t-33 -80.5q0 -48 33.5 -83t76.5 -35q48 0 82.5 34t34.5 80z" />
    <glyph glyph-name="cedilla" unicode="&#xb8;" horiz-adv-x="569" 
d="M52 -412l40 87q29 -16 71 -27t72 -11q57 0 85 24.5t28 59.5q0 27 -24.5 47.5t-69.5 20.5t-86 -19l-31 55l121 192h104l-101 -154q44 11 85 11q81 0 124.5 -40t43.5 -104q0 -77 -64.5 -131t-190.5 -54q-108 0 -207 43z" />
    <glyph glyph-name="hungarumlaut" unicode="&#x2dd;" horiz-adv-x="569" 
d="M786 1513l-272 -298h-164l158 298h278zM386 1513l-255 -298h-157l138 298h274z" />
    <glyph glyph-name="ogonek" unicode="&#x2db;" horiz-adv-x="569" 
d="M669 26l-98 -86q-39 -35 -65.5 -68.5t-34.5 -55t-8 -42.5q0 -44 31 -75t74 -31q56 0 139 52v-102q-117 -78 -226 -78q-80 0 -134 53t-54 130q0 62 48 127t211 176h117z" />
    <glyph glyph-name="caron" unicode="&#x2c7;" horiz-adv-x="569" 
d="M393 1195h-208l-228 296h185l144 -175l140 175h185z" />
    <glyph glyph-name="Lslash" unicode="&#x141;" horiz-adv-x="1024" 
d="M439 1416v-566l347 220v-186l-347 -217v-430h552v-237h-839v483l-150 -96v186l150 94v749h287z" />
    <glyph glyph-name="lslash" unicode="&#x142;" horiz-adv-x="569" 
d="M420 1531v-602l152 100v-167l-152 -98v-764h-271v584l-145 -94v164l145 95v782h271z" />
    <glyph glyph-name="Scaron" unicode="&#x160;" 
d="M960 1384l-26 -237q-57 29 -140.5 48t-153.5 19q-110 0 -168.5 -49t-58.5 -113q0 -49 32.5 -89.5t126.5 -78.5l215 -88q119 -48 186.5 -147t67.5 -226q0 -115 -46.5 -200.5t-119.5 -137t-171 -74.5t-206 -23q-171 0 -355 57l26 261q66 -39 152 -63.5t166 -24.5
q125 0 190.5 55.5t65.5 129.5q0 56 -35.5 97.5t-114.5 75.5l-197 85q-92 40 -142 81q-66 53 -100.5 124t-34.5 164q0 179 129 293t378 114q161 0 334 -53zM678 1505h-208l-228 296h185l144 -175l140 175h185z" />
    <glyph glyph-name="scaron" unicode="&#x161;" horiz-adv-x="910" 
d="M789 1036l-19 -209q-125 48 -226 48q-97 0 -143 -35.5t-46 -78.5q0 -33 27.5 -57t48.5 -26l10 -2l192 -67q95 -33 148 -108t53 -182q0 -89 -33 -148.5t-83.5 -99.5t-100.5 -59q-80 -31 -207 -31q-160 0 -325 47l17 228q159 -66 266 -66q100 0 152 40q37 28 37 82
q0 35 -17 57t-54 34l-119 38q-162 52 -222 126t-60 186q0 135 98 219q123 105 324 105q129 0 282 -41zM563 1195h-208l-228 296h185l144 -175l140 175h185z" />
    <glyph glyph-name="Zcaron" unicode="&#x17d;" 
d="M1064 0h-991v247l668 938h-642v237h951v-246l-669 -939h683v-237zM677 1504h-208l-228 296h185l144 -175l140 175h185z" />
    <glyph glyph-name="zcaron" unicode="&#x17e;" horiz-adv-x="1024" 
d="M97 1055h834v-223l-524 -619h545v-213h-879v213l536 628h-512v214zM620 1195h-208l-228 296h185l144 -175l140 175h185z" />
    <glyph glyph-name="brokenbar" unicode="&#xa6;" horiz-adv-x="455" 
d="M123 768v512h209v-512h-209zM123 -256v512h209v-512h-209z" />
    <glyph glyph-name="Eth" unicode="&#xd0;" horiz-adv-x="1479" 
d="M169 0v682h-148v162h144l4 572h324q256 0 413 -39.5t262.5 -131t160 -232t54.5 -300.5q0 -153 -47.5 -285t-126.5 -221q-58 -65 -130.5 -106.5t-193.5 -71t-306 -29.5h-410zM456 218q188 0 247 11q96 19 157.5 57t110.5 96t78.5 140.5t29.5 184.5q0 135 -51.5 239.5
t-133 160t-189.5 74.5q-73 12 -249 15v-352h310v-162h-310v-464z" />
    <glyph glyph-name="eth" unicode="&#xf0;" horiz-adv-x="1252" 
d="M846 1465l-159 -109q165 -128 260 -245t138 -254t43 -285q0 -298 -154 -449t-369 -151q-197 0 -332 119q-157 140 -157 395q0 254 149 393q119 112 280 112q136 0 235 -88q-12 35 -28 61q-29 44 -101.5 118.5t-162.5 140.5l-180 -121l-95 74l173 116q-77 60 -199 111
l199 152q44 -22 107 -62t97 -66l152 107zM618 180q94 0 157.5 77t63.5 234q0 101 -27.5 168.5t-77.5 100t-107 32.5q-94 0 -162.5 -79.5t-68.5 -224.5q0 -157 71 -245q52 -63 151 -63z" />
    <glyph glyph-name="Yacute" unicode="&#xdd;" horiz-adv-x="1365" 
d="M825 0h-289v569l-519 853h337l336 -592l344 592h303l-512 -853v-569zM1038 1808l-289 -296h-161l171 296h279z" />
    <glyph glyph-name="yacute" unicode="&#xfd;" 
d="M839 1055h280l-424 -1128l-50 -114q-34 -79 -80.5 -132.5t-122 -88.5t-160.5 -35q-33 0 -102 8q-48 6 -90 20l19 204q67 -20 133 -20t120 48t72 128l-410 1110h303l256 -775zM924 1498l-289 -296h-161l171 296h279z" />
    <glyph glyph-name="Thorn" unicode="&#xde;" 
d="M137 9v1430h289v-218h128q129 0 227.5 -30t160.5 -82t104 -134t42 -192q0 -117 -53.5 -214t-130 -146.5t-180.5 -69.5q-59 -12 -194 -12h-104v-332h-289zM426 1000v-441h67q118 0 175.5 25.5t91.5 80t34 119.5q0 114 -96 175q-64 41 -191 41h-81z" />
    <glyph glyph-name="thorn" unicode="&#xfe;" horiz-adv-x="1252" 
d="M142 -420v1944h270v-642q61 93 138 136.5t184 43.5q210 0 321 -148t111 -378q0 -166 -50 -292q-31 -76 -84 -137t-124.5 -94.5t-168.5 -33.5q-98 0 -176.5 37t-150.5 114v-550h-270zM647 194q96 0 166.5 83.5t70.5 240.5q0 164 -73 255q-54 66 -150 66q-105 0 -177 -82.5
t-72 -238.5q0 -158 78 -252q59 -72 157 -72z" />
    <glyph glyph-name="minus" unicode="&#x2212;" horiz-adv-x="1229" 
d="M84 426v209h1061v-209h-1061z" />
    <glyph glyph-name="multiply" unicode="&#xd7;" horiz-adv-x="1229" 
d="M102 166l365 364l-365 365l148 148l364 -365l365 365l148 -148l-365 -365l365 -364l-148 -148l-365 364l-364 -364z" />
    <glyph glyph-name="onesuperior" unicode="&#xb9;" horiz-adv-x="740" 
d="M333 1240l-154 -118l-94 111l273 197h163v-853h-188v663z" />
    <glyph glyph-name="twosuperior" unicode="&#xb2;" horiz-adv-x="740" 
d="M54 577v144q151 123 248 225t127 162q21 40 21 77q0 52 -37.5 85.5t-108.5 33.5q-48 0 -111.5 -22t-101.5 -49l-15 151q127 61 279 61q142 0 217 -68t75 -168q0 -85 -52 -171q-89 -149 -299 -323h376v-138h-618z" />
    <glyph glyph-name="threesuperior" unicode="&#xb3;" horiz-adv-x="740" 
d="M60 597l11 147q109 -42 211 -42q93 0 139 37t46 91q0 53 -40 81q-57 40 -194 40q-27 0 -56 -3v141q28 -3 48 -3q101 0 150.5 18t69.5 47t20 57q0 42 -38 71t-128 29q-51 0 -108 -12.5t-91 -31.5l-11 140q120 41 247 41q164 0 254 -72q65 -52 65 -146q0 -82 -46.5 -135.5
t-126.5 -66.5q51 0 115 -51.5t64 -156.5q0 -106 -76 -167q-102 -82 -289 -82q-92 0 -236 29z" />
    <glyph glyph-name="onehalf" unicode="&#xbd;" horiz-adv-x="1708" 
d="M406 -43h-168l856 1539h168zM250 1240l-154 -118l-94 111l273 197h163v-853h-188v663zM938 0v144q152 123 248 225q97 102 128 161q20 40 20 77q0 53 -37.5 86.5t-107.5 33.5q-48 0 -111.5 -22t-102.5 -49l-15 150q127 62 279 62q142 0 217.5 -68t75.5 -168
q0 -85 -52 -171q-90 -149 -300 -323h376v-138h-618z" />
    <glyph glyph-name="onequarter" unicode="&#xbc;" horiz-adv-x="1708" 
d="M445 -43h-169l856 1539h168zM229 1240l-154 -118l-94 111l273 197h163v-853h-188v663zM1232 853h232v-549h117v-130h-117v-174h-185v174h-394v143zM1053 304h232v377z" />
    <glyph glyph-name="threequarters" unicode="&#xbe;" horiz-adv-x="1708" 
d="M490 -43h-168l856 1539h168zM-4 597l11 147q109 -42 211 -42q93 0 139 37t46 91q0 53 -40 81q-57 40 -194 40q-27 0 -56 -3v141q28 -3 48 -3q101 0 150.5 18t69.5 47t20 57q0 42 -38 71t-128 29q-51 0 -108 -12.5t-91 -31.5l-11 140q120 41 247 41q164 0 254 -72
q65 -52 65 -146q0 -82 -46.5 -135.5t-126.5 -66.5q51 0 115 -51.5t64 -156.5q0 -106 -76 -167q-102 -82 -289 -82q-92 0 -236 29zM1271 853h233v-549h117v-130h-117v-174h-185v174h-395v143zM1092 304h233v377z" />
    <glyph glyph-name="franc" unicode="&#x20a3;" 
d="M211 0v1415h792v-237h-503v-341h479v-233h-479v-604h-289z" />
    <glyph glyph-name="Gbreve" unicode="&#x11e;" horiz-adv-x="1479" 
d="M1299 1380l-19 -256q-61 32 -174 58.5t-200 26.5q-141 0 -258 -60t-177.5 -174.5t-60.5 -261.5q0 -149 62 -263t178.5 -169.5t240.5 -55.5q39 0 92.5 7.5t80.5 16.5v346h-301v228h574v-759q-112 -37 -243.5 -56.5t-240.5 -19.5q-156 0 -294 43.5t-242 139.5t-159.5 236
t-55.5 307q0 211 90 372.5t279 257t437 95.5q213 0 391 -59zM500 1806h130q9 -70 65 -118t138 -48q81 0 132.5 40.5t74.5 125.5h131q-13 -97 -55.5 -162.5t-121 -101t-164.5 -35.5q-138 0 -231.5 86.5t-98.5 212.5z" />
    <glyph glyph-name="gbreve" unicode="&#x11f;" horiz-adv-x="1252" 
d="M849 889v166h263v-927q0 -150 -25 -238.5t-66 -144.5t-101 -97.5t-128 -63.5q-105 -32 -230 -32q-195 0 -370 73l24 240q68 -43 159.5 -68t168.5 -25q97 0 174 45.5t107.5 127t32.5 266.5q-60 -108 -154 -160.5t-196 -52.5q-112 0 -212.5 61t-156.5 185.5t-56 297.5
q0 254 125.5 393t308.5 139q83 0 155.5 -29t119.5 -74q33 -32 57 -82zM367 564q0 -172 67 -254t166 -82q100 0 172 81.5t72 225.5q0 150 -72 234t-170 84q-64 0 -120 -36.5t-85.5 -105.5t-29.5 -147zM291 1496h130q9 -70 65 -118t138 -48q81 0 132.5 40.5t74.5 125.5h131
q-13 -97 -55.5 -162.5t-121 -101t-164.5 -35.5q-138 0 -231.5 86.5t-98.5 212.5z" />
    <glyph glyph-name="Idotaccent" unicode="&#x130;" horiz-adv-x="569" 
d="M140 0v1422h289v-1422h-289zM422 1769v-257h-279v257h279z" />
    <glyph glyph-name="Scedilla" unicode="&#x15e;" 
d="M608 -6l-87 -131q45 11 86 11q81 0 124.5 -40t43.5 -104q0 -77 -64.5 -131t-190.5 -54q-108 0 -207 43l40 87q29 -16 71 -27t72 -11q56 0 84.5 24.5t28.5 59.5q0 27 -24.5 47.5t-70.5 20.5q-44 0 -85 -19l-31 55l103 163q-174 0 -358 57l26 261q66 -39 152 -63.5
t166 -24.5q125 0 190.5 55.5t65.5 129.5q0 56 -35.5 97.5t-114.5 75.5l-197 85q-92 40 -142 81q-66 53 -100.5 124t-34.5 164q0 179 129 293t378 114q161 0 334 -53l-26 -237q-57 29 -140.5 48t-153.5 19q-110 0 -168.5 -49t-58.5 -113q0 -49 32.5 -89.5t126.5 -78.5
l215 -88q119 -48 186.5 -147t67.5 -226q0 -173 -108 -288t-325 -141z" />
    <glyph glyph-name="scedilla" unicode="&#x15f;" horiz-adv-x="910" 
d="M481 -16l-80 -121q44 11 86 11q81 0 124 -40t43 -104q0 -77 -64.5 -131t-189.5 -54q-109 0 -208 43l41 87q28 -16 70 -27t72 -11q57 0 85.5 24.5t28.5 59.5q0 27 -25 47.5t-70 20.5t-86 -19l-30 55l98 157q-137 2 -291 46l17 228q159 -66 266 -66q100 0 152 40
q37 28 37 82q0 35 -17 57t-54 34l-119 38q-162 52 -222 126t-60 186q0 135 98 219q123 105 324 105q129 0 282 -41l-19 -209q-125 48 -226 48q-97 0 -143 -35.5t-46 -78.5q0 -32 30 -59q16 -15 75 -35l173 -58q94 -32 147.5 -107.5t53.5 -182.5q0 -94 -45 -169t-137 -122
q-69 -36 -171 -44z" />
    <glyph glyph-name="Cacute" unicode="&#x106;" horiz-adv-x="1252" 
d="M1206 1375l-23 -244q-66 32 -157.5 50.5t-166.5 18.5q-127 0 -231 -60.5t-158.5 -173t-54.5 -248.5q0 -221 133 -356t348 -135q157 0 301 60l12 -254q-55 -17 -153 -32t-186 -15q-197 0 -359 66q-195 80 -301 247t-106 406q0 328 202.5 529t537.5 201q191 0 362 -60z
M1082 1809l-289 -296h-161l171 296h279z" />
    <glyph glyph-name="cacute" unicode="&#x107;" horiz-adv-x="910" 
d="M839 1031l-23 -220q-68 36 -166 36q-127 0 -212 -88t-85 -226q0 -90 36.5 -164t105 -114t153.5 -40q48 0 103 14t95 34l12 -230q-112 -38 -244 -38q-124 0 -224 36.5t-166.5 101t-102.5 141.5q-52 113 -52 254q0 160 66 282t194.5 188t275.5 66q53 0 120.5 -9.5
t113.5 -23.5zM864 1498l-289 -296h-161l171 296h279z" />
    <glyph glyph-name="Ccaron" unicode="&#x10c;" horiz-adv-x="1252" 
d="M1206 1375l-23 -244q-66 32 -157.5 50.5t-166.5 18.5q-127 0 -231 -60.5t-158.5 -173t-54.5 -248.5q0 -221 133 -356t348 -135q157 0 301 60l12 -254q-55 -17 -153 -32t-186 -15q-197 0 -359 66q-195 80 -301 247t-106 406q0 328 202.5 529t537.5 201q191 0 362 -60z
M900 1506h-208l-228 296h185l144 -175l140 175h185z" />
    <glyph glyph-name="ccaron" unicode="&#x10d;" horiz-adv-x="910" 
d="M839 1031l-23 -220q-68 36 -166 36q-127 0 -212 -88t-85 -226q0 -90 36.5 -164t105 -114t153.5 -40q48 0 103 14t95 34l12 -230q-112 -38 -244 -38q-124 0 -224 36.5t-166.5 101t-102.5 141.5q-52 113 -52 254q0 160 66 282t194.5 188t275.5 66q53 0 120.5 -9.5
t113.5 -23.5zM682 1195h-208l-228 296h185l144 -175l140 175h185z" />
    <glyph glyph-name="dcroat" unicode="&#x111;" horiz-adv-x="1252" 
d="M524 1368h322v168h270v-168h84v-138h-84v-1230h-260v154q-53 -78 -140 -123t-192 -45q-87 0 -155.5 27.5t-112 65.5t-81 97.5t-61.5 156t-24 207.5q0 247 113.5 390.5t310.5 143.5q108 0 186 -41t146 -130v327h-322v138zM600 849q-95 0 -161 -79.5t-66 -243.5
q0 -170 70.5 -249.5t162.5 -79.5q97 0 167 81.5t70 242.5q0 143 -64 235.5t-179 92.5z" />
    </font>
</defs>
</svg>
