<?xml version="1.0" standalone="no"?>
<!DOCTYPE svg PUBLIC "-//W3C//DTD SVG 1.1//EN" "http://www.w3.org/Graphics/SVG/1.1/DTD/svg11.dtd" >
<svg>
<metadata>
Created by FontForge 20090622 at Wed Jun  8 13:51:31 2016
 By deploy user
</metadata>
<defs>
<font id="Frutiger-Light" horiz-adv-x="1139" >
  <font-face 
    font-family="Frutiger-Light"
    font-weight="400"
    font-stretch="normal"
    units-per-em="2048"
    panose-1="2 2 6 3 5 4 5 2 3 4"
    ascent="1638"
    descent="-410"
    x-height="1044"
    cap-height="1430"
    bbox="-930 -442 2048 2140"
    underline-thickness="50"
    underline-position="-75"
    unicode-range="U+0020-U+F02A"
  />
<missing-glyph horiz-adv-x="1536" 
d="M256 0v1280h1024v-1280h-1024zM1247 33v1214h-958v-1214h958z" />
    <glyph glyph-name=".notdef" horiz-adv-x="1536" 
d="M256 0v1280h1024v-1280h-1024zM1247 33v1214h-958v-1214h958z" />
    <glyph glyph-name=".null" horiz-adv-x="0" 
 />
    <glyph glyph-name="nonmarkingreturn" horiz-adv-x="0" 
 />
    <glyph glyph-name="space" unicode=" " horiz-adv-x="569" 
 />
    <glyph glyph-name="space" unicode="&#x2031;" horiz-adv-x="569" 
 />
    <glyph glyph-name="space" unicode="&#x2025;" horiz-adv-x="569" 
 />
    <glyph glyph-name="space" unicode="&#x2024;" horiz-adv-x="569" 
 />
    <glyph glyph-name="space" unicode="&#x2023;" horiz-adv-x="569" 
 />
    <glyph glyph-name="space" unicode="&#x201f;" horiz-adv-x="569" 
 />
    <glyph glyph-name="space" unicode="&#x201b;" horiz-adv-x="569" 
 />
    <glyph glyph-name="space" unicode="&#x2017;" horiz-adv-x="569" 
 />
    <glyph glyph-name="space" unicode="&#x2016;" horiz-adv-x="569" 
 />
    <glyph glyph-name="space" unicode="&#x2015;" horiz-adv-x="569" 
 />
    <glyph glyph-name="exclam" unicode="!" horiz-adv-x="797" 
d="M481 1430l-24 -1084h-117l-25 1084h166zM315 0v172h166v-172h-166z" />
    <glyph glyph-name="quotedbl" unicode="&#x22;" 
d="M367 983v447h129v-447h-129zM643 983v447h129v-447h-129z" />
    <glyph glyph-name="numbersign" unicode="#" 
d="M219 0l64 449h-213v110h227l45 311h-219v111h233l64 449h125l-64 -449h267l63 449h125l-64 -449h197v-111h-211l-43 -311h197v-110h-213l-64 -449h-125l64 449h-266l-64 -449h-125zM690 559l43 311h-266l-43 -311h266z" />
    <glyph glyph-name="dollar" unicode="$" 
d="M631 629v-512q92 27 145 95t53 179q0 71 -49.5 124.5t-148.5 113.5zM526 846v475q-93 -18 -152 -77t-59 -159q0 -72 53.5 -126.5t157.5 -112.5zM526 1579h105v-125q154 0 276 -47l-22 -129q-88 50 -254 53v-543q68 -36 128.5 -74.5t108.5 -87t75.5 -109.5t27.5 -138
q0 -110 -45.5 -191.5t-123 -130.5t-171.5 -69v-170h-105v159q-8 -2 -24 -2q-181 0 -324 62l15 145q132 -84 315 -84q10 0 18 2v588q-88 48 -140 80.5t-103 80.5t-80 106.5t-29 125.5q0 96 45 173t125.5 126t181.5 66v133z" />
    <glyph glyph-name="percent" unicode="%" horiz-adv-x="2048" 
d="M1186 369q0 173 80.5 278t242.5 105q163 0 243.5 -105t80.5 -278q0 -110 -34 -197.5t-107 -136.5t-183 -49q-109 0 -182 49t-107 136t-34 198zM1315 369q0 -115 45 -194t149 -79q105 0 150 79t45 194t-44.5 193.5t-150.5 78.5q-105 0 -149.5 -78.5t-44.5 -193.5z
M215 1061q0 110 34 197.5t107 136.5t183 49q162 0 242.5 -105t80.5 -278t-80.5 -278t-242.5 -105q-110 0 -183 49t-107 136t-34 198zM344 1061q0 -115 45 -194t150 -79q71 0 114.5 39.5t61.5 103t18 130.5q0 115 -44.5 193.5t-149.5 78.5q-106 0 -150.5 -78.5t-44.5 -193.5z
M541 -45l845 1520h119l-846 -1520h-118z" />
    <glyph glyph-name="percent" unicode="&#x202f;" horiz-adv-x="2048" 
d="M1186 369q0 173 80.5 278t242.5 105q163 0 243.5 -105t80.5 -278q0 -110 -34 -197.5t-107 -136.5t-183 -49q-109 0 -182 49t-107 136t-34 198zM1315 369q0 -115 45 -194t149 -79q105 0 150 79t45 194t-44.5 193.5t-150.5 78.5q-105 0 -149.5 -78.5t-44.5 -193.5z
M215 1061q0 110 34 197.5t107 136.5t183 49q162 0 242.5 -105t80.5 -278t-80.5 -278t-242.5 -105q-110 0 -183 49t-107 136t-34 198zM344 1061q0 -115 45 -194t150 -79q71 0 114.5 39.5t61.5 103t18 130.5q0 115 -44.5 193.5t-149.5 78.5q-106 0 -150.5 -78.5t-44.5 -193.5z
M541 -45l845 1520h119l-846 -1520h-118z" />
    <glyph glyph-name="percent" unicode="&#x202e;" horiz-adv-x="2048" 
d="M1186 369q0 173 80.5 278t242.5 105q163 0 243.5 -105t80.5 -278q0 -110 -34 -197.5t-107 -136.5t-183 -49q-109 0 -182 49t-107 136t-34 198zM1315 369q0 -115 45 -194t149 -79q105 0 150 79t45 194t-44.5 193.5t-150.5 78.5q-105 0 -149.5 -78.5t-44.5 -193.5z
M215 1061q0 110 34 197.5t107 136.5t183 49q162 0 242.5 -105t80.5 -278t-80.5 -278t-242.5 -105q-110 0 -183 49t-107 136t-34 198zM344 1061q0 -115 45 -194t150 -79q71 0 114.5 39.5t61.5 103t18 130.5q0 115 -44.5 193.5t-149.5 78.5q-106 0 -150.5 -78.5t-44.5 -193.5z
M541 -45l845 1520h119l-846 -1520h-118z" />
    <glyph glyph-name="percent" unicode="&#x202d;" horiz-adv-x="2048" 
d="M1186 369q0 173 80.5 278t242.5 105q163 0 243.5 -105t80.5 -278q0 -110 -34 -197.5t-107 -136.5t-183 -49q-109 0 -182 49t-107 136t-34 198zM1315 369q0 -115 45 -194t149 -79q105 0 150 79t45 194t-44.5 193.5t-150.5 78.5q-105 0 -149.5 -78.5t-44.5 -193.5z
M215 1061q0 110 34 197.5t107 136.5t183 49q162 0 242.5 -105t80.5 -278t-80.5 -278t-242.5 -105q-110 0 -183 49t-107 136t-34 198zM344 1061q0 -115 45 -194t150 -79q71 0 114.5 39.5t61.5 103t18 130.5q0 115 -44.5 193.5t-149.5 78.5q-106 0 -150.5 -78.5t-44.5 -193.5z
M541 -45l845 1520h119l-846 -1520h-118z" />
    <glyph glyph-name="percent" unicode="&#x202c;" horiz-adv-x="2048" 
d="M1186 369q0 173 80.5 278t242.5 105q163 0 243.5 -105t80.5 -278q0 -110 -34 -197.5t-107 -136.5t-183 -49q-109 0 -182 49t-107 136t-34 198zM1315 369q0 -115 45 -194t149 -79q105 0 150 79t45 194t-44.5 193.5t-150.5 78.5q-105 0 -149.5 -78.5t-44.5 -193.5z
M215 1061q0 110 34 197.5t107 136.5t183 49q162 0 242.5 -105t80.5 -278t-80.5 -278t-242.5 -105q-110 0 -183 49t-107 136t-34 198zM344 1061q0 -115 45 -194t150 -79q71 0 114.5 39.5t61.5 103t18 130.5q0 115 -44.5 193.5t-149.5 78.5q-106 0 -150.5 -78.5t-44.5 -193.5z
M541 -45l845 1520h119l-846 -1520h-118z" />
    <glyph glyph-name="percent" unicode="&#x202b;" horiz-adv-x="2048" 
d="M1186 369q0 173 80.5 278t242.5 105q163 0 243.5 -105t80.5 -278q0 -110 -34 -197.5t-107 -136.5t-183 -49q-109 0 -182 49t-107 136t-34 198zM1315 369q0 -115 45 -194t149 -79q105 0 150 79t45 194t-44.5 193.5t-150.5 78.5q-105 0 -149.5 -78.5t-44.5 -193.5z
M215 1061q0 110 34 197.5t107 136.5t183 49q162 0 242.5 -105t80.5 -278t-80.5 -278t-242.5 -105q-110 0 -183 49t-107 136t-34 198zM344 1061q0 -115 45 -194t150 -79q71 0 114.5 39.5t61.5 103t18 130.5q0 115 -44.5 193.5t-149.5 78.5q-106 0 -150.5 -78.5t-44.5 -193.5z
M541 -45l845 1520h119l-846 -1520h-118z" />
    <glyph glyph-name="percent" unicode="&#x202a;" horiz-adv-x="2048" 
d="M1186 369q0 173 80.5 278t242.5 105q163 0 243.5 -105t80.5 -278q0 -110 -34 -197.5t-107 -136.5t-183 -49q-109 0 -182 49t-107 136t-34 198zM1315 369q0 -115 45 -194t149 -79q105 0 150 79t45 194t-44.5 193.5t-150.5 78.5q-105 0 -149.5 -78.5t-44.5 -193.5z
M215 1061q0 110 34 197.5t107 136.5t183 49q162 0 242.5 -105t80.5 -278t-80.5 -278t-242.5 -105q-110 0 -183 49t-107 136t-34 198zM344 1061q0 -115 45 -194t150 -79q71 0 114.5 39.5t61.5 103t18 130.5q0 115 -44.5 193.5t-149.5 78.5q-106 0 -150.5 -78.5t-44.5 -193.5z
M541 -45l845 1520h119l-846 -1520h-118z" />
    <glyph glyph-name="percent" unicode="&#x2029;" horiz-adv-x="2048" 
d="M1186 369q0 173 80.5 278t242.5 105q163 0 243.5 -105t80.5 -278q0 -110 -34 -197.5t-107 -136.5t-183 -49q-109 0 -182 49t-107 136t-34 198zM1315 369q0 -115 45 -194t149 -79q105 0 150 79t45 194t-44.5 193.5t-150.5 78.5q-105 0 -149.5 -78.5t-44.5 -193.5z
M215 1061q0 110 34 197.5t107 136.5t183 49q162 0 242.5 -105t80.5 -278t-80.5 -278t-242.5 -105q-110 0 -183 49t-107 136t-34 198zM344 1061q0 -115 45 -194t150 -79q71 0 114.5 39.5t61.5 103t18 130.5q0 115 -44.5 193.5t-149.5 78.5q-106 0 -150.5 -78.5t-44.5 -193.5z
M541 -45l845 1520h119l-846 -1520h-118z" />
    <glyph glyph-name="percent" unicode="&#x2028;" horiz-adv-x="2048" 
d="M1186 369q0 173 80.5 278t242.5 105q163 0 243.5 -105t80.5 -278q0 -110 -34 -197.5t-107 -136.5t-183 -49q-109 0 -182 49t-107 136t-34 198zM1315 369q0 -115 45 -194t149 -79q105 0 150 79t45 194t-44.5 193.5t-150.5 78.5q-105 0 -149.5 -78.5t-44.5 -193.5z
M215 1061q0 110 34 197.5t107 136.5t183 49q162 0 242.5 -105t80.5 -278t-80.5 -278t-242.5 -105q-110 0 -183 49t-107 136t-34 198zM344 1061q0 -115 45 -194t150 -79q71 0 114.5 39.5t61.5 103t18 130.5q0 115 -44.5 193.5t-149.5 78.5q-106 0 -150.5 -78.5t-44.5 -193.5z
M541 -45l845 1520h119l-846 -1520h-118z" />
    <glyph glyph-name="percent" unicode="&#x2027;" horiz-adv-x="2048" 
d="M1186 369q0 173 80.5 278t242.5 105q163 0 243.5 -105t80.5 -278q0 -110 -34 -197.5t-107 -136.5t-183 -49q-109 0 -182 49t-107 136t-34 198zM1315 369q0 -115 45 -194t149 -79q105 0 150 79t45 194t-44.5 193.5t-150.5 78.5q-105 0 -149.5 -78.5t-44.5 -193.5z
M215 1061q0 110 34 197.5t107 136.5t183 49q162 0 242.5 -105t80.5 -278t-80.5 -278t-242.5 -105q-110 0 -183 49t-107 136t-34 198zM344 1061q0 -115 45 -194t150 -79q71 0 114.5 39.5t61.5 103t18 130.5q0 115 -44.5 193.5t-149.5 78.5q-106 0 -150.5 -78.5t-44.5 -193.5z
M541 -45l845 1520h119l-846 -1520h-118z" />
    <glyph glyph-name="ampersand" unicode="&#x26;" horiz-adv-x="1366" 
d="M631 770l377 -420q43 61 70 131.5t39.5 148.5t12.5 154h123q0 -143 -40 -276t-119 -240l243 -264h-180l-151 160q-86 -96 -196.5 -142.5t-238.5 -46.5q-91 0 -175.5 24.5t-150.5 73.5t-104.5 126t-38.5 176q0 284 338 416q-67 76 -101 121.5t-59.5 105.5t-25.5 125
q0 97 55.5 168t144.5 107t185 36q89 0 165 -32.5t123.5 -99t47.5 -163.5q0 -78 -27 -137t-75 -103.5t-94 -70.5t-148 -78zM928 252l-416 459q-111 -45 -189.5 -132t-78.5 -198q0 -138 96.5 -216.5t234.5 -78.5q97 0 194.5 46t158.5 120zM395 1135q0 -75 42.5 -140.5
t119.5 -150.5q137 65 207 124t70 169q0 100 -55.5 153t-147.5 53q-61 0 -115.5 -24t-87.5 -71t-33 -113z" />
    <glyph glyph-name="quotesingle" unicode="'" horiz-adv-x="569" 
d="M221 983v447h129v-447h-129z" />
    <glyph glyph-name="parenleft" unicode="(" horiz-adv-x="569" 
d="M522 -287h-86q-112 176 -183.5 312t-119 290.5t-47.5 315.5q0 123 28.5 242.5t77 233t106.5 214t138 227.5h86q-111 -215 -166.5 -335t-98 -273t-42.5 -309q0 -118 27 -238.5t65.5 -222.5t83 -195.5t131.5 -261.5z" />
    <glyph glyph-name="parenright" unicode=")" horiz-adv-x="569" 
d="M47 1548h86q76 -119 138.5 -228.5t109 -217.5t74.5 -228t28 -243q0 -161 -47.5 -315.5t-119 -290.5t-183.5 -312h-86q92 175 157.5 317t107.5 293.5t42 307.5t-42 307.5t-105.5 289.5t-159.5 320z" />
    <glyph glyph-name="asterisk" unicode="*" 
d="M510 1430h119l-15 -314l297 115l39 -119l-301 -86l199 -244l-103 -77l-176 268l-172 -268l-100 77l192 244l-301 86l35 119l301 -115z" />
    <glyph glyph-name="asterisk" 
d="M510 1430h119l-15 -314l297 115l39 -119l-301 -86l199 -244l-103 -77l-176 268l-172 -268l-100 77l192 244l-301 86l35 119l301 -115z" />
    <glyph glyph-name="plus" unicode="+" horiz-adv-x="1229" 
d="M94 449v141h449v448h141v-448h449v-141h-449v-449h-141v449h-449z" />
    <glyph glyph-name="comma" unicode="," horiz-adv-x="569" 
d="M111 -274l118 446h172l-161 -446h-129z" />
    <glyph glyph-name="hyphen" unicode="-" horiz-adv-x="682" 
d="M84 481v142h514v-142h-514z" />
    <glyph glyph-name="period" unicode="." horiz-adv-x="569" 
d="M201 0v172h166v-172h-166z" />
    <glyph glyph-name="slash" unicode="/" horiz-adv-x="569" 
d="M-63 -25l555 1479h141l-555 -1479h-141z" />
    <glyph glyph-name="zero" unicode="0" 
d="M569 1321q-137 0 -209.5 -94.5t-95 -225.5t-22.5 -286t22.5 -286t95.5 -225.5t209 -94.5t209 94.5t96 225.5t23 286t-23 286t-95.5 225.5t-209.5 94.5zM569 1444q137 0 230 -63.5t144.5 -168.5t73 -229.5t21.5 -267.5q0 -181 -36 -343.5t-139.5 -274t-293.5 -111.5
q-144 0 -238.5 67.5t-143.5 174.5t-68 232.5t-19 254.5q0 135 21.5 263t74.5 234.5t145.5 169t227.5 62.5z" />
    <glyph glyph-name="one" unicode="1" 
d="M252 1159l323 271h127v-1430h-141v1270l-231 -203z" />
    <glyph glyph-name="two" unicode="2" 
d="M102 0v123l328 362q98 108 174 207t123 194t47 177q0 74 -33.5 133t-91 92t-127.5 33q-94 0 -174.5 -25t-169.5 -77l-24 129q84 42 180 69t180 27q119 0 212.5 -41t147.5 -125t54 -209q0 -99 -56 -211.5t-139 -218.5t-198 -233l-259 -283h685v-123h-859z" />
    <glyph glyph-name="three" unicode="3" 
d="M307 680v123h37q129 0 233 18.5t178 82.5t74 186q0 75 -48 127.5t-123.5 78t-155.5 25.5q-157 0 -320 -76l-12 133q76 29 170 47.5t176 18.5q94 0 175 -20t144 -63t99.5 -111.5t36.5 -159.5q0 -127 -81 -217.5t-216 -124.5v-5q92 -4 159.5 -49.5t102.5 -123t35 -173.5
t-39 -172.5t-110 -129.5t-166 -81t-201 -28q-201 0 -353 57l17 135q147 -69 344 -69q94 0 177 31.5t136 99.5t53 170q0 113 -60.5 172.5t-147 78.5t-183.5 19h-131z" />
    <glyph glyph-name="four" unicode="4" 
d="M729 453v835h-4l-549 -835h553zM47 330v139l643 961h180v-977h211v-123h-211v-330h-141v330h-682z" />
    <glyph glyph-name="five" unicode="5" 
d="M938 1430v-123h-592l-10 -459q91 31 217 31q138 0 238.5 -49.5t155 -145t54.5 -223.5q0 -154 -65.5 -261t-183 -160.5t-271.5 -53.5q-173 0 -305 51v145q69 -37 148 -55t157 -18q154 0 266.5 83.5t112.5 239.5q0 166 -88.5 245t-269.5 79q-153 0 -309 -45l14 719h731z
" />
    <glyph glyph-name="six" unicode="6" 
d="M571 -14q-134 0 -225 56t-142 151.5t-71 214.5t-20 256q0 171 33.5 309.5t110.5 246t201.5 166t299.5 58.5q97 0 229 -33l-12 -135q-44 20 -107.5 32.5t-128.5 12.5q-134 0 -228 -50t-150.5 -134.5t-81.5 -189t-25 -220.5h4q54 88 143 132t193 44q108 0 208 -40.5
t168 -140.5t68 -265q0 -213 -125 -342t-342 -129zM594 780q-152 0 -239 -87t-87 -230q0 -67 18.5 -129.5t57.5 -114t96.5 -81t134.5 -29.5q78 0 137.5 24.5t100.5 70t62.5 107.5t21.5 135q0 159 -77.5 246.5t-225.5 87.5z" />
    <glyph glyph-name="seven" unicode="7" 
d="M283 0l569 1307h-733v123h872v-123l-553 -1307h-155z" />
    <glyph glyph-name="eight" unicode="8" 
d="M139 1110q0 86 41.5 151.5t105 104.5t139.5 58.5t144 19.5q118 0 214.5 -36.5t155 -111t58.5 -186.5q0 -207 -292 -367q80 -28 140 -58.5t104.5 -72.5t69.5 -102t25 -143q0 -133 -68 -219t-176 -124t-231 -38q-119 0 -228.5 42t-178 128t-68.5 211q0 104 42 176t114 118
t174 82q-285 135 -285 367zM903 379q0 63 -31.5 112t-78.5 82t-102.5 59.5l-121.5 57.5q-74 -29 -131.5 -55.5t-102.5 -61t-72 -86t-27 -120.5q0 -75 48 -134.5t125.5 -91.5t159.5 -32q89 0 165 27.5t122.5 88t46.5 154.5zM281 1098q0 -107 76 -171t212 -132
q80 39 141.5 79.5t103.5 97.5t42 126q0 106 -88 164.5t-199 58.5q-78 0 -143.5 -25.5t-105 -75.5t-39.5 -122z" />
    <glyph glyph-name="nine" unicode="9" 
d="M567 1444q259 0 359 -189t100 -489q0 -171 -33.5 -310.5t-109 -244.5t-201.5 -165t-301 -60q-96 0 -229 32l12 136q49 -21 114 -33t121 -12q174 0 283.5 84t156 217t46.5 292h-4q-53 -87 -142.5 -131.5t-193.5 -44.5q-176 0 -310.5 103.5t-134.5 343.5q0 211 125 341
t342 130zM545 649q153 0 239 87t86 231q0 90 -33.5 171.5t-104.5 132t-169 50.5q-101 0 -174 -43.5t-110 -120t-37 -174.5q0 -107 35 -181t102.5 -113.5t165.5 -39.5z" />
    <glyph glyph-name="colon" unicode=":" horiz-adv-x="569" 
d="M367 1044v-172h-166v172h166zM201 0v172h166v-172h-166z" />
    <glyph glyph-name="semicolon" unicode=";" horiz-adv-x="569" 
d="M111 -274l118 446h172l-161 -446h-129zM367 1044v-172h-166v172h166z" />
    <glyph glyph-name="less" unicode="&#x3c;" horiz-adv-x="1229" 
d="M1133 1053v-135l-881 -400l881 -399v-135l-1039 471v127z" />
    <glyph glyph-name="equal" unicode="=" horiz-adv-x="1229" 
d="M94 653v142h1039v-142h-1039zM94 242v141h1039v-141h-1039z" />
    <glyph glyph-name="greater" unicode="&#x3e;" horiz-adv-x="1229" 
d="M96 -16v135l883 399l-883 400v135l1039 -471v-127z" />
    <glyph glyph-name="question" unicode="?" horiz-adv-x="1024" 
d="M182 1274l-6 129q169 51 299 51q110 0 199 -40t141.5 -122.5t52.5 -204.5q0 -112 -44 -189t-132 -171.5t-131 -167.5t-43 -182v-31h-129v27q0 125 43 204.5t127.5 171t126 161t41.5 177.5q0 74 -33.5 129.5t-92 85t-132.5 29.5q-75 0 -141 -15t-146 -42zM373 0v172h166
v-172h-166z" />
    <glyph glyph-name="at" unicode="@" horiz-adv-x="1638" 
d="M545 594q3 -94 42 -145.5t105 -51.5q70 0 133.5 41.5t108.5 108.5t69.5 141t24.5 141q0 99 -48.5 142t-115.5 43t-142 -55t-126 -153t-51 -212zM1262 1102l-175 -557q-20 -58 -20 -101q0 -47 45 -47q75 0 145.5 61t113 162t42.5 216t-47.5 208t-129.5 157t-189.5 97
t-225.5 33q-168 0 -307 -79.5t-218 -220t-79 -314.5q0 -175 79 -317t218 -222t307 -80q169 0 311.5 61.5t229.5 166.5h125q-63 -109 -163 -188t-228 -121t-275 -42q-178 0 -317 61.5t-233.5 168.5t-141.5 239.5t-47 270.5q0 139 47 272t140 238.5t234 167t318 61.5
q183 0 351 -72t272 -213.5t104 -332.5q0 -124 -45 -228.5t-117.5 -179.5t-153 -114.5t-147.5 -39.5q-137 0 -161 125h-4q-56 -62 -108.5 -93.5t-143.5 -31.5q-79 0 -142 41.5t-99 113t-36 153.5q0 134 60.5 263.5t169 210.5t243.5 81q74 0 133 -39t93 -119l43 123h129z" />
    <glyph glyph-name="A" unicode="A" horiz-adv-x="1366" 
d="M27 0l585 1430h160l567 -1430h-147l-154 383h-721l-153 -383h-137zM991 506l-309 788l-311 -788h620z" />
    <glyph glyph-name="B" unicode="B" 
d="M164 0v1430h340q201 0 326.5 -81t125.5 -272q0 -138 -64.5 -219t-195.5 -106v-4q139 -24 221 -112.5t82 -227.5q0 -147 -72.5 -238.5t-197 -130.5t-280.5 -39h-285zM305 682v-559h148q171 0 288 62t117 216q0 171 -115.5 226t-312.5 55h-125zM309 1307v-502h158
q89 0 166 21.5t129.5 80.5t52.5 164q0 138 -93 187t-218 49h-195z" />
    <glyph glyph-name="C" unicode="C" horiz-adv-x="1366" 
d="M1165 1401l-8 -131q-62 33 -145.5 47t-173.5 14q-181 0 -312 -78.5t-199.5 -219.5t-68.5 -318q0 -182 67 -321.5t198 -217.5t315 -78q215 0 319 62l8 -123q-54 -32 -150.5 -47t-176.5 -15q-164 0 -300 52.5t-229 151t-142.5 235.5t-49.5 301q0 160 50.5 297.5t144 235.5
t228.5 152t298 54q85 0 182 -13t145 -40z" />
    <glyph glyph-name="D" unicode="D" horiz-adv-x="1366" 
d="M305 1307v-1184h117q670 0 670 602q0 160 -44.5 273t-121 179.5t-183 98t-231.5 31.5h-207zM164 0v1430h354q190 0 325.5 -51.5t221.5 -145.5t127 -225.5t41 -290.5q0 -191 -59.5 -327t-169.5 -223t-260 -127t-330 -40h-250z" />
    <glyph glyph-name="E" unicode="E" horiz-adv-x="1024" 
d="M176 0v1430h701v-123h-560v-510h531v-123h-531v-551h584v-123h-725z" />
    <glyph glyph-name="F" unicode="F" horiz-adv-x="909" 
d="M158 0v1430h680v-123h-539v-510h514v-123h-514v-674h-141z" />
    <glyph glyph-name="G" unicode="G" horiz-adv-x="1479" 
d="M1155 150v501h-332v123h473v-711q-104 -45 -212.5 -66.5t-231.5 -21.5q-164 0 -300 52.5t-229 151t-142.5 235.5t-49.5 301q0 160 50.5 296.5t144.5 235.5t228.5 153t297.5 54q101 0 209 -17t174 -51l-16 -131q-76 43 -165.5 59.5t-201.5 16.5q-181 0 -312 -78.5
t-199.5 -219.5t-68.5 -318q0 -182 67 -321.5t198 -217.5t315 -78q82 0 169.5 12.5t133.5 39.5z" />
    <glyph glyph-name="H" unicode="H" horiz-adv-x="1366" 
d="M180 0v1430h142v-633h722v633h142v-1430h-142v674h-722v-674h-142z" />
    <glyph glyph-name="I" unicode="I" horiz-adv-x="455" 
d="M158 0v1430h141v-1430h-141z" />
    <glyph glyph-name="J" unicode="J" horiz-adv-x="682" 
d="M512 1430v-1061q0 -177 -83 -285.5t-253 -108.5q-80 0 -147 25v125q53 -27 133 -27q74 0 121 35.5t67.5 96.5t20.5 135v1065h141z" />
    <glyph glyph-name="K" unicode="K" horiz-adv-x="1251" 
d="M195 0v1430h141v-642l643 642h184l-692 -674l752 -756h-195l-692 715v-715h-141z" />
    <glyph glyph-name="L" unicode="L" horiz-adv-x="909" 
d="M164 0v1430h141v-1307h574v-123h-715z" />
    <glyph glyph-name="M" unicode="M" horiz-adv-x="1821" 
d="M176 0v1430h219l523 -1258l524 1258h203v-1430h-142v1288h-4l-520 -1288h-121l-536 1288h-5v-1288h-141z" />
    <glyph glyph-name="N" unicode="N" horiz-adv-x="1366" 
d="M158 0v1430h178l727 -1258h4v1258h141v-1430h-190l-715 1233h-4v-1233h-141z" />
    <glyph glyph-name="O" unicode="O" horiz-adv-x="1479" 
d="M111 715q0 200 69.5 368.5t211.5 269.5t347 101t347.5 -101t212 -269.5t69.5 -368.5q-2 -165 -42.5 -301t-119.5 -234t-197 -151.5t-270 -53.5q-151 0 -269 53.5t-197 152t-119.5 234t-42.5 300.5zM739 1331q-159 0 -269 -87.5t-164 -229.5t-54 -299q0 -156 54 -299
t164 -230.5t269 -87.5t270 88t164.5 230.5t53.5 298.5t-53.5 298t-164.5 230t-270 88z" />
    <glyph glyph-name="P" unicode="P" horiz-adv-x="1024" 
d="M176 0v1430h352q135 0 235 -45.5t154 -136.5t54 -224q0 -129 -59.5 -220.5t-162.5 -138.5t-235 -47h-197v-618h-141zM317 1307v-566h99q90 0 160.5 8.5t128.5 37.5t91 86t33 151q0 136 -73.5 209.5t-208.5 73.5h-230z" />
    <glyph glyph-name="Q" unicode="Q" horiz-adv-x="1479" 
d="M1298 -266h-188l-254 252q-45 -11 -117 -11q-151 0 -269 53.5t-197 152t-119.5 234t-42.5 300.5q0 200 69.5 368.5t211.5 269.5t347 101t347.5 -101t212 -269.5t69.5 -368.5q-2 -129 -25.5 -237t-71 -198t-115.5 -154t-159 -101zM739 1331q-159 0 -269 -87.5t-164 -229.5
t-54 -299q0 -156 54 -299t164 -230.5t269 -87.5t270 88t164.5 230.5t53.5 298.5t-53.5 298t-164.5 230t-270 88z" />
    <glyph glyph-name="R" unicode="R" 
d="M322 1307v-510h149q145 0 250.5 62.5t105.5 199.5q0 111 -46.5 164.5t-122.5 68.5t-191 15h-145zM180 0v1430h369q96 0 174 -21.5t133 -66.5t84 -114.5t29 -168.5q0 -89 -42 -160.5t-114 -114.5t-162 -55v-4q78 -9 111 -46t74 -126l243 -553h-155l-207 483
q-40 90 -77.5 130t-81 50.5t-120.5 10.5h-116v-674h-142z" />
    <glyph glyph-name="S" unicode="S" horiz-adv-x="1024" 
d="M123 37l14 145q43 -28 91 -46.5t102 -28t123 -9.5q90 0 163 31.5t115.5 98t42.5 163.5q0 94 -76 153.5t-243.5 153.5t-251.5 175.5t-84 207.5q0 83 35 153.5t97 119.5t144 74.5t176 25.5q157 0 281 -47l-23 -129q-44 25 -113 39t-147 14t-149 -24t-115.5 -80t-44.5 -142
q0 -93 71.5 -148t240.5 -146t256 -181.5t87 -230.5q0 -138 -67.5 -228t-176 -133t-225.5 -43q-180 0 -323 62z" />
    <glyph glyph-name="T" unicode="T" horiz-adv-x="1024" 
d="M442 0v1307h-422v123h986v-123h-422v-1307h-142z" />
    <glyph glyph-name="U" unicode="U" horiz-adv-x="1366" 
d="M1202 1430v-930q0 -195 -80 -312.5t-197.5 -165t-240.5 -47.5t-240.5 47.5t-197.5 165t-80 312.5v930h141v-930q0 -118 43 -209t128.5 -142t205.5 -51t205.5 51t128.5 142t43 209v930h141z" />
    <glyph glyph-name="V" unicode="V" horiz-adv-x="1251" 
d="M1239 1430l-543 -1430h-151l-533 1430h150l461 -1289l477 1289h139z" />
    <glyph glyph-name="W" unicode="W" horiz-adv-x="1933" 
d="M1915 1430l-414 -1430h-168l-362 1270h-4l-369 -1270h-170l-410 1430h146l352 -1270h4l367 1270h170l360 -1270h4l359 1270h135z" />
    <glyph glyph-name="X" unicode="X" horiz-adv-x="1251" 
d="M14 0l533 752l-479 678h165l402 -578l405 578h158l-481 -678l520 -752h-172l-436 651l-453 -651h-162z" />
    <glyph glyph-name="Y" unicode="Y" horiz-adv-x="1251" 
d="M555 0v606l-530 824h163l437 -699l448 699h154l-531 -824v-606h-141z" />
    <glyph glyph-name="Z" unicode="Z" horiz-adv-x="1024" 
d="M43 0v123l745 1184h-727v123h877v-123l-741 -1184h766v-123h-920z" />
    <glyph glyph-name="bracketleft" unicode="[" horiz-adv-x="569" 
d="M141 -287v1835h332v-98h-203v-1638h203v-99h-332z" />
    <glyph glyph-name="backslash" unicode="\" horiz-adv-x="569" 
d="M78 1454l555 -1479h-141l-555 1479h141z" />
    <glyph glyph-name="bracketright" unicode="]" horiz-adv-x="569" 
d="M428 1548v-1835h-332v99h203v1638h-203v98h332z" />
    <glyph glyph-name="asciicircum" unicode="^" horiz-adv-x="1229" 
d="M102 543l447 887h131l446 -887h-145l-367 745l-366 -745h-146z" />
    <glyph glyph-name="underscore" unicode="_" horiz-adv-x="1024" 
d="M0 -256v102h1024v-102h-1024z" />
    <glyph glyph-name="grave" unicode="`" horiz-adv-x="455" 
d="M154 1466l190 -295h-94l-258 295h162z" />
    <glyph glyph-name="a" unicode="a" horiz-adv-x="1024" 
d="M762 0v168h-4q-27 -60 -81.5 -104.5t-119 -66.5t-131.5 -22q-136 0 -212.5 50t-104 116.5t-27.5 128.5q0 126 59 201t153 110.5t197 45.5t234 10h25v53q0 137 -54.5 202.5t-183.5 65.5q-174 0 -307 -86v125q60 30 149 51t158 21q129 0 210 -40.5t119 -125.5t38 -223v-461
q0 -79 2.5 -130.5t7.5 -88.5h-127zM750 463v63h-37q-220 0 -355 -49t-135 -203q0 -96 60.5 -142t156.5 -46q139 0 207 64.5t85.5 145t17.5 167.5z" />
    <glyph glyph-name="b" unicode="b" 
d="M150 0v1536h129v-668h4q12 34 51.5 81t109.5 83.5t164 36.5q113 0 195.5 -39.5t134 -112t76 -173.5t24.5 -222q0 -155 -48.5 -280t-145 -196t-236.5 -71q-112 0 -192.5 46t-132.5 145h-4v-166h-129zM897 522q0 113 -28 211.5t-97.5 161.5t-183.5 63q-85 0 -145 -39
t-95 -101.5t-52 -142t-17 -153.5q0 -103 31 -204t101 -166.5t177 -65.5q114 0 183.5 63t97.5 161.5t28 211.5z" />
    <glyph glyph-name="c" unicode="c" horiz-adv-x="909" 
d="M852 1028l-10 -123q-120 53 -224 53q-185 0 -289 -121t-104 -315q0 -88 25.5 -166.5t77 -141t122.5 -95.5t154 -33q110 0 236 47l12 -121q-109 -37 -268 -37q-122 0 -216 43t-157.5 120t-95 174.5t-31.5 209.5q0 119 37.5 220.5t105.5 174.5t163.5 112.5t209.5 39.5
q126 0 252 -41z" />
    <glyph glyph-name="d" unicode="d" 
d="M989 1536v-1536h-129v166h-4q-52 -99 -132.5 -145t-193.5 -46q-139 0 -236 71t-145.5 195t-48.5 281q0 121 25.5 222t76.5 173.5t133 112t195 39.5q94 0 163.5 -36t110 -83t52.5 -82h4v668h129zM242 522q0 -181 70.5 -308.5t238.5 -127.5q108 0 177 65.5t100.5 166.5
t31.5 204q0 104 -31.5 204t-100.5 166t-177 66q-114 0 -183.5 -63t-97.5 -161.5t-28 -211.5z" />
    <glyph glyph-name="e" unicode="e" horiz-adv-x="1024" 
d="M862 164v-131q-69 -28 -148.5 -43t-154.5 -15q-246 0 -360.5 147.5t-114.5 399.5q0 119 30.5 218t90 174.5t140.5 115t179 39.5q143 0 235.5 -69t136.5 -186t44 -263v-66h-715q0 -112 40 -203t118 -143.5t186 -52.5q68 0 157 24t136 54zM225 596h574q0 97 -27.5 179
t-88 132.5t-151.5 50.5q-90 0 -160 -52.5t-108.5 -137.5t-38.5 -172z" />
    <glyph glyph-name="f" unicode="f" horiz-adv-x="682" 
d="M250 0v934h-211v110h211v76q0 140 15 230t75.5 150.5t185.5 60.5q85 0 121 -21l-8 -113q-41 23 -102 23q-97 0 -127.5 -67t-30.5 -179v-69v-91h235v-110h-235v-934h-129z" />
    <glyph glyph-name="g" unicode="g" 
d="M242 522q0 -109 31 -202t99 -151t171 -58q161 0 239 123t78 288q0 436 -309 436q-114 0 -183.5 -63t-97.5 -161.5t-28 -211.5zM989 1044v-958q0 -236 -118 -382t-371 -146q-130 0 -316 55l11 129q143 -74 307 -74q121 0 194 40.5t109 113.5t46.5 164t10.5 219h-4
q-50 -108 -130.5 -156.5t-186.5 -48.5q-120 0 -204 46t-137.5 124t-76.5 169.5t-23 182.5q0 121 25.5 222t76.5 173.5t133 112t195 39.5q118 0 188.5 -28t137.5 -115h4v118h129z" />
    <glyph glyph-name="h" unicode="h" 
d="M162 0v1536h129v-668h4q27 58 75 104t111.5 71.5t139.5 25.5q198 0 277 -116t79 -328v-625h-129v623q0 158 -50.5 246.5t-197.5 88.5q-108 0 -177 -59t-100.5 -150.5t-31.5 -189.5v-559h-129z" />
    <glyph glyph-name="i" unicode="i" horiz-adv-x="455" 
d="M162 0v1044h129v-1044h-129zM162 1208v154h129v-154h-129z" />
    <glyph glyph-name="j" unicode="j" horiz-adv-x="455" 
d="M-57 -432v113q33 -13 77 -13q90 0 116 50t26 151v1175h129v-1191q0 -140 -52 -217.5t-184 -77.5q-62 0 -112 10zM162 1208v154h129v-154h-129z" />
    <glyph glyph-name="k" unicode="k" horiz-adv-x="1024" 
d="M162 0v1536h129v-920l467 428h166l-510 -462l571 -582h-178l-516 537v-537h-129z" />
    <glyph glyph-name="l" unicode="l" horiz-adv-x="455" 
d="M162 0v1536h129v-1536h-129z" />
    <glyph glyph-name="m" unicode="m" horiz-adv-x="1706" 
d="M1552 0h-129v694q0 120 -52.5 192t-168.5 72q-73 0 -137 -41.5t-103.5 -127.5t-39.5 -211v-578h-129v694q0 121 -52 192.5t-170 71.5q-73 0 -137 -41.5t-103.5 -127.5t-39.5 -211v-578h-129v799q0 162 -8 245h125v-176l4 -2q38 66 66 102t92.5 68.5t166.5 32.5
q57 0 113.5 -19.5t102.5 -68.5t61 -133h4q38 97 126 159t208 62q155 0 242 -96.5t87 -253.5v-719z" />
    <glyph glyph-name="n" unicode="n" 
d="M162 0v799q0 162 -8 245h125v-186h4q44 93 118 152t220 59q184 0 270 -108t86 -293v-668h-129v635q0 155 -60 239t-188 84q-109 0 -179 -55.5t-100 -141.5t-30 -183v-578h-129z" />
    <glyph glyph-name="o" unicode="o" 
d="M82 522q0 150 53 273.5t163 198.5t271 75t271.5 -75.5t163.5 -200t53 -271.5q0 -112 -29 -208.5t-90.5 -174t-154.5 -121t-214 -43.5t-213.5 44t-153.5 120.5t-90.5 174t-29.5 208.5zM223 522q0 -123 40 -221.5t118 -156.5t188 -58q109 0 188 58t118.5 156.5t39.5 221.5
q0 122 -40 221.5t-118.5 157t-187.5 57.5q-110 0 -187.5 -57.5t-118 -156.5t-40.5 -222z" />
    <glyph glyph-name="p" unicode="p" 
d="M150 -430v1474h129l-9 -190h4q32 56 64.5 97.5t100.5 79.5t169 38q113 0 195.5 -39.5t134 -112t76 -173.5t24.5 -222q0 -155 -48.5 -280t-145 -196t-236.5 -71q-120 0 -198 49.5t-127 153.5h-4v-608h-129zM897 522q0 113 -28 211.5t-97.5 161.5t-183.5 63
q-107 0 -177 -65.5t-101 -166t-31 -204.5q0 -103 31 -204t101 -166.5t177 -65.5q114 0 183.5 63t97.5 161.5t28 211.5z" />
    <glyph glyph-name="q" unicode="q" 
d="M989 1044v-1474h-129v608h-4q-47 -102 -125.5 -152.5t-200.5 -50.5q-139 0 -236 71t-145.5 195t-48.5 281q0 121 25.5 222t76.5 173.5t133 112t195 39.5q76 0 136 -23t97 -56t56 -59.5t37 -56.5h4v170h129zM242 522q0 -181 70.5 -308.5t238.5 -127.5q108 0 177 65.5
t100.5 166.5t31.5 204q0 104 -31.5 204t-100.5 166t-177 66q-114 0 -183.5 -63t-97.5 -161.5t-28 -211.5z" />
    <glyph glyph-name="r" unicode="r" horiz-adv-x="682" 
d="M162 0v811q0 97 -1 139.5t-7 93.5h129v-200h4q26 64 63 113.5t90 80.5t115 31q46 0 90 -12v-135q-40 12 -94 12q-97 0 -155 -62t-81.5 -155.5t-23.5 -200.5v-516h-129z" />
    <glyph glyph-name="s" unicode="s" horiz-adv-x="797" 
d="M70 25l12 127q132 -66 272 -66q64 0 116.5 22.5t84 64t31.5 99.5q0 82 -61 128.5t-186 106t-190 118t-65 159.5q0 97 47.5 161.5t125 94t167.5 29.5q49 0 125.5 -12.5t132.5 -34.5l-12 -113q-49 23 -111 36t-121 13q-109 0 -167 -39t-58 -135q0 -62 41 -88.5t187 -96
t216 -141t70 -186.5q0 -151 -112 -224t-253 -73q-168 0 -292 50z" />
    <glyph glyph-name="t" unicode="t" horiz-adv-x="682" 
d="M612 1044v-110h-237v-676q0 -77 33 -124.5t106 -47.5q57 0 119 25l8 -107q-75 -29 -158 -29q-82 0 -131 27t-72 75t-28.5 106t-5.5 141v610h-205v110h205v252l129 45v-297h237z" />
    <glyph glyph-name="u" unicode="u" 
d="M977 1044v-798q0 -162 8 -246h-125v186h-4q-41 -91 -117 -151t-221 -60q-125 0 -204 51.5t-115.5 141.5t-36.5 209v667h129v-634q0 -155 60 -239.5t188 -84.5q109 0 179 56t100 142t30 183v577h129z" />
    <glyph glyph-name="v" unicode="v" horiz-adv-x="909" 
d="M891 1044l-367 -1044h-151l-355 1044h142l289 -903h4l303 903h135z" />
    <glyph glyph-name="w" unicode="w" horiz-adv-x="1593" 
d="M1579 1044l-344 -1044h-156l-284 903h-4l-285 -903h-156l-336 1044h142l274 -903h4l291 903h156l276 -903h4l289 903h129z" />
    <glyph glyph-name="x" unicode="x" horiz-adv-x="909" 
d="M16 0l367 553l-332 491h160l248 -389l252 389h147l-323 -491l358 -553h-160l-274 451l-293 -451h-150z" />
    <glyph glyph-name="y" unicode="y" horiz-adv-x="909" 
d="M891 1044l-418 -1200q-43 -128 -106.5 -207t-161.5 -79q-70 0 -139 16l12 111q45 -17 96 -17q77 0 115 54.5t73 173.5l27 92l-371 1056h142l293 -872l-2 2h4l301 870h135z" />
    <glyph glyph-name="z" unicode="z" horiz-adv-x="909" 
d="M66 0v109l628 825h-604v110h754v-110l-629 -823h629v-111h-778z" />
    <glyph glyph-name="braceleft" unicode="{" horiz-adv-x="569" 
d="M559 1548v-98h-102q-45 0 -67.5 -54t-22.5 -136v-338q0 -130 -59 -202.5t-113 -86.5v-4q32 -8 72 -40.5t70 -96t30 -156.5v-332q0 -83 22.5 -137.5t67.5 -54.5h102v-99h-115q-88 0 -147 68t-59 182v348q0 120 -40.5 195.5t-119.5 75.5v98q52 0 88.5 36.5t54 100.5
t17.5 139v344q0 76 27.5 133t75 86t105.5 29h113z" />
    <glyph glyph-name="bar" unicode="|" horiz-adv-x="455" 
d="M158 -25v1561h141v-1561h-141z" />
    <glyph glyph-name="braceright" unicode="}" horiz-adv-x="569" 
d="M10 -287v99h103q46 0 68 54t22 136v338q0 131 59 203t113 86v4q-55 14 -113.5 86.5t-58.5 206.5v331q0 85 -22 139t-68 54h-103v98h115q58 0 105 -29.5t74.5 -86.5t27.5 -134v-348q0 -118 41 -194t119 -76v-98q-79 0 -119.5 -77.5t-40.5 -199.5v-344q0 -76 -27.5 -133
t-75 -86t-106.5 -29h-113z" />
    <glyph glyph-name="asciitilde" unicode="~" horiz-adv-x="1229" 
d="M1014 664l73 -105q-26 -51 -60 -91.5t-83 -67.5t-113 -27q-48 0 -97.5 18t-135.5 58q-95 44 -130.5 58.5t-72.5 14.5q-54 0 -93 -37.5t-87 -111.5l-74 104q98 187 256 187q82 0 234 -74q97 -47 132 -61.5t71 -14.5q39 0 69.5 20t57 53.5t53.5 76.5z" />
    <glyph glyph-name="Zcaron" horiz-adv-x="1024" 
d="M43 0v123l745 1184h-727v123h877v-123l-741 -1184h766v-123h-920zM756 1784l-178 -256h-158l-180 256h88l170 -180l170 180h88z" />
    <glyph glyph-name="ogonek" horiz-adv-x="455" 
d="M520 -281l29 -16q-20 -50 -73 -91.5t-134 -41.5q-70 0 -125 41t-55 108q0 91 74.5 157.5t173.5 123.5h57q-100 -78 -138 -137.5t-38 -116.5q0 -102 106 -102q80 0 123 75z" />
    <glyph glyph-name="caron" horiz-adv-x="455" 
d="M461 1272l-178 -256h-158l-180 256h88l170 -180l170 180h88z" />
    <glyph glyph-name="quotesinglbase" unicode="&#x201a;" horiz-adv-x="569" 
d="M147 -274l121 446h154l-158 -446h-117z" />
    <glyph glyph-name="florin" unicode="&#x192;" 
d="M938 858v-110h-258l-145 -744q-35 -168 -75 -260.5t-108.5 -139t-181.5 -46.5q-51 0 -119 20l33 109q7 -1 27.5 -7t32 -9t28.5 -3q74 0 119 44t69.5 118.5t47.5 196.5l137 721h-228v110h250l35 186q23 119 59.5 204.5t109 140.5t190.5 55q63 0 131 -35l-27 -102
q-65 26 -115 26q-80 0 -128 -60t-83 -226l-37 -189h236z" />
    <glyph glyph-name="quotedblbase" unicode="&#x201e;" 
d="M252 -274l121 446h153l-155 -446h-119zM612 -274l121 446h154l-158 -446h-117z" />
    <glyph glyph-name="ellipsis" unicode="&#x2026;" horiz-adv-x="2048" 
d="M260 0v172h166v-172h-166zM942 0v172h166v-172h-166zM1624 0v172h166v-172h-166z" />
    <glyph glyph-name="dagger" unicode="&#x2020;" 
d="M504 0v934h-359v110h359v386h129v-386h360v-110h-360v-934h-129z" />
    <glyph glyph-name="daggerdbl" unicode="&#x2021;" 
d="M145 385v111h359v438h-359v110h359v386h129v-386h360v-110h-360v-438h360v-111h-360v-385h-129v385h-359z" />
    <glyph glyph-name="circumflex" unicode="&#x2c6;" horiz-adv-x="455" 
d="M-47 1171l190 295h168l191 -295h-94l-181 209l-180 -209h-94z" />
    <glyph glyph-name="perthousand" unicode="&#x2030;" horiz-adv-x="2048" 
d="M86 1081q0 165 59 264t211 99q151 0 211 -99t60 -264q0 -164 -60.5 -263t-210.5 -99q-151 0 -210.5 99.5t-59.5 262.5zM215 1081q0 -74 7.5 -128.5t38.5 -95t95 -40.5q94 0 118 73.5t24 190.5q0 118 -24 191.5t-118 73.5q-93 0 -117 -73.5t-24 -191.5zM778 348
q0 160 57.5 261.5t213.5 101.5q155 0 212.5 -101.5t57.5 -261.5q0 -98 -21.5 -179t-82 -132t-166.5 -51q-107 0 -167.5 51t-82 132t-21.5 179zM907 348q0 -74 7.5 -128.5t38.5 -95t96 -40.5q93 0 117 73.5t24 190.5q0 118 -24 191t-117 73q-92 0 -117 -73t-25 -191z
M1421 348q0 160 57.5 261.5t213.5 101.5q155 0 212.5 -101.5t57.5 -261.5q0 -98 -21.5 -179t-82 -132t-166.5 -51q-107 0 -167.5 51t-82 132t-21.5 179zM1550 348q0 -74 7.5 -128.5t38.5 -95t96 -40.5q93 0 117 73.5t24 190.5q0 118 -24 191t-117 73q-92 0 -117 -73
t-25 -191zM221 -45l846 1520h119l-846 -1520h-119z" />
    <glyph glyph-name="Scaron" unicode="&#x160;" horiz-adv-x="1024" 
d="M123 37l14 145q43 -28 91 -46.5t102 -28t123 -9.5q90 0 163 31.5t115.5 98t42.5 163.5q0 94 -76 153.5t-243.5 153.5t-251.5 175.5t-84 207.5q0 83 35 153.5t97 119.5t144 74.5t176 25.5q157 0 281 -47l-23 -129q-44 25 -113 39t-147 14t-149 -24t-115.5 -80t-44.5 -142
q0 -93 71.5 -148t240.5 -146t256 -181.5t87 -230.5q0 -138 -67.5 -228t-176 -133t-225.5 -43q-180 0 -323 62zM803 1800l-178 -256h-158l-180 256h88l170 -180l170 180h88z" />
    <glyph glyph-name="guilsinglleft" unicode="&#x2039;" horiz-adv-x="569" 
d="M487 971l-272 -420l272 -420h-120l-287 420l287 420h120z" />
    <glyph glyph-name="OE" unicode="&#x152;" horiz-adv-x="1821" 
d="M1673 1430v-123h-555v-510h527v-123h-527v-551h580v-123h-676q-38 0 -105 -3.5l-134 -7t-105 -3.5q-192 0 -320 103t-187.5 270t-59.5 356q0 188 59 355t187.5 270.5t320.5 103.5q38 0 105 -3.5l134 -7t105 -3.5h651zM977 123v1184q-18 1 -110.5 6.5t-149.5 5.5
q-82 0 -182.5 -32.5t-191.5 -167t-91 -404.5t91 -404.5t191.5 -167t182.5 -32.5q108 0 260 12z" />
    <glyph glyph-name="Lslash" horiz-adv-x="909" 
d="M164 637v793h141v-693l359 252v-139l-359 -254v-473h574v-123h-715v496l-148 -105v141z" />
    <glyph glyph-name="ordmasculine" horiz-adv-x="739" 
d="M47 1122q0 69 18.5 127.5t59 105.5t102.5 73t144 26q161 -1 241 -93.5t80 -238.5q0 -86 -34.5 -161t-106 -120t-180.5 -46q-162 0 -243 92.5t-81 234.5zM152 1122q0 -69 26.5 -124t76 -86t116.5 -31t116 31t75 86t26 124q0 50 -14.5 95t-42 78t-69 53t-91.5 20
q-100 0 -159.5 -71.5t-59.5 -174.5z" />
    <glyph glyph-name="fraction" horiz-adv-x="342" 
d="M-311 -45l846 1520h116l-846 -1520h-116z" />
    <glyph glyph-name="breve" horiz-adv-x="455" 
d="M-25 1432h62q17 -60 69.5 -87.5t120.5 -27.5q70 0 122 27.5t69 87.5h61q-14 -106 -80 -172t-172 -66q-70 0 -123.5 30.5t-86.5 84.5t-42 123z" />
    <glyph glyph-name="quoteleft" unicode="&#x2018;" horiz-adv-x="569" 
d="M422 1430l-121 -447h-154l158 447h117z" />
    <glyph glyph-name="quoteright" unicode="&#x2019;" horiz-adv-x="569" 
d="M147 983l121 447h154l-158 -447h-117z" />
    <glyph glyph-name="quotedblleft" unicode="&#x201c;" 
d="M526 1430l-120 -447h-154l158 447h116zM887 1430l-121 -447h-154l158 447h117z" />
    <glyph glyph-name="quotedblright" unicode="&#x201d;" 
d="M612 983l121 447h154l-158 -447h-117zM252 983l121 447h153l-157 -447h-117z" />
    <glyph glyph-name="bullet" unicode="&#x2022;" horiz-adv-x="1024" 
d="M156 715q0 94 48 178t129.5 132t178.5 48q96 0 178.5 -48t131 -131.5t48.5 -178.5q0 -97 -48.5 -179.5t-131.5 -130t-178 -47.5q-96 0 -178 47.5t-130 130.5t-48 179z" />
    <glyph glyph-name="emdash" unicode="&#x2013;" horiz-adv-x="1024" 
d="M0 496v110h1024v-110h-1024z" />
    <glyph glyph-name="endash" unicode="&#x2014;" horiz-adv-x="2048" 
d="M0 496v110h2048v-110h-2048z" />
    <glyph glyph-name="tilde" unicode="&#x2dc;" horiz-adv-x="455" 
d="M18 1219h-73q16 77 58 130.5t108 53.5q50 0 125 -25l37 -12t33.5 -10t19.5 -4q35 0 63 18t37 51h76q-13 -98 -65 -139t-105 -41q-50 0 -127 27q-74 24 -96 24q-38 0 -56.5 -16.5t-34.5 -56.5z" />
    <glyph glyph-name="trademark" unicode="&#x2122;" horiz-adv-x="2028" 
d="M399 582v749h-268v99h666v-99h-269v-749h-129zM979 582v848h209l250 -654l250 654h208v-848h-129v737h-4l-282 -737h-88l-281 737h-4v-737h-129z" />
    <glyph glyph-name="scaron" unicode="&#x161;" horiz-adv-x="797" 
d="M70 25l12 127q132 -66 272 -66q64 0 116.5 22.5t84 64t31.5 99.5q0 82 -61 128.5t-186 106t-190 118t-65 159.5q0 97 47.5 161.5t125 94t167.5 29.5q49 0 125.5 -12.5t132.5 -34.5l-12 -113q-49 23 -111 36t-121 13q-109 0 -167 -39t-58 -135q0 -62 41 -88.5t187 -96
t216 -141t70 -186.5q0 -151 -112 -224t-253 -73q-168 0 -292 50zM655 1421l-178 -256h-158l-180 256h88l170 -180l170 180h88z" />
    <glyph glyph-name="guilsinglright" unicode="&#x203a;" horiz-adv-x="569" 
d="M82 131l272 420l-272 420h121l286 -420l-286 -420h-121z" />
    <glyph glyph-name="oe" unicode="&#x153;" horiz-adv-x="1821" 
d="M1030 596h574q0 97 -30 179t-90.5 132.5t-146.5 50.5q-74 0 -130.5 -26t-96.5 -75t-60 -114.5t-20 -146.5zM1745 485h-715q0 -112 40 -203t118 -143.5t186 -52.5q66 0 156 24t137 54v-131q-69 -28 -148.5 -43t-154.5 -15q-289 0 -401 213q-59 -100 -160 -156.5
t-242 -56.5q-121 0 -213.5 44t-153.5 120.5t-90.5 174t-29.5 208.5q0 150 53 273.5t163 198.5t271 75q91 0 166.5 -23.5t133 -73t93.5 -128.5q116 225 375 225q109 0 188.5 -41.5t129.5 -112t74 -163t24 -197.5v-70zM215 522q0 -123 40 -221.5t118 -156.5t188 -58
q328 0 328 436t-328 436q-110 0 -187.5 -57.5t-118 -156.5t-40.5 -222z" />
    <glyph glyph-name="dotlessi" horiz-adv-x="455" 
d="M162 0v1044h129v-1044h-129z" />
    <glyph glyph-name="dotlessi" unicode="&#x131;" horiz-adv-x="455" 
d="M162 0v1044h129v-1044h-129z" />
    <glyph glyph-name="zcaron" horiz-adv-x="909" 
d="M66 0v109l628 825h-604v110h754v-110l-629 -823h629v-111h-778zM741 1409l-178 -256h-157l-181 256h88l170 -180l170 180h88z" />
    <glyph glyph-name="Ydieresis" horiz-adv-x="1251" 
d="M555 0v606l-530 824h163l437 -699l448 699h154l-531 -824v-606h-141zM709 1518v153h137v-153h-137zM442 1518v153h138v-153h-138z" />
    <glyph glyph-name="Ydieresis" unicode="&#x178;" horiz-adv-x="1251" 
d="M555 0v606l-530 824h163l437 -699l448 699h154l-531 -824v-606h-141zM709 1518v153h137v-153h-137zM442 1518v153h138v-153h-138z" />
    <glyph glyph-name="fl" unicode="&#xa0;" 
d="M825 0v1536h129v-1536h-129zM250 0v934h-211v110h211v76q0 140 15 230t75.5 150.5t185.5 60.5q85 0 121 -21l-8 -113q-41 23 -102 23q-97 0 -127.5 -67t-30.5 -179v-69v-91h235v-110h-235v-934h-129z" />
    <glyph glyph-name="exclamdown" unicode="&#xa1;" horiz-adv-x="797" 
d="M315 -385l25 1083h117l24 -1083h-166zM481 1044v-172h-166v172h166z" />
    <glyph glyph-name="cent" unicode="&#xa2;" 
d="M489 170l263 786q-7 2 -15 2q-185 0 -289 -120t-104 -316q0 -109 38 -201.5t107 -150.5zM834 1204h96l-51 -151q38 -8 92 -25l-10 -123q-49 22 -117 39l-275 -823q72 -35 154 -35q110 0 235 47l13 -121q-109 -37 -269 -37q-94 0 -172 29l-63 -190h-96l75 225
q-78 44 -133.5 118.5t-82.5 168t-27 196.5q0 119 37.5 220.5t105.5 174.5t163.5 112.5t209.5 39.5q47 0 69 -4z" />
    <glyph glyph-name="sterling" unicode="&#xa3;" 
d="M137 0v123h211v588h-186v110h186v101q0 230 99.5 376t349.5 146q145 0 229 -43l-20 -127q-79 47 -209 47q-128 0 -196.5 -59.5t-90 -147.5t-21.5 -205v-88h340v-110h-340v-588h504v-123h-856z" />
    <glyph glyph-name="currency" unicode="&#xa4;" 
d="M55 289l117 112q-111 139 -111 314q0 86 27 166.5t84 142.5l-117 113l88 92l117 -115q61 51 145 80t164 29q178 0 312 -109l110 115l92 -92l-110 -113q52 -61 78 -142t26 -167q0 -185 -104 -314l110 -112l-92 -88l-110 114q-125 -108 -312 -108q-86 0 -166.5 27.5
t-142.5 80.5l-117 -114zM569 330q105 0 189 52.5t131 142t47 190.5q0 100 -47.5 189.5t-131.5 142.5t-188 53q-103 -4 -186.5 -58t-131.5 -141t-48 -186q0 -107 46.5 -195.5t131 -139t188.5 -50.5z" />
    <glyph glyph-name="yen" unicode="&#xa5;" 
d="M500 0v358h-295v99h295v153l-6 13h-289v98h233l-399 709h156l374 -691l385 691h146l-398 -709h234v-98h-289l-6 -13v-153h295v-99h-295v-358h-141z" />
    <glyph glyph-name="brokenbar" unicode="&#xa6;" horiz-adv-x="455" 
d="M158 -25v545h141v-545h-141zM158 991v545h141v-545h-141z" />
    <glyph glyph-name="section" unicode="&#xa7;" 
d="M862 1409l-14 -119q-33 19 -105.5 36t-138.5 17q-58 0 -119.5 -18.5t-105 -57.5t-43.5 -98q0 -88 69.5 -134t228 -112.5t237.5 -132.5t79 -186q0 -85 -36.5 -140.5t-116.5 -137.5q159 -89 159 -242q0 -94 -42.5 -157.5t-109.5 -102t-135 -54.5t-128 -16q-179 0 -346 58
l14 120q148 -67 332 -67q104 0 189 56t85 159q0 84 -73.5 127.5t-234 105t-243 131t-82.5 191.5q0 74 44 136.5t118 127.5l18 16l-14 9q-153 89 -153 223q0 104 55.5 173.5t140 101.5t174.5 32q162 0 297 -45zM641 782l-178 84l-14 -8q-21 -11 -51 -43t-52 -76.5t-22 -95.5
q0 -52 35.5 -94.5t97.5 -69.5l239 -104l43 43q78 78 78 162q0 78 -44 120t-132 82z" />
    <glyph glyph-name="dieresis" unicode="&#xa8;" horiz-adv-x="455" 
d="M326 1237v172h153v-172h-153zM-25 1237v172h154v-172h-154z" />
    <glyph glyph-name="copyright" unicode="&#xa9;" horiz-adv-x="1638" 
d="M221 715q0 -130 44.5 -245t126.5 -201.5t192.5 -134.5t236.5 -48t236 48t191.5 135t125 201.5t43.5 244.5t-44.5 245.5t-125 201.5t-190.5 133.5t-236 47.5t-236.5 -47.5t-191.5 -133t-126.5 -201.5t-45.5 -246zM1085 573h125q-21 -99 -72.5 -170t-128 -110t-163.5 -39
q-131 0 -232 60.5t-156 165.5t-55 235q0 133 53 239t153 165t231 59q93 0 172.5 -36t131 -105.5t64.5 -168.5h-123q-18 91 -83 145t-160 54q-141 0 -219 -96.5t-78 -253.5q0 -95 37 -176.5t106 -128.5t158 -47q96 0 160 56.5t79 151.5zM80 715q0 149 57.5 284.5t159 237
t238.5 159.5t284 58q148 0 285 -58t238.5 -159.5t159 -237t57.5 -284.5q0 -148 -58 -285t-159 -238t-238 -159t-285 -58q-147 0 -284 58t-238 159t-159 238t-58 285z" />
    <glyph glyph-name="ordfeminine" unicode="&#xaa;" horiz-adv-x="666" 
d="M496 811v98h-4q-22 -52 -81 -83t-126 -31q-236 0 -236 186q0 99 63 150t151 64t208 13h16v31q0 54 -27.5 91.5t-117.5 37.5q-111 0 -201 -49v94q112 41 213 41q238 0 238 -233v-277q0 -88 6 -133h-102zM487 1085v37h-24q-131 0 -220 -29t-89 -102q0 -110 141 -110
q124 0 158 63t34 141z" />
    <glyph glyph-name="guillemotleft" unicode="&#xab;" 
d="M594 971l-272 -420l272 -420h-121l-287 420l287 420h121zM952 971l-272 -420l272 -420h-121l-286 420l286 420h121z" />
    <glyph glyph-name="logicalnot" unicode="&#xac;" horiz-adv-x="1229" 
d="M94 653v142h1039v-562h-142v420h-897z" />
    <glyph glyph-name="minus" unicode="&#xad;" horiz-adv-x="1229" 
d="M94 449v141h1039v-141h-1039z" />
    <glyph glyph-name="registered" unicode="&#xae;" horiz-adv-x="1638" 
d="M80 715q0 149 57.5 284.5t159 237t238.5 159.5t284 58q148 0 285 -58t238.5 -159.5t159 -237t57.5 -284.5q0 -148 -58 -285t-159 -238t-238 -159t-285 -58q-147 0 -284 58t-238 159t-159 238t-58 285zM221 715q0 -130 44.5 -245t126.5 -201.5t192.5 -134.5t236.5 -48
t236 48t191.5 135t125 201.5t43.5 244.5t-44.5 245.5t-125 201.5t-190.5 133.5t-236 47.5t-236.5 -47.5t-191.5 -133t-126.5 -201.5t-45.5 -246zM537 283v866h331q297 0 297 -244q0 -105 -61.5 -172t-161.5 -67l246 -383h-150l-241 383h-119v-383h-141zM678 1038v-262h168
q89 0 133.5 28t44.5 107q0 68 -50 97.5t-128 29.5h-168z" />
    <glyph glyph-name="macron" unicode="&#xaf;" horiz-adv-x="455" 
d="M-23 1257v111h500v-111h-500z" />
    <glyph glyph-name="ring" unicode="&#xb0;" horiz-adv-x="455" 
d="M31 1327q0 55 25.5 99t70 70t100.5 26q42 0 78.5 -15t62.5 -41t41 -61.5t15 -77.5q0 -83 -56.5 -138.5t-140.5 -55.5t-140 56t-56 138zM104 1327q0 -50 37 -85.5t86 -35.5q52 0 87.5 34.5t35.5 86.5q0 51 -35 86t-88 35q-49 0 -86 -36t-37 -85z" />
    <glyph glyph-name="plusminus" unicode="&#xb1;" horiz-adv-x="1229" 
d="M94 551v141h449v346h141v-346h449v-141h-449v-346h-141v346h-449zM94 0v141h1039v-141h-1039z" />
    <glyph glyph-name="twosuperior" unicode="&#xb2;" horiz-adv-x="739" 
d="M92 582v84l217 194q96 92 155.5 178.5t59.5 161.5q0 67 -45 106.5t-114 39.5q-110 0 -224 -62l-16 102q53 26 118 42t122 16q125 0 200.5 -58t75.5 -180q0 -111 -64 -198.5t-180 -194.5l-151 -133h403v-98h-557z" />
    <glyph glyph-name="threesuperior" unicode="&#xb3;" horiz-adv-x="739" 
d="M203 975v98h57q101 0 189 30t88 118q0 75 -63 100t-142 25q-110 0 -211 -48l-8 107q94 39 243 39q119 0 208 -54t89 -161q0 -76 -52.5 -128.5t-141.5 -72.5v-4q95 -4 146.5 -63.5t51.5 -149.5q0 -120 -103 -182t-239 -62q-145 0 -245 35l10 107q107 -43 246 -43
q86 0 150.5 43.5t64.5 113.5q0 99 -83 125.5t-198 26.5h-57z" />
    <glyph glyph-name="acute" unicode="&#xb4;" horiz-adv-x="455" 
d="M109 1171l190 295h162l-258 -295h-94z" />
    <glyph glyph-name="mu" unicode="&#xb5;" 
d="M162 -430v1474h129v-634q0 -155 60 -239.5t188 -84.5q109 0 179 56t100 142t30 183v577h129v-798q0 -162 8 -246h-125v186h-4q-41 -91 -117 -151t-221 -60q-128 0 -227 60v-465h-129z" />
    <glyph glyph-name="paragraph" unicode="&#xb6;" horiz-adv-x="1229" 
d="M524 -221v876q-120 0 -218 50.5t-153 139t-55 191.5q0 196 123.5 295t343.5 99h492v-1651h-129v1540h-275v-1540h-129z" />
    <glyph glyph-name="periodcentered" unicode="&#xb7;" horiz-adv-x="569" 
d="M188 637q0 44 31 71t68 27t66.5 -27t29.5 -71t-29 -70t-67 -26t-68.5 25.5t-30.5 70.5z" />
    <glyph glyph-name="periodcentered" unicode="&#x2219;" horiz-adv-x="569" 
d="M188 637q0 44 31 71t68 27t66.5 -27t29.5 -71t-29 -70t-67 -26t-68.5 25.5t-30.5 70.5z" />
    <glyph glyph-name="cedilla" unicode="&#xb8;" horiz-adv-x="455" 
d="M154 -174l59 174h55l-39 -111q9 1 20.5 2.5l23.5 3t24 1.5q64 0 106.5 -35.5t42.5 -98.5q0 -79 -66.5 -110t-158.5 -31q-79 0 -207 45l15 76q29 -20 80 -39.5t102 -19.5q47 0 76.5 19.5t29.5 55.5t-20.5 56t-56.5 20q-49 0 -86 -8z" />
    <glyph glyph-name="onesuperior" unicode="&#xb9;" horiz-adv-x="739" 
d="M475 1444v-862h-117v749l-155 -119l-45 68l211 164h106z" />
    <glyph glyph-name="degree" unicode="&#xba;" horiz-adv-x="819" 
d="M410 1346q-96 0 -158 -56.5t-62 -150.5q0 -57 31 -104.5t82.5 -75t106.5 -27.5t106 27.5t82 75t31 104.5q0 95 -61.5 151t-157.5 56zM410 1444q86 0 160 -38.5t118.5 -108.5t44.5 -158q0 -89 -44 -158t-118.5 -108t-160.5 -39t-161.5 39t-119 109t-43.5 157q0 85 44 156
t119 110t161 39z" />
    <glyph glyph-name="guillemotright" unicode="&#xbb;" 
d="M545 131l272 420l-272 420h121l286 -420l-286 -420h-121zM186 131l273 420l-273 420h121l287 -420l-287 -420h-121z" />
    <glyph glyph-name="onequarter" unicode="&#xbc;" horiz-adv-x="1708" 
d="M266 -45l908 1520h116l-907 -1520h-117zM463 1444v-862h-117v749l-156 -119l-45 68l211 164h107zM1331 285v436h-4l-328 -436h332zM883 186v101l426 575h139v-577h115v-99h-115v-186h-117v186h-448z" />
    <glyph glyph-name="onehalf" unicode="&#xbd;" horiz-adv-x="1708" 
d="M240 -45l907 1520h117l-908 -1520h-116zM438 1444v-862h-116v749l-156 -119l-45 68l211 164h106zM1030 0v84l217 195q215 205 215 339q0 67 -45 106.5t-114 39.5q-110 0 -224 -62l-16 103q117 57 240 57q125 0 200.5 -58t75.5 -179q0 -111 -62.5 -196.5t-181.5 -197.5
l-151 -133h403v-98h-557z" />
    <glyph glyph-name="threequarters" unicode="&#xbe;" horiz-adv-x="1708" 
d="M424 -45l907 1520h119l-907 -1520h-119zM1370 285v436h-4l-328 -436h332zM922 186v101l426 575h139v-577h115v-99h-115v-186h-117v186h-448zM242 975v98h57q101 0 188.5 30t87.5 118q0 74 -62.5 99.5t-141.5 25.5q-110 0 -211 -48l-8 107q94 39 243 39q119 0 208 -54
t89 -161q0 -76 -52.5 -128.5t-141.5 -72.5v-4q95 -4 146.5 -63.5t51.5 -149.5q0 -120 -103 -182t-239 -62q-145 0 -245 35l10 107q107 -43 246 -43q86 0 150.5 43.5t64.5 113.5q0 99 -83 125.5t-198 26.5h-57z" />
    <glyph glyph-name="questiondown" unicode="&#xbf;" horiz-adv-x="1024" 
d="M842 -229l6 -129q-172 -52 -299 -52q-110 0 -199 40t-141.5 122.5t-52.5 204.5q0 113 43 187.5t132.5 172t132 170t42.5 181.5v30h129v-26q0 -125 -43 -206t-126.5 -170t-126 -159.5t-42.5 -179.5q0 -74 33.5 -129.5t92 -85t132.5 -29.5q54 0 101 8t98.5 23t87.5 27z
M651 1044v-172h-166v172h166z" />
    <glyph glyph-name="Agrave" unicode="&#xc0;" horiz-adv-x="1366" 
d="M27 0l585 1430h160l567 -1430h-147l-154 383h-721l-153 -383h-137zM991 506l-309 788l-311 -788h620zM668 1776l170 -250h-84l-232 250h146z" />
    <glyph glyph-name="Aacute" unicode="&#xc1;" horiz-adv-x="1366" 
d="M27 0l585 1430h160l567 -1430h-147l-154 383h-721l-153 -383h-137zM991 506l-309 788l-311 -788h620zM582 1532l170 250h145l-231 -250h-84z" />
    <glyph glyph-name="Acircumflex" unicode="&#xc2;" horiz-adv-x="1366" 
d="M27 0l585 1430h160l567 -1430h-147l-154 383h-721l-153 -383h-137zM991 506l-309 788l-311 -788h620zM446 1499l172 244h150l170 -244h-84l-160 150l-164 -150h-84z" />
    <glyph glyph-name="Atilde" unicode="&#xc3;" horiz-adv-x="1366" 
d="M27 0l585 1430h160l567 -1430h-147l-154 383h-721l-153 -383h-137zM991 506l-309 788l-311 -788h620zM518 1522h-65q14 68 51 116t96 48q37 0 111 -21q20 -6 38 -12l25.5 -8.5t16.5 -2.5q29 0 54 17t32 43h67q-12 -88 -58 -124t-93 -36q-42 0 -111 23q-66 20 -84 20
q-33 0 -49.5 -14.5t-30.5 -48.5z" />
    <glyph glyph-name="Adieresis" unicode="&#xc4;" horiz-adv-x="1366" 
d="M27 0l585 1430h160l567 -1430h-147l-154 383h-721l-153 -383h-137zM991 506l-309 788l-311 -788h620zM762 1524v153h137v-153h-137zM496 1524v153h137v-153h-137z" />
    <glyph glyph-name="Aring" unicode="&#xc5;" horiz-adv-x="1366" 
d="M27 0l585 1430h160l567 -1430h-147l-154 383h-721l-153 -383h-137zM991 506l-309 788l-311 -788h620zM528 1683q0 74 50 123t124 49q49 0 89 -22.5t63 -61.5t23 -88q0 -48 -23 -87t-63 -62t-89 -23q-73 0 -123.5 49.5t-50.5 122.5zM594 1683q0 -45 32.5 -75.5t75.5 -30.5
q46 0 77.5 30.5t31.5 75.5t-32 76t-77 31q-42 0 -75 -31t-33 -76z" />
    <glyph glyph-name="AE" unicode="&#xc6;" horiz-adv-x="1821" 
d="M977 506v813h-4l-504 -813h508zM0 0l893 1430h780v-123h-555v-510h527v-123h-527v-551h580v-123h-719v383h-586l-237 -383h-156z" />
    <glyph glyph-name="Ccedilla" unicode="&#xc7;" horiz-adv-x="1366" 
d="M1165 1401l-8 -131q-62 33 -145.5 47t-173.5 14q-181 0 -312 -78.5t-199.5 -219.5t-68.5 -318q0 -182 67 -321.5t198 -217.5t315 -78q215 0 319 62l8 -123q-54 -32 -150.5 -47t-176.5 -15q-164 0 -300 52.5t-229 151t-142.5 235.5t-49.5 301q0 160 50.5 297.5t144 235.5
t228.5 152t298 54q85 0 182 -13t145 -40zM539 -164l53 160h49l-35 -98q14 1 26 1.5t32 0.5q58 0 95.5 -31t37.5 -86q0 -127 -201 -127q-32 0 -69 7.5t-67 16.5t-48 15l12 67q21 -16 69.5 -34.5t92.5 -18.5q94 0 94 66q0 31 -18 48t-50 17q-49 0 -73 -4z" />
    <glyph glyph-name="Egrave" unicode="&#xc8;" horiz-adv-x="1024" 
d="M176 0v1430h701v-123h-560v-510h531v-123h-531v-551h584v-123h-725zM483 1765l170 -249h-84l-231 249h145z" />
    <glyph glyph-name="Eacute" unicode="&#xc9;" horiz-adv-x="1024" 
d="M176 0v1430h701v-123h-560v-510h531v-123h-531v-551h584v-123h-725zM428 1542l170 250h145l-231 -250h-84z" />
    <glyph glyph-name="Ecircumflex" unicode="&#xca;" horiz-adv-x="1024" 
d="M176 0v1430h701v-123h-560v-510h531v-123h-531v-551h584v-123h-725zM279 1522l172 243h149l170 -243h-84l-160 149l-164 -149h-83z" />
    <glyph glyph-name="Edieresis" unicode="&#xcb;" horiz-adv-x="1024" 
d="M176 0v1430h701v-123h-560v-510h531v-123h-531v-551h584v-123h-725zM586 1522v153h137v-153h-137zM319 1522v153h138v-153h-138z" />
    <glyph glyph-name="Igrave" unicode="&#xcc;" horiz-adv-x="455" 
d="M158 0v1430h141v-1430h-141zM182 1806l170 -250h-84l-231 250h145z" />
    <glyph glyph-name="Iacute" unicode="&#xcd;" horiz-adv-x="455" 
d="M158 0v1430h141v-1430h-141zM106 1542l170 250h146l-232 -250h-84z" />
    <glyph glyph-name="Icircumflex" unicode="&#xce;" horiz-adv-x="455" 
d="M158 0v1430h141v-1430h-141zM-27 1532l172 244h150l170 -244h-84l-160 149l-164 -149h-84z" />
    <glyph glyph-name="Idieresis" unicode="&#xcf;" horiz-adv-x="455" 
d="M158 0v1430h141v-1430h-141zM301 1532v154h137v-154h-137zM35 1532v154h137v-154h-137z" />
    <glyph glyph-name="Eth" unicode="&#xd0;" horiz-adv-x="1366" 
d="M164 797v633h242q827 0 827 -713q0 -191 -59.5 -327t-169.5 -223t-260 -127t-330 -40h-250v674h-141v123h141zM305 1307v-510h436v-123h-436v-551h117q670 0 670 602q0 170 -48.5 283t-138.5 178.5t-216 93t-290 27.5h-94z" />
    <glyph glyph-name="Ntilde" unicode="&#xd1;" horiz-adv-x="1366" 
d="M158 0v1430h178l727 -1258h4v1258h141v-1430h-190l-715 1233h-4v-1233h-141zM526 1522h-65q14 68 51 116t96 48q37 0 111 -21q23 -7 39 -12.5t24 -8t17 -2.5q29 0 54 17t32 43h67q-12 -88 -58 -124t-93 -36q-42 0 -111 23q-66 20 -84 20q-33 0 -49.5 -14.5t-30.5 -48.5z
" />
    <glyph glyph-name="Ograve" unicode="&#xd2;" horiz-adv-x="1479" 
d="M111 715q0 200 69.5 368.5t211.5 269.5t347 101t347.5 -101t212 -269.5t69.5 -368.5q-2 -165 -42.5 -301t-119.5 -234t-197 -151.5t-270 -53.5q-151 0 -269 53.5t-197 152t-119.5 234t-42.5 300.5zM739 1331q-159 0 -269 -87.5t-164 -229.5t-54 -299q0 -156 54 -299
t164 -230.5t269 -87.5t270 88t164.5 230.5t53.5 298.5t-53.5 298t-164.5 230t-270 88zM725 1800l170 -250h-84l-231 250h145z" />
    <glyph glyph-name="Oacute" unicode="&#xd3;" horiz-adv-x="1479" 
d="M111 715q0 200 69.5 368.5t211.5 269.5t347 101t347.5 -101t212 -269.5t69.5 -368.5q-2 -165 -42.5 -301t-119.5 -234t-197 -151.5t-270 -53.5q-151 0 -269 53.5t-197 152t-119.5 234t-42.5 300.5zM739 1331q-159 0 -269 -87.5t-164 -229.5t-54 -299q0 -156 54 -299
t164 -230.5t269 -87.5t270 88t164.5 230.5t53.5 298.5t-53.5 298t-164.5 230t-270 88zM649 1546l170 250h146l-232 -250h-84z" />
    <glyph glyph-name="Ocircumflex" unicode="&#xd4;" horiz-adv-x="1479" 
d="M111 715q0 200 69.5 368.5t211.5 269.5t347 101t347.5 -101t212 -269.5t69.5 -368.5q-2 -165 -42.5 -301t-119.5 -234t-197 -151.5t-270 -53.5q-151 0 -269 53.5t-197 152t-119.5 234t-42.5 300.5zM739 1331q-159 0 -269 -87.5t-164 -229.5t-54 -299q0 -156 54 -299
t164 -230.5t269 -87.5t270 88t164.5 230.5t53.5 298.5t-53.5 298t-164.5 230t-270 88zM504 1516l172 243h149l170 -243h-84l-159 149l-164 -149h-84z" />
    <glyph glyph-name="Otilde" unicode="&#xd5;" horiz-adv-x="1479" 
d="M111 715q0 200 69.5 368.5t211.5 269.5t347 101t347.5 -101t212 -269.5t69.5 -368.5q-2 -165 -42.5 -301t-119.5 -234t-197 -151.5t-270 -53.5q-151 0 -269 53.5t-197 152t-119.5 234t-42.5 300.5zM739 1331q-159 0 -269 -87.5t-164 -229.5t-54 -299q0 -156 54 -299
t164 -230.5t269 -87.5t270 88t164.5 230.5t53.5 298.5t-53.5 298t-164.5 230t-270 88zM555 1536h-66q16 70 52 117t96 47q44 0 111 -21q28 -8 49.5 -15t29.5 -7q30 0 54.5 15.5t31.5 43.5h68q-12 -87 -58.5 -123.5t-93.5 -36.5q-34 0 -110 23q-66 20 -84 20q-32 0 -50 -14.5
t-30 -48.5z" />
    <glyph glyph-name="Odieresis" unicode="&#xd6;" horiz-adv-x="1479" 
d="M111 715q0 200 69.5 368.5t211.5 269.5t347 101t347.5 -101t212 -269.5t69.5 -368.5q-2 -165 -42.5 -301t-119.5 -234t-197 -151.5t-270 -53.5q-151 0 -269 53.5t-197 152t-119.5 234t-42.5 300.5zM739 1331q-159 0 -269 -87.5t-164 -229.5t-54 -299q0 -156 54 -299
t164 -230.5t269 -87.5t270 88t164.5 230.5t53.5 298.5t-53.5 298t-164.5 230t-270 88zM811 1546v154h137v-154h-137zM545 1546v154h137v-154h-137z" />
    <glyph glyph-name="multiply" unicode="&#xd7;" horiz-adv-x="1229" 
d="M516 526l-371 369l101 100l370 -370l367 370l102 -100l-368 -369l368 -370l-102 -103l-367 373l-370 -373l-101 103z" />
    <glyph glyph-name="Oslash" unicode="&#xd8;" horiz-adv-x="1479" 
d="M340 346l731 836q-62 71 -144.5 110t-187.5 39q-159 0 -269 -87.5t-164 -229.5t-54 -299q0 -102 22.5 -195t65.5 -174zM1135 1094l-734 -840q61 -73 147.5 -114.5t190.5 -41.5q159 0 270 88t164.5 230.5t53.5 298.5q0 45 -6 101.5t-16 100t-28 90.5t-42 87zM1339 1489
l80 -68l-186 -215q44 -61 75 -141.5t45.5 -170.5t14.5 -179q-2 -165 -42.5 -301t-119.5 -234t-197 -151.5t-270 -53.5q-275 0 -434 170l-166 -190l-80 68l181 206q-40 59 -69.5 136.5t-43.5 163t-16 186.5q0 200 69.5 368.5t211.5 269.5t347 101q263 0 424 -166z" />
    <glyph glyph-name="Ugrave" unicode="&#xd9;" horiz-adv-x="1366" 
d="M1202 1430v-930q0 -195 -80 -312.5t-197.5 -165t-240.5 -47.5t-240.5 47.5t-197.5 165t-80 312.5v930h141v-930q0 -118 43 -209t128.5 -142t205.5 -51t205.5 51t128.5 142t43 209v930h141zM629 1786l170 -250h-84l-232 250h146z" />
    <glyph glyph-name="Uacute" unicode="&#xda;" horiz-adv-x="1366" 
d="M1202 1430v-930q0 -195 -80 -312.5t-197.5 -165t-240.5 -47.5t-240.5 47.5t-197.5 165t-80 312.5v930h141v-930q0 -118 43 -209t128.5 -142t205.5 -51t205.5 51t128.5 142t43 209v930h141zM584 1542l170 250h145l-231 -250h-84z" />
    <glyph glyph-name="Ucircumflex" unicode="&#xdb;" horiz-adv-x="1366" 
d="M1202 1430v-930q0 -195 -80 -312.5t-197.5 -165t-240.5 -47.5t-240.5 47.5t-197.5 165t-80 312.5v930h141v-930q0 -118 43 -209t128.5 -142t205.5 -51t205.5 51t128.5 142t43 209v930h141zM455 1544l172 244h149l170 -244h-84l-160 150l-163 -150h-84z" />
    <glyph glyph-name="Udieresis" unicode="&#xdc;" horiz-adv-x="1366" 
d="M1202 1430v-930q0 -195 -80 -312.5t-197.5 -165t-240.5 -47.5t-240.5 47.5t-197.5 165t-80 312.5v930h141v-930q0 -118 43 -209t128.5 -142t205.5 -51t205.5 51t128.5 142t43 209v930h141zM752 1544v154h137v-154h-137zM485 1544v154h138v-154h-138z" />
    <glyph glyph-name="Yacute" unicode="&#xdd;" horiz-adv-x="1251" 
d="M555 0v606l-530 824h163l437 -699l448 699h154l-531 -824v-606h-141zM575 1532l170 250h146l-232 -250h-84z" />
    <glyph glyph-name="Thorn" unicode="&#xde;" horiz-adv-x="1024" 
d="M176 0v1430h141v-267h211q135 0 235 -45.5t154 -136.5t54 -223q0 -129 -59.5 -220.5t-162.5 -138.5t-235 -47h-197v-352h-141zM317 1040v-565h99q90 0 160.5 8.5t128.5 37.5t91 86t33 151q0 136 -73 209t-209 73h-230z" />
    <glyph glyph-name="germandbls" unicode="&#xdf;" 
d="M162 0v1110q0 101 25.5 183.5t76.5 142.5t128 92.5t179 32.5q115 0 203 -46t136 -133t48 -202q0 -139 -72.5 -233.5t-201.5 -123.5v-4q172 -13 262 -113t90 -266q0 -130 -53.5 -234t-154.5 -162t-236 -58q-108 0 -174 24l8 121q56 -35 168 -35q93 0 162 43.5t104 121
t35 177.5q0 116 -47.5 185.5t-133.5 99t-210 29.5h-21v110h37q84 0 152.5 39t106.5 111t38 164q0 120 -66 197t-180 77q-126 0 -203 -86t-77 -299v-1065h-129z" />
    <glyph glyph-name="agrave" unicode="&#xe0;" horiz-adv-x="1024" 
d="M762 0v168h-4q-27 -60 -81.5 -104.5t-119 -66.5t-131.5 -22q-136 0 -212.5 50t-104 116.5t-27.5 128.5q0 126 59 201t153 110.5t197 45.5t234 10h25v53q0 137 -54.5 202.5t-183.5 65.5q-174 0 -307 -86v125q60 30 149 51t158 21q129 0 210 -40.5t119 -125.5t38 -223v-461
q0 -79 2.5 -130.5t7.5 -88.5h-127zM750 463v63h-37q-220 0 -355 -49t-135 -203q0 -96 60.5 -142t156.5 -46q139 0 207 64.5t85.5 145t17.5 167.5zM492 1425l170 -249h-84l-232 249h146z" />
    <glyph glyph-name="aacute" unicode="&#xe1;" horiz-adv-x="1024" 
d="M762 0v168h-4q-27 -60 -81.5 -104.5t-119 -66.5t-131.5 -22q-136 0 -212.5 50t-104 116.5t-27.5 128.5q0 126 59 201t153 110.5t197 45.5t234 10h25v53q0 137 -54.5 202.5t-183.5 65.5q-174 0 -307 -86v125q60 30 149 51t158 21q129 0 210 -40.5t119 -125.5t38 -223v-461
q0 -79 2.5 -130.5t7.5 -88.5h-127zM750 463v63h-37q-220 0 -355 -49t-135 -203q0 -96 60.5 -142t156.5 -46q139 0 207 64.5t85.5 145t17.5 167.5zM416 1171l170 250h145l-231 -250h-84z" />
    <glyph glyph-name="acircumflex" unicode="&#xe2;" horiz-adv-x="1024" 
d="M762 0v168h-4q-27 -60 -81.5 -104.5t-119 -66.5t-131.5 -22q-136 0 -212.5 50t-104 116.5t-27.5 128.5q0 126 59 201t153 110.5t197 45.5t234 10h25v53q0 137 -54.5 202.5t-183.5 65.5q-174 0 -307 -86v125q60 30 149 51t158 21q129 0 210 -40.5t119 -125.5t38 -223v-461
q0 -79 2.5 -130.5t7.5 -88.5h-127zM750 463v63h-37q-220 0 -355 -49t-135 -203q0 -96 60.5 -142t156.5 -46q139 0 207 64.5t85.5 145t17.5 167.5zM248 1151l172 244h149l170 -244h-84l-159 149l-164 -149h-84z" />
    <glyph glyph-name="atilde" unicode="&#xe3;" horiz-adv-x="1024" 
d="M762 0v168h-4q-27 -60 -81.5 -104.5t-119 -66.5t-131.5 -22q-136 0 -212.5 50t-104 116.5t-27.5 128.5q0 126 59 201t153 110.5t197 45.5t234 10h25v53q0 137 -54.5 202.5t-183.5 65.5q-174 0 -307 -86v125q60 30 149 51t158 21q129 0 210 -40.5t119 -125.5t38 -223v-461
q0 -79 2.5 -130.5t7.5 -88.5h-127zM750 463v63h-37q-220 0 -355 -49t-135 -203q0 -96 60.5 -142t156.5 -46q139 0 207 64.5t85.5 145t17.5 167.5zM362 1141h-65q14 68 50.5 116t96.5 48q37 0 111 -21q27 -7 49.5 -14.5t30.5 -7.5q30 0 54.5 15.5t31.5 43.5h67
q-12 -88 -58 -124t-93 -36q-35 0 -111 23q-64 20 -84 20q-33 0 -49.5 -14.5t-30.5 -48.5z" />
    <glyph glyph-name="adieresis" unicode="&#xe4;" horiz-adv-x="1024" 
d="M762 0v168h-4q-27 -60 -81.5 -104.5t-119 -66.5t-131.5 -22q-136 0 -212.5 50t-104 116.5t-27.5 128.5q0 126 59 201t153 110.5t197 45.5t234 10h25v53q0 137 -54.5 202.5t-183.5 65.5q-174 0 -307 -86v125q60 30 149 51t158 21q129 0 210 -40.5t119 -125.5t38 -223v-461
q0 -79 2.5 -130.5t7.5 -88.5h-127zM750 463v63h-37q-220 0 -355 -49t-135 -203q0 -96 60.5 -142t156.5 -46q139 0 207 64.5t85.5 145t17.5 167.5zM596 1171v154h137v-154h-137zM330 1171v154h137v-154h-137z" />
    <glyph glyph-name="aring" unicode="&#xe5;" horiz-adv-x="1024" 
d="M762 0v168h-4q-27 -60 -81.5 -104.5t-119 -66.5t-131.5 -22q-136 0 -212.5 50t-104 116.5t-27.5 128.5q0 126 59 201t153 110.5t197 45.5t234 10h25v53q0 137 -54.5 202.5t-183.5 65.5q-174 0 -307 -86v125q60 30 149 51t158 21q129 0 210 -40.5t119 -125.5t38 -223v-461
q0 -79 2.5 -130.5t7.5 -88.5h-127zM750 463v63h-37q-220 0 -355 -49t-135 -203q0 -96 60.5 -142t156.5 -46q139 0 207 64.5t85.5 145t17.5 167.5zM360 1315q0 72 50 122t125 50q50 0 89 -23t62 -61.5t23 -87.5q0 -48 -23 -87t-62 -62t-89 -23q-74 0 -124.5 49.5t-50.5 122.5
zM426 1315q0 -46 32.5 -76.5t76.5 -30.5q47 0 77.5 30.5t30.5 76.5q0 44 -31 75t-77 31q-43 0 -76 -31t-33 -75z" />
    <glyph glyph-name="ae" unicode="&#xe6;" horiz-adv-x="1706" 
d="M762 430v55h-45q-201 0 -341 -40.5t-140 -190.5q0 -77 65 -122.5t152 -45.5q83 0 143 26.5t96.5 72.5t53 108.5t16.5 136.5zM1534 164v-131q-69 -28 -148.5 -43t-154.5 -15q-153 0 -254 57.5t-143 153.5q-145 -211 -396 -211q-157 0 -250.5 72t-93.5 207q0 117 56.5 188
t146 104.5t176 41.5t199.5 8h90v55q0 148 -51 227.5t-185 79.5q-176 0 -309 -86v125q60 30 149 51t158 21q124 0 205.5 -41.5t128.5 -146.5q57 86 147.5 137t190.5 51q143 0 235.5 -69t136.5 -186t44 -263v-66h-709v-47q0 -159 83.5 -255.5t254.5 -96.5q66 0 156 24t137 54z
M903 596h567q0 97 -27.5 179t-87.5 132.5t-151 50.5q-87 0 -156 -52t-107 -135.5t-38 -174.5z" />
    <glyph glyph-name="ccedilla" unicode="&#xe7;" horiz-adv-x="909" 
d="M852 1028l-10 -123q-120 53 -224 53q-185 0 -289 -121t-104 -315q0 -88 25.5 -166.5t77 -141t122.5 -95.5t154 -33q110 0 236 47l12 -121q-109 -37 -268 -37q-122 0 -216 43t-157.5 120t-95 174.5t-31.5 209.5q0 119 37.5 220.5t105.5 174.5t163.5 112.5t209.5 39.5
q126 0 252 -41zM397 -170l54 160h49l-35 -99q14 1 31 2t26 1q58 0 95.5 -31t37.5 -86q0 -127 -200 -127q-32 0 -68 7t-69 17t-48 15l13 67q21 -15 70 -34t91 -19q95 0 95 66q0 31 -18 48t-50 17q-49 0 -74 -4z" />
    <glyph glyph-name="egrave" unicode="&#xe8;" horiz-adv-x="1024" 
d="M862 164v-131q-69 -28 -148.5 -43t-154.5 -15q-246 0 -360.5 147.5t-114.5 399.5q0 119 30.5 218t90 174.5t140.5 115t179 39.5q143 0 235.5 -69t136.5 -186t44 -263v-66h-715q0 -112 40 -203t118 -143.5t186 -52.5q68 0 157 24t136 54zM225 596h574q0 97 -27.5 179
t-88 132.5t-151.5 50.5q-90 0 -160 -52.5t-108.5 -137.5t-38.5 -172zM487 1415l170 -250h-84l-231 250h145z" />
    <glyph glyph-name="eacute" unicode="&#xe9;" horiz-adv-x="1024" 
d="M862 164v-131q-69 -28 -148.5 -43t-154.5 -15q-246 0 -360.5 147.5t-114.5 399.5q0 119 30.5 218t90 174.5t140.5 115t179 39.5q143 0 235.5 -69t136.5 -186t44 -263v-66h-715q0 -112 40 -203t118 -143.5t186 -52.5q68 0 157 24t136 54zM225 596h574q0 97 -27.5 179
t-88 132.5t-151.5 50.5q-90 0 -160 -52.5t-108.5 -137.5t-38.5 -172zM401 1182l170 250h146l-232 -250h-84z" />
    <glyph glyph-name="ecircumflex" unicode="&#xea;" horiz-adv-x="1024" 
d="M862 164v-131q-69 -28 -148.5 -43t-154.5 -15q-246 0 -360.5 147.5t-114.5 399.5q0 119 30.5 218t90 174.5t140.5 115t179 39.5q143 0 235.5 -69t136.5 -186t44 -263v-66h-715q0 -112 40 -203t118 -143.5t186 -52.5q68 0 157 24t136 54zM225 596h574q0 97 -27.5 179
t-88 132.5t-151.5 50.5q-90 0 -160 -52.5t-108.5 -137.5t-38.5 -172zM266 1149l172 244h150l170 -244h-84l-160 149l-164 -149h-84z" />
    <glyph glyph-name="edieresis" unicode="&#xeb;" horiz-adv-x="1024" 
d="M862 164v-131q-69 -28 -148.5 -43t-154.5 -15q-246 0 -360.5 147.5t-114.5 399.5q0 119 30.5 218t90 174.5t140.5 115t179 39.5q143 0 235.5 -69t136.5 -186t44 -263v-66h-715q0 -112 40 -203t118 -143.5t186 -52.5q68 0 157 24t136 54zM225 596h574q0 97 -27.5 179
t-88 132.5t-151.5 50.5q-90 0 -160 -52.5t-108.5 -137.5t-38.5 -172zM563 1159v154h137v-154h-137zM297 1159v154h137v-154h-137z" />
    <glyph glyph-name="igrave" unicode="&#xec;" horiz-adv-x="455" 
d="M162 0v1044h129v-1044h-129zM184 1389l170 -250h-84l-231 250h145z" />
    <glyph glyph-name="iacute" unicode="&#xed;" horiz-adv-x="455" 
d="M162 0v1044h129v-1044h-129zM109 1155l170 250h145l-231 -250h-84z" />
    <glyph glyph-name="icircumflex" unicode="&#xee;" horiz-adv-x="455" 
d="M162 0v1044h129v-1044h-129zM-12 1137l172 243h149l170 -243h-84l-159 149l-164 -149h-84z" />
    <glyph glyph-name="idieresis" unicode="&#xef;" horiz-adv-x="455" 
d="M162 0v1044h129v-1044h-129zM295 1147v153h137v-153h-137zM29 1147v153h137v-153h-137z" />
    <glyph glyph-name="eth" unicode="&#xf0;" 
d="M223 522q0 -123 40 -221.5t118 -156.5t188 -58q109 0 188 58t118.5 156.5t39.5 221.5q0 122 -40 221.5t-118.5 157t-187.5 57.5q-110 0 -187.5 -57.5t-118 -156.5t-40.5 -222zM434 1155l-61 86l186 117q-123 73 -276 104l24 99q71 -10 139 -28.5t127 -44t107 -56.5
l219 135l62 -86l-191 -117q74 -62 129 -145.5t90 -178.5t51.5 -204t16.5 -230q0 -152 -29 -268.5t-90 -197.5t-152.5 -123t-216.5 -42q-121 0 -213.5 44t-153.5 120.5t-90.5 174t-29.5 208.5q0 150 53 273.5t163 198.5t271 75q192 0 322 -162h4q-55 236 -240 385z" />
    <glyph glyph-name="ntilde" unicode="&#xf1;" 
d="M162 0v799q0 162 -8 245h125v-186h4q44 93 118 152t220 59q184 0 270 -108t86 -293v-668h-129v635q0 155 -60 239t-188 84q-109 0 -179 -55.5t-100 -141.5t-30 -183v-578h-129zM397 1157h-65q14 68 50.5 116t96.5 48q44 0 111 -21q29 -8 50 -15t30 -7q29 0 54 16t32 43
h67q-12 -88 -58 -123.5t-93 -35.5q-38 0 -111 22q-69 21 -84 21q-34 0 -49.5 -14t-30.5 -50z" />
    <glyph glyph-name="ograve" unicode="&#xf2;" 
d="M82 522q0 150 53 273.5t163 198.5t271 75t271.5 -75.5t163.5 -200t53 -271.5q0 -112 -29 -208.5t-90.5 -174t-154.5 -121t-214 -43.5t-213.5 44t-153.5 120.5t-90.5 174t-29.5 208.5zM223 522q0 -123 40 -221.5t118 -156.5t188 -58q109 0 188 58t118.5 156.5t39.5 221.5
q0 122 -40 221.5t-118.5 157t-187.5 57.5q-110 0 -187.5 -57.5t-118 -156.5t-40.5 -222zM555 1415l170 -250h-84l-231 250h145z" />
    <glyph glyph-name="oacute" unicode="&#xf3;" 
d="M82 522q0 150 53 273.5t163 198.5t271 75t271.5 -75.5t163.5 -200t53 -271.5q0 -112 -29 -208.5t-90.5 -174t-154.5 -121t-214 -43.5t-213.5 44t-153.5 120.5t-90.5 174t-29.5 208.5zM223 522q0 -123 40 -221.5t118 -156.5t188 -58q109 0 188 58t118.5 156.5t39.5 221.5
q0 122 -40 221.5t-118.5 157t-187.5 57.5q-110 0 -187.5 -57.5t-118 -156.5t-40.5 -222zM449 1171l169 250h146l-232 -250h-83z" />
    <glyph glyph-name="ocircumflex" unicode="&#xf4;" 
d="M82 522q0 150 53 273.5t163 198.5t271 75t271.5 -75.5t163.5 -200t53 -271.5q0 -112 -29 -208.5t-90.5 -174t-154.5 -121t-214 -43.5t-213.5 44t-153.5 120.5t-90.5 174t-29.5 208.5zM223 522q0 -123 40 -221.5t118 -156.5t188 -58q109 0 188 58t118.5 156.5t39.5 221.5
q0 122 -40 221.5t-118.5 157t-187.5 57.5q-110 0 -187.5 -57.5t-118 -156.5t-40.5 -222zM326 1147l172 244h149l170 -244h-84l-160 149l-163 -149h-84z" />
    <glyph glyph-name="otilde" unicode="&#xf5;" 
d="M82 522q0 150 53 273.5t163 198.5t271 75t271.5 -75.5t163.5 -200t53 -271.5q0 -112 -29 -208.5t-90.5 -174t-154.5 -121t-214 -43.5t-213.5 44t-153.5 120.5t-90.5 174t-29.5 208.5zM223 522q0 -123 40 -221.5t118 -156.5t188 -58q109 0 188 58t118.5 156.5t39.5 221.5
q0 122 -40 221.5t-118.5 157t-187.5 57.5q-110 0 -187.5 -57.5t-118 -156.5t-40.5 -222zM395 1161h-65q14 68 50.5 116t96.5 48q41 0 111 -20q73 -23 80 -23q29 0 54 16t32 43h67q-12 -88 -58 -123.5t-93 -35.5q-38 0 -111 22q-69 21 -84 21q-34 0 -49.5 -14t-30.5 -50z" />
    <glyph glyph-name="odieresis" unicode="&#xf6;" 
d="M82 522q0 150 53 273.5t163 198.5t271 75t271.5 -75.5t163.5 -200t53 -271.5q0 -112 -29 -208.5t-90.5 -174t-154.5 -121t-214 -43.5t-213.5 44t-153.5 120.5t-90.5 174t-29.5 208.5zM223 522q0 -123 40 -221.5t118 -156.5t188 -58q109 0 188 58t118.5 156.5t39.5 221.5
q0 122 -40 221.5t-118.5 157t-187.5 57.5q-110 0 -187.5 -57.5t-118 -156.5t-40.5 -222zM633 1147v153h137v-153h-137zM367 1147v153h137v-153h-137z" />
    <glyph glyph-name="divide" unicode="&#xf7;" horiz-adv-x="1229" 
d="M94 449v141h1039v-141h-1039zM483 922q0 52 39.5 91.5t91.5 39.5q54 0 92.5 -39.5t38.5 -91.5q0 -51 -39 -91t-92 -40q-52 0 -91.5 39.5t-39.5 91.5zM483 117q0 52 39.5 91.5t91.5 39.5q54 0 92.5 -39.5t38.5 -91.5q0 -51 -39 -91t-92 -40q-52 0 -91.5 39.5t-39.5 91.5z
" />
    <glyph glyph-name="oslash" unicode="&#xf8;" 
d="M285 260l520 598q-94 100 -236 100q-110 0 -187.5 -57.5t-118 -156.5t-40.5 -222q0 -150 62 -262zM858 778l-518 -596q90 -96 229 -96q109 0 188 58t118.5 156.5t39.5 221.5q0 152 -57 256zM1028 1116l72 -59l-150 -172q107 -140 107 -363q0 -112 -29 -208.5t-90.5 -174
t-154.5 -121t-214 -43.5q-190 0 -315 109l-143 -166l-72 59l154 177q-56 74 -83.5 169t-27.5 199q0 150 53 273.5t163 198.5t271 75q202 0 320 -115z" />
    <glyph glyph-name="ugrave" unicode="&#xf9;" 
d="M977 1044v-798q0 -162 8 -246h-125v186h-4q-41 -91 -117 -151t-221 -60q-125 0 -204 51.5t-115.5 141.5t-36.5 209v667h129v-634q0 -155 60 -239.5t188 -84.5q109 0 179 56t100 142t30 183v577h129zM518 1411l170 -250h-84l-231 250h145z" />
    <glyph glyph-name="uacute" unicode="&#xfa;" 
d="M977 1044v-798q0 -162 8 -246h-125v186h-4q-41 -91 -117 -151t-221 -60q-125 0 -204 51.5t-115.5 141.5t-36.5 209v667h129v-634q0 -155 60 -239.5t188 -84.5q109 0 179 56t100 142t30 183v577h129zM463 1147l170 250h145l-231 -250h-84z" />
    <glyph glyph-name="ucircumflex" unicode="&#xfb;" 
d="M977 1044v-798q0 -162 8 -246h-125v186h-4q-41 -91 -117 -151t-221 -60q-125 0 -204 51.5t-115.5 141.5t-36.5 209v667h129v-634q0 -155 60 -239.5t188 -84.5q109 0 179 56t100 142t30 183v577h129zM322 1147l172 244h149l170 -244h-84l-160 149l-163 -149h-84z" />
    <glyph glyph-name="udieresis" unicode="&#xfc;" 
d="M977 1044v-798q0 -162 8 -246h-125v186h-4q-41 -91 -117 -151t-221 -60q-125 0 -204 51.5t-115.5 141.5t-36.5 209v667h129v-634q0 -155 60 -239.5t188 -84.5q109 0 179 56t100 142t30 183v577h129zM639 1147v153h137v-153h-137zM373 1147v153h137v-153h-137z" />
    <glyph glyph-name="yacute" unicode="&#xfd;" horiz-adv-x="909" 
d="M891 1044l-418 -1200q-43 -128 -106.5 -207t-161.5 -79q-70 0 -139 16l12 111q45 -17 96 -17q77 0 115 54.5t73 173.5l27 92l-371 1056h142l293 -872l-2 2h4l301 870h135zM385 1147l170 250h145l-231 -250h-84z" />
    <glyph glyph-name="thorn" unicode="&#xfe;" 
d="M150 -430v1966h129v-682h4q31 76 105.5 145.5t219.5 69.5q113 0 195.5 -39.5t134 -112t76 -173.5t24.5 -222q0 -155 -48.5 -280t-145 -196t-236.5 -71q-63 0 -111 13t-88.5 40t-70.5 66t-55 96h-4v-620h-129zM897 522q0 113 -28 211.5t-97.5 161.5t-183.5 63
q-107 0 -177 -65.5t-101 -166t-31 -204.5q0 -103 31 -204t101 -166.5t177 -65.5q114 0 183.5 63t97.5 161.5t28 211.5z" />
    <glyph glyph-name="ydieresis" unicode="&#xff;" horiz-adv-x="909" 
d="M891 1044l-418 -1200q-43 -128 -106.5 -207t-161.5 -79q-70 0 -139 16l12 111q45 -17 96 -17q77 0 115 54.5t73 173.5l27 92l-371 1056h142l293 -872l-2 2h4l301 870h135zM514 1155v154h137v-154h-137zM248 1155v154h137v-154h-137z" />
    <glyph glyph-name="lslash" horiz-adv-x="455" 
d="M162 0v700l-135 -108v141l135 109v694h129v-592l135 109v-142l-135 -108v-803h-129z" />
    <glyph glyph-name="dotaccent" horiz-adv-x="455" 
d="M152 1237v172h153v-172h-153z" />
    <glyph glyph-name="hungarumlaut" horiz-adv-x="455" 
d="M283 1171l190 295h162l-258 -295h-94zM-66 1171l191 295h162l-258 -295h-95z" />
    <glyph glyph-name="fi" 
d="M825 0v1044h129v-1044h-129zM954 1495v-172h-129v172h129zM250 0v934h-211v110h211v76q0 140 15 230t75.5 150.5t185.5 60.5q85 0 121 -21l-8 -113q-41 23 -102 23q-97 0 -127.5 -67t-30.5 -179v-69v-91h235v-110h-235v-934h-129z" />
    <glyph glyph-name="sac" unicode="&#xf008;" horiz-adv-x="2" 
d="M-317 1157l170 250h145l-231 -250h-84z" />
    <glyph glyph-name="huyen" unicode="&#xf00d;" horiz-adv-x="2" 
d="M-307 1403l170 -250h-84l-232 250h146z" />
    <glyph glyph-name="hoi" unicode="&#xf012;" horiz-adv-x="2" 
d="M-338 1475l6 73q49 8 127 8q85 -6 140 -45t55 -106q-3 -49 -38 -82l-83 -76t-59 -84h-74q0 44 20 71.5t61.5 58.5t62.5 55t24 61q-3 36 -34 59t-83 23q-39 0 -125 -16z" />
    <glyph glyph-name="nga" unicode="&#xf01d;" horiz-adv-x="2" 
d="M-379 1167h-65q14 68 50.5 116t96.5 48q41 0 111 -20q71 -23 80 -23q29 0 54 17t32 43h67q-12 -89 -58 -124.5t-93 -35.5q-38 0 -111 22q-63 21 -84 21q-34 0 -49.5 -14t-30.5 -50z" />
    <glyph glyph-name="nang" unicode="&#xf02a;" horiz-adv-x="2" 
d="M-297 -276v153h129v-153h-129z" />
    <glyph glyph-name="aa" horiz-adv-x="2" 
d="M0 0h59q28 -100 168 -100q142 0 168 100h56q-12 -94 -72.5 -153.5t-153.5 -59.5t-152.5 58.5t-72.5 154.5z" />
    <glyph glyph-name="ab" horiz-adv-x="2" 
d="M0 0l172 244h150l170 -244h-84l-160 150l-164 -150h-84z" />
    <glyph glyph-name="dth" unicode="&#x111;" 
d="M989 1536v-207h127v-104h-127v-1225h-129v166h-4q-52 -99 -132.5 -145t-193.5 -46q-139 0 -236 71t-145.5 195t-48.5 281q0 121 25.5 222t76.5 173.5t133 112t195 39.5q94 0 163.5 -36t110 -83t52.5 -82h4v357h-360v104h360v207h129zM242 522q0 -181 70.5 -308.5
t238.5 -127.5q108 0 177 65.5t100.5 166.5t31.5 204q0 104 -31.5 204t-100.5 166t-177 66q-114 0 -183.5 -63t-97.5 -161.5t-28 -211.5z" />
    <glyph glyph-name="dth" unicode="&#x20ab;" 
d="M989 1536v-207h127v-104h-127v-1225h-129v166h-4q-52 -99 -132.5 -145t-193.5 -46q-139 0 -236 71t-145.5 195t-48.5 281q0 121 25.5 222t76.5 173.5t133 112t195 39.5q94 0 163.5 -36t110 -83t52.5 -82h4v357h-360v104h360v207h129zM242 522q0 -181 70.5 -308.5
t238.5 -127.5q108 0 177 65.5t100.5 166.5t31.5 204q0 104 -31.5 204t-100.5 166t-177 66q-114 0 -183.5 -63t-97.5 -161.5t-28 -211.5z" />
    <glyph glyph-name="dhoa" unicode="&#x110;" horiz-adv-x="1366" 
d="M164 797v633h242q827 0 827 -713q0 -191 -59.5 -327t-169.5 -223t-260 -127t-330 -40h-250v674h-141v123h141zM305 1307v-510h436v-123h-436v-551h117q670 0 670 602q0 170 -48.5 283t-138.5 178.5t-216 93t-290 27.5h-94z" />
    <glyph glyph-name="octh" unicode="&#x1a1;" 
d="M82 522q0 150 53 273.5t163 198.5t271 75q131 0 225 -48t146.5 -117.5t73.5 -139.5q50 2 89 29.5t46 87.5h-55v188h120v-205q-9 -72 -67 -110.5t-115 -38.5q25 -70 25 -193q0 -112 -29 -208.5t-90.5 -174t-154.5 -121t-214 -43.5t-213.5 44t-153.5 120.5t-90.5 174
t-29.5 208.5zM223 522q0 -123 40 -221.5t118 -156.5t188 -58q109 0 188 58t118.5 156.5t39.5 221.5q0 122 -40 221.5t-118.5 157t-187.5 57.5q-110 0 -187.5 -57.5t-118 -156.5t-40.5 -222z" />
    <glyph glyph-name="ochoa" unicode="&#x1a0;" horiz-adv-x="1479" 
d="M111 715q0 200 69.5 368.5t211.5 269.5t347 101q110 0 201 -29t155 -74.5t110.5 -103.5t74.5 -119q54 0 100 38.5t47 99.5h-55v188h121v-227q-1 -54 -32.5 -90t-76 -53t-77.5 -17q30 -70 45.5 -168.5t15.5 -183.5q-2 -165 -42.5 -301t-119.5 -234t-197 -151.5t-270 -53.5
q-151 0 -269 53.5t-197 152t-119.5 234t-42.5 300.5zM739 1331q-159 0 -269 -87.5t-164 -229.5t-54 -299q0 -156 54 -299t164 -230.5t269 -87.5t270 88t164.5 230.5t53.5 298.5t-53.5 298t-164.5 230t-270 88z" />
    <glyph glyph-name="ucth" unicode="&#x1b0;" 
d="M977 1044v-325q47 0 90.5 38t44.5 99h-55v188h121v-227q-9 -77 -75.5 -118.5t-125.5 -41.5v-411q0 -162 8 -246h-125v186h-4q-41 -91 -117 -151t-221 -60q-125 0 -204 51.5t-115.5 141.5t-36.5 209v667h129v-634q0 -155 60 -239.5t188 -84.5q109 0 179 56t100 142t30 183
v577h129z" />
    <glyph glyph-name="uchoa" unicode="&#x1af;" horiz-adv-x="1366" 
d="M1202 1430v-326q47 0 90.5 38t44.5 99h-55v189h121v-228q-9 -77 -75 -118.5t-126 -41.5v-542q0 -195 -80 -312.5t-197.5 -165t-240.5 -47.5t-240.5 47.5t-197.5 165t-80 312.5v930h141v-930q0 -118 43 -209t128.5 -142t205.5 -51t205.5 51t128.5 142t43 209v930h141z" />
    <glyph glyph-name="aath" unicode="&#x103;" horiz-adv-x="1024" 
d="M762 0v168h-4q-27 -60 -81.5 -104.5t-119 -66.5t-131.5 -22q-136 0 -212.5 50t-104 116.5t-27.5 128.5q0 126 59 201t153 110.5t197 45.5t234 10h25v53q0 137 -54.5 202.5t-183.5 65.5q-174 0 -307 -86v125q60 30 149 51t158 21q129 0 210 -40.5t119 -125.5t38 -223v-461
q0 -79 2.5 -130.5t7.5 -88.5h-127zM750 463v63h-37q-220 0 -355 -49t-135 -203q0 -96 60.5 -142t156.5 -46q139 0 207 64.5t85.5 145t17.5 167.5zM319 1356h60q14 -52 59.5 -76.5t108.5 -24.5t108.5 24.5t59.5 76.5h55q-13 -96 -72.5 -154.5t-152.5 -58.5t-152.5 58.5
t-73.5 154.5z" />
    <glyph glyph-name="aahoa" unicode="&#x102;" horiz-adv-x="1366" 
d="M27 0l585 1430h160l567 -1430h-147l-154 383h-721l-153 -383h-137zM991 506l-309 788l-311 -788h620zM487 1714h60q26 -100 168 -100q140 0 168 100h55q-13 -96 -72.5 -154.5t-152.5 -58.5t-152.5 58.5t-73.5 154.5z" />
    <glyph glyph-name="abth" horiz-adv-x="1024" 
d="M762 0v168h-4q-27 -60 -81.5 -104.5t-119 -66.5t-131.5 -22q-136 0 -212.5 50t-104 116.5t-27.5 128.5q0 126 59 201t153 110.5t197 45.5t234 10h25v53q0 137 -54.5 202.5t-183.5 65.5q-174 0 -307 -86v125q60 30 149 51t158 21q129 0 210 -40.5t119 -125.5t38 -223v-461
q0 -79 2.5 -130.5t7.5 -88.5h-127zM750 463v63h-37q-220 0 -355 -49t-135 -203q0 -96 60.5 -142t156.5 -46q139 0 207 64.5t85.5 145t17.5 167.5zM248 1151l172 244h149l170 -244h-84l-159 149l-164 -149h-84z" />
    <glyph glyph-name="abhoa" horiz-adv-x="1366" 
d="M27 0l585 1430h160l567 -1430h-147l-154 383h-721l-153 -383h-137zM991 506l-309 788l-311 -788h620zM446 1499l172 244h150l170 -244h-84l-160 150l-164 -150h-84z" />
    <glyph glyph-name="ebth" horiz-adv-x="1024" 
d="M862 164v-131q-69 -28 -148.5 -43t-154.5 -15q-246 0 -360.5 147.5t-114.5 399.5q0 119 30.5 218t90 174.5t140.5 115t179 39.5q143 0 235.5 -69t136.5 -186t44 -263v-66h-715q0 -112 40 -203t118 -143.5t186 -52.5q68 0 157 24t136 54zM225 596h574q0 97 -27.5 179
t-88 132.5t-151.5 50.5q-90 0 -160 -52.5t-108.5 -137.5t-38.5 -172zM266 1149l172 244h150l170 -244h-84l-160 149l-164 -149h-84z" />
    <glyph glyph-name="ebhoa" horiz-adv-x="1024" 
d="M176 0v1430h701v-123h-560v-510h531v-123h-531v-551h584v-123h-725zM279 1522l172 243h149l170 -243h-84l-160 149l-164 -149h-83z" />
    <glyph glyph-name="obth" 
d="M82 522q0 150 53 273.5t163 198.5t271 75t271.5 -75.5t163.5 -200t53 -271.5q0 -112 -29 -208.5t-90.5 -174t-154.5 -121t-214 -43.5t-213.5 44t-153.5 120.5t-90.5 174t-29.5 208.5zM223 522q0 -123 40 -221.5t118 -156.5t188 -58q109 0 188 58t118.5 156.5t39.5 221.5
q0 122 -40 221.5t-118.5 157t-187.5 57.5q-110 0 -187.5 -57.5t-118 -156.5t-40.5 -222zM326 1147l172 244h149l170 -244h-84l-160 149l-163 -149h-84z" />
    <glyph glyph-name="obhoa" horiz-adv-x="1479" 
d="M111 715q0 200 69.5 368.5t211.5 269.5t347 101t347.5 -101t212 -269.5t69.5 -368.5q-2 -165 -42.5 -301t-119.5 -234t-197 -151.5t-270 -53.5q-151 0 -269 53.5t-197 152t-119.5 234t-42.5 300.5zM739 1331q-159 0 -269 -87.5t-164 -229.5t-54 -299q0 -156 54 -299
t164 -230.5t269 -87.5t270 88t164.5 230.5t53.5 298.5t-53.5 298t-164.5 230t-270 88zM504 1516l172 243h149l170 -243h-84l-159 149l-164 -149h-84z" />
    <glyph glyph-name="athsac" horiz-adv-x="1024" 
d="M762 0v168h-4q-27 -60 -81.5 -104.5t-119 -66.5t-131.5 -22q-136 0 -212.5 50t-104 116.5t-27.5 128.5q0 126 59 201t153 110.5t197 45.5t234 10h25v53q0 137 -54.5 202.5t-183.5 65.5q-174 0 -307 -86v125q60 30 149 51t158 21q129 0 210 -40.5t119 -125.5t38 -223v-461
q0 -79 2.5 -130.5t7.5 -88.5h-127zM750 463v63h-37q-220 0 -355 -49t-135 -203q0 -96 60.5 -142t156.5 -46q139 0 207 64.5t85.5 145t17.5 167.5zM416 1171l170 250h145l-231 -250h-84z" />
    <glyph glyph-name="athhuyen" horiz-adv-x="1024" 
d="M762 0v168h-4q-27 -60 -81.5 -104.5t-119 -66.5t-131.5 -22q-136 0 -212.5 50t-104 116.5t-27.5 128.5q0 126 59 201t153 110.5t197 45.5t234 10h25v53q0 137 -54.5 202.5t-183.5 65.5q-174 0 -307 -86v125q60 30 149 51t158 21q129 0 210 -40.5t119 -125.5t38 -223v-461
q0 -79 2.5 -130.5t7.5 -88.5h-127zM750 463v63h-37q-220 0 -355 -49t-135 -203q0 -96 60.5 -142t156.5 -46q139 0 207 64.5t85.5 145t17.5 167.5zM492 1425l170 -249h-84l-232 249h146z" />
    <glyph glyph-name="athhoi" unicode="&#x1ea3;" horiz-adv-x="1024" 
d="M762 0v168h-4q-27 -60 -81.5 -104.5t-119 -66.5t-131.5 -22q-136 0 -212.5 50t-104 116.5t-27.5 128.5q0 126 59 201t153 110.5t197 45.5t234 10h25v53q0 137 -54.5 202.5t-183.5 65.5q-174 0 -307 -86v125q60 30 149 51t158 21q129 0 210 -40.5t119 -125.5t38 -223v-461
q0 -79 2.5 -130.5t7.5 -88.5h-127zM750 463v63h-37q-220 0 -355 -49t-135 -203q0 -96 60.5 -142t156.5 -46q139 0 207 64.5t85.5 145t17.5 167.5zM412 1483l6 73q48 9 127 9q86 -6 140 -45.5t54 -106.5q-3 -49 -38 -82l-82 -74.5t-60 -85.5h-74q0 44 20 71.5t61.5 58.5
t62.5 55t24 61q-3 36 -33 59t-83 23q-39 0 -125 -16z" />
    <glyph glyph-name="athnga" horiz-adv-x="1024" 
d="M762 0v168h-4q-27 -60 -81.5 -104.5t-119 -66.5t-131.5 -22q-136 0 -212.5 50t-104 116.5t-27.5 128.5q0 126 59 201t153 110.5t197 45.5t234 10h25v53q0 137 -54.5 202.5t-183.5 65.5q-174 0 -307 -86v125q60 30 149 51t158 21q129 0 210 -40.5t119 -125.5t38 -223v-461
q0 -79 2.5 -130.5t7.5 -88.5h-127zM750 463v63h-37q-220 0 -355 -49t-135 -203q0 -96 60.5 -142t156.5 -46q139 0 207 64.5t85.5 145t17.5 167.5zM362 1141h-65q14 68 50.5 116t96.5 48q37 0 111 -21q27 -7 49.5 -14.5t30.5 -7.5q30 0 54.5 15.5t31.5 43.5h67
q-12 -88 -58 -124t-93 -36q-35 0 -111 23q-64 20 -84 20q-33 0 -49.5 -14.5t-30.5 -48.5z" />
    <glyph glyph-name="athnang" unicode="&#x1ea1;" horiz-adv-x="1024" 
d="M762 0v168h-4q-27 -60 -81.5 -104.5t-119 -66.5t-131.5 -22q-136 0 -212.5 50t-104 116.5t-27.5 128.5q0 126 59 201t153 110.5t197 45.5t234 10h25v53q0 137 -54.5 202.5t-183.5 65.5q-174 0 -307 -86v125q60 30 149 51t158 21q129 0 210 -40.5t119 -125.5t38 -223v-461
q0 -79 2.5 -130.5t7.5 -88.5h-127zM750 463v63h-37q-220 0 -355 -49t-135 -203q0 -96 60.5 -142t156.5 -46q139 0 207 64.5t85.5 145t17.5 167.5zM379 -258v154h129v-154h-129z" />
    <glyph glyph-name="ahoasac" horiz-adv-x="1366" 
d="M27 0l585 1430h160l567 -1430h-147l-154 383h-721l-153 -383h-137zM991 506l-309 788l-311 -788h620zM582 1532l170 250h145l-231 -250h-84z" />
    <glyph glyph-name="ahoahuyen" horiz-adv-x="1366" 
d="M27 0l585 1430h160l567 -1430h-147l-154 383h-721l-153 -383h-137zM991 506l-309 788l-311 -788h620zM668 1776l170 -250h-84l-232 250h146z" />
    <glyph glyph-name="ahoahoi" unicode="&#x1ea2;" horiz-adv-x="1366" 
d="M27 0l585 1430h160l567 -1430h-147l-154 383h-721l-153 -383h-137zM991 506l-309 788l-311 -788h620zM567 1845l6 74q49 8 127 8q85 -6 140 -45t55 -106q-3 -48 -37.5 -81.5l-83.5 -77.5t-59 -83h-74q0 44 20 71.5t61.5 58.5t62.5 55t24 61q-3 36 -34 59t-83 23
q-34 0 -125 -17z" />
    <glyph glyph-name="ahoanga" horiz-adv-x="1366" 
d="M27 0l585 1430h160l567 -1430h-147l-154 383h-721l-153 -383h-137zM991 506l-309 788l-311 -788h620zM518 1522h-65q14 68 51 116t96 48q37 0 111 -21q20 -6 38 -12l25.5 -8.5t16.5 -2.5q29 0 54 17t32 43h67q-12 -88 -58 -124t-93 -36q-42 0 -111 23q-66 20 -84 20
q-33 0 -49.5 -14.5t-30.5 -48.5z" />
    <glyph glyph-name="ahoanang" unicode="&#x1ea0;" horiz-adv-x="1366" 
d="M27 0l585 1430h160l567 -1430h-147l-154 383h-721l-153 -383h-137zM991 506l-309 788l-311 -788h620zM606 -274v153h129v-153h-129z" />
    <glyph glyph-name="ethsac" horiz-adv-x="1024" 
d="M862 164v-131q-69 -28 -148.5 -43t-154.5 -15q-246 0 -360.5 147.5t-114.5 399.5q0 119 30.5 218t90 174.5t140.5 115t179 39.5q143 0 235.5 -69t136.5 -186t44 -263v-66h-715q0 -112 40 -203t118 -143.5t186 -52.5q68 0 157 24t136 54zM225 596h574q0 97 -27.5 179
t-88 132.5t-151.5 50.5q-90 0 -160 -52.5t-108.5 -137.5t-38.5 -172zM401 1182l170 250h146l-232 -250h-84z" />
    <glyph glyph-name="ethhuyen" horiz-adv-x="1024" 
d="M862 164v-131q-69 -28 -148.5 -43t-154.5 -15q-246 0 -360.5 147.5t-114.5 399.5q0 119 30.5 218t90 174.5t140.5 115t179 39.5q143 0 235.5 -69t136.5 -186t44 -263v-66h-715q0 -112 40 -203t118 -143.5t186 -52.5q68 0 157 24t136 54zM225 596h574q0 97 -27.5 179
t-88 132.5t-151.5 50.5q-90 0 -160 -52.5t-108.5 -137.5t-38.5 -172zM487 1415l170 -250h-84l-231 250h145z" />
    <glyph glyph-name="ethhoi" unicode="&#x1ebb;" horiz-adv-x="1024" 
d="M862 164v-131q-69 -28 -148.5 -43t-154.5 -15q-246 0 -360.5 147.5t-114.5 399.5q0 119 30.5 218t90 174.5t140.5 115t179 39.5q143 0 235.5 -69t136.5 -186t44 -263v-66h-715q0 -112 40 -203t118 -143.5t186 -52.5q68 0 157 24t136 54zM225 596h574q0 97 -27.5 179
t-88 132.5t-151.5 50.5q-90 0 -160 -52.5t-108.5 -137.5t-38.5 -172zM408 1485l6 74q49 8 127 8q85 -6 139.5 -46t54.5 -106q-3 -49 -38 -82l-82.5 -75.5t-59.5 -83.5h-74q0 44 20 71.5t61.5 58.5t62.5 54t24 61q-3 36 -34 59t-83 23q-38 0 -124 -16z" />
    <glyph glyph-name="ethnga" unicode="&#x1ebd;" horiz-adv-x="1024" 
d="M862 164v-131q-69 -28 -148.5 -43t-154.5 -15q-246 0 -360.5 147.5t-114.5 399.5q0 119 30.5 218t90 174.5t140.5 115t179 39.5q143 0 235.5 -69t136.5 -186t44 -263v-66h-715q0 -112 40 -203t118 -143.5t186 -52.5q68 0 157 24t136 54zM225 596h574q0 97 -27.5 179
t-88 132.5t-151.5 50.5q-90 0 -160 -52.5t-108.5 -137.5t-38.5 -172zM358 1151h-65q14 68 50.5 116t96.5 48q44 0 111 -21q29 -8 50 -15t30 -7q30 0 54.5 15.5t31.5 43.5h67q-12 -88 -58 -124t-93 -36q-35 0 -111 23q-66 20 -84 20q-33 0 -49.5 -14.5t-30.5 -48.5z" />
    <glyph glyph-name="ethnang" unicode="&#x1eb9;" horiz-adv-x="1024" 
d="M862 164v-131q-69 -28 -148.5 -43t-154.5 -15q-246 0 -360.5 147.5t-114.5 399.5q0 119 30.5 218t90 174.5t140.5 115t179 39.5q143 0 235.5 -69t136.5 -186t44 -263v-66h-715q0 -112 40 -203t118 -143.5t186 -52.5q68 0 157 24t136 54zM225 596h574q0 97 -27.5 179
t-88 132.5t-151.5 50.5q-90 0 -160 -52.5t-108.5 -137.5t-38.5 -172zM406 -289v154h129v-154h-129z" />
    <glyph glyph-name="ehoasac" horiz-adv-x="1024" 
d="M176 0v1430h701v-123h-560v-510h531v-123h-531v-551h584v-123h-725zM428 1542l170 250h145l-231 -250h-84z" />
    <glyph glyph-name="ehoahuyen" horiz-adv-x="1024" 
d="M176 0v1430h701v-123h-560v-510h531v-123h-531v-551h584v-123h-725zM483 1765l170 -249h-84l-231 249h145z" />
    <glyph glyph-name="ehoahoi" unicode="&#x1eba;" horiz-adv-x="1024" 
d="M176 0v1430h701v-123h-560v-510h531v-123h-531v-551h584v-123h-725zM434 1845l6 74q49 8 127 8q85 -6 140 -45t55 -106q-3 -48 -37.5 -81.5l-83.5 -77.5t-59 -83h-74q0 44 20 71.5t61.5 58.5t62.5 55t24 61q-3 36 -34 59t-83 23q-34 0 -125 -17z" />
    <glyph glyph-name="ehoanga" unicode="&#x1ebc;" horiz-adv-x="1024" 
d="M176 0v1430h701v-123h-560v-510h531v-123h-531v-551h584v-123h-725zM354 1532h-65q14 68 50.5 116t96.5 48q44 0 111 -21q29 -8 50 -15t30 -7q29 0 54 16t32 43h67q-12 -88 -58 -124t-93 -36q-35 0 -111 23q-66 20 -84 20q-33 0 -49.5 -14.5t-30.5 -48.5z" />
    <glyph glyph-name="ehoanang" unicode="&#x1eb8;" horiz-adv-x="1024" 
d="M176 0v1430h701v-123h-560v-510h531v-123h-531v-551h584v-123h-725zM463 -274v153h129v-153h-129z" />
    <glyph glyph-name="othsac" 
d="M82 522q0 150 53 273.5t163 198.5t271 75t271.5 -75.5t163.5 -200t53 -271.5q0 -112 -29 -208.5t-90.5 -174t-154.5 -121t-214 -43.5t-213.5 44t-153.5 120.5t-90.5 174t-29.5 208.5zM223 522q0 -123 40 -221.5t118 -156.5t188 -58q109 0 188 58t118.5 156.5t39.5 221.5
q0 122 -40 221.5t-118.5 157t-187.5 57.5q-110 0 -187.5 -57.5t-118 -156.5t-40.5 -222zM449 1171l169 250h146l-232 -250h-83z" />
    <glyph glyph-name="othhuyen" 
d="M82 522q0 150 53 273.5t163 198.5t271 75t271.5 -75.5t163.5 -200t53 -271.5q0 -112 -29 -208.5t-90.5 -174t-154.5 -121t-214 -43.5t-213.5 44t-153.5 120.5t-90.5 174t-29.5 208.5zM223 522q0 -123 40 -221.5t118 -156.5t188 -58q109 0 188 58t118.5 156.5t39.5 221.5
q0 122 -40 221.5t-118.5 157t-187.5 57.5q-110 0 -187.5 -57.5t-118 -156.5t-40.5 -222zM555 1415l170 -250h-84l-231 250h145z" />
    <glyph glyph-name="othhoi" unicode="&#x1ecf;" 
d="M82 522q0 150 53 273.5t163 198.5t271 75t271.5 -75.5t163.5 -200t53 -271.5q0 -112 -29 -208.5t-90.5 -174t-154.5 -121t-214 -43.5t-213.5 44t-153.5 120.5t-90.5 174t-29.5 208.5zM223 522q0 -123 40 -221.5t118 -156.5t188 -58q109 0 188 58t118.5 156.5t39.5 221.5
q0 122 -40 221.5t-118.5 157t-187.5 57.5q-110 0 -187.5 -57.5t-118 -156.5t-40.5 -222zM455 1485l6 74q49 8 127 8q85 -6 139.5 -46t54.5 -106q-3 -49 -38 -82l-82.5 -75.5t-59.5 -83.5h-74q0 44 20 71.5t61.5 58.5t62.5 54t24 61q-3 36 -33 59t-83 23q-39 0 -125 -16z" />
    <glyph glyph-name="othnga" 
d="M82 522q0 150 53 273.5t163 198.5t271 75t271.5 -75.5t163.5 -200t53 -271.5q0 -112 -29 -208.5t-90.5 -174t-154.5 -121t-214 -43.5t-213.5 44t-153.5 120.5t-90.5 174t-29.5 208.5zM223 522q0 -123 40 -221.5t118 -156.5t188 -58q109 0 188 58t118.5 156.5t39.5 221.5
q0 122 -40 221.5t-118.5 157t-187.5 57.5q-110 0 -187.5 -57.5t-118 -156.5t-40.5 -222zM395 1161h-65q14 68 50.5 116t96.5 48q41 0 111 -20q73 -23 80 -23q29 0 54 16t32 43h67q-12 -88 -58 -123.5t-93 -35.5q-38 0 -111 22q-69 21 -84 21q-34 0 -49.5 -14t-30.5 -50z" />
    <glyph glyph-name="othnang" unicode="&#x1ecd;" 
d="M82 522q0 150 53 273.5t163 198.5t271 75t271.5 -75.5t163.5 -200t53 -271.5q0 -112 -29 -208.5t-90.5 -174t-154.5 -121t-214 -43.5t-213.5 44t-153.5 120.5t-90.5 174t-29.5 208.5zM223 522q0 -123 40 -221.5t118 -156.5t188 -58q109 0 188 58t118.5 156.5t39.5 221.5
q0 122 -40 221.5t-118.5 157t-187.5 57.5q-110 0 -187.5 -57.5t-118 -156.5t-40.5 -222zM494 -268v153h129v-153h-129z" />
    <glyph glyph-name="ohoasac" horiz-adv-x="1479" 
d="M111 715q0 200 69.5 368.5t211.5 269.5t347 101t347.5 -101t212 -269.5t69.5 -368.5q-2 -165 -42.5 -301t-119.5 -234t-197 -151.5t-270 -53.5q-151 0 -269 53.5t-197 152t-119.5 234t-42.5 300.5zM739 1331q-159 0 -269 -87.5t-164 -229.5t-54 -299q0 -156 54 -299
t164 -230.5t269 -87.5t270 88t164.5 230.5t53.5 298.5t-53.5 298t-164.5 230t-270 88zM649 1546l170 250h146l-232 -250h-84z" />
    <glyph glyph-name="ohoahuyen" horiz-adv-x="1479" 
d="M111 715q0 200 69.5 368.5t211.5 269.5t347 101t347.5 -101t212 -269.5t69.5 -368.5q-2 -165 -42.5 -301t-119.5 -234t-197 -151.5t-270 -53.5q-151 0 -269 53.5t-197 152t-119.5 234t-42.5 300.5zM739 1331q-159 0 -269 -87.5t-164 -229.5t-54 -299q0 -156 54 -299
t164 -230.5t269 -87.5t270 88t164.5 230.5t53.5 298.5t-53.5 298t-164.5 230t-270 88zM725 1800l170 -250h-84l-231 250h145z" />
    <glyph glyph-name="ohoahoi" unicode="&#x1ece;" horiz-adv-x="1479" 
d="M111 715q0 200 69.5 368.5t211.5 269.5t347 101t347.5 -101t212 -269.5t69.5 -368.5q-2 -165 -42.5 -301t-119.5 -234t-197 -151.5t-270 -53.5q-151 0 -269 53.5t-197 152t-119.5 234t-42.5 300.5zM739 1331q-159 0 -269 -87.5t-164 -229.5t-54 -299q0 -156 54 -299
t164 -230.5t269 -87.5t270 88t164.5 230.5t53.5 298.5t-53.5 298t-164.5 230t-270 88zM614 1860l7 73q54 9 127 9q86 -6 140 -45.5t54 -106.5q-3 -49 -38 -82l-82 -74.5t-60 -85.5h-74q0 44 20 71.5t61.5 58.5t62.5 55t24 61q-3 36 -34 59t-83 23q-39 0 -125 -16z" />
    <glyph glyph-name="ohoanga" horiz-adv-x="1479" 
d="M111 715q0 200 69.5 368.5t211.5 269.5t347 101t347.5 -101t212 -269.5t69.5 -368.5q-2 -165 -42.5 -301t-119.5 -234t-197 -151.5t-270 -53.5q-151 0 -269 53.5t-197 152t-119.5 234t-42.5 300.5zM739 1331q-159 0 -269 -87.5t-164 -229.5t-54 -299q0 -156 54 -299
t164 -230.5t269 -87.5t270 88t164.5 230.5t53.5 298.5t-53.5 298t-164.5 230t-270 88zM555 1536h-66q16 70 52 117t96 47q44 0 111 -21q28 -8 49.5 -15t29.5 -7q30 0 54.5 15.5t31.5 43.5h68q-12 -87 -58.5 -123.5t-93.5 -36.5q-34 0 -110 23q-66 20 -84 20q-32 0 -50 -14.5
t-30 -48.5z" />
    <glyph glyph-name="ohoanang" unicode="&#x1ecc;" horiz-adv-x="1479" 
d="M111 715q0 200 69.5 368.5t211.5 269.5t347 101t347.5 -101t212 -269.5t69.5 -368.5q-2 -165 -42.5 -301t-119.5 -234t-197 -151.5t-270 -53.5q-151 0 -269 53.5t-197 152t-119.5 234t-42.5 300.5zM739 1331q-159 0 -269 -87.5t-164 -229.5t-54 -299q0 -156 54 -299
t164 -230.5t269 -87.5t270 88t164.5 230.5t53.5 298.5t-53.5 298t-164.5 230t-270 88zM623 -279v154h129v-154h-129z" />
    <glyph glyph-name="ithsac" horiz-adv-x="455" 
d="M162 0v1044h129v-1044h-129zM109 1155l170 250h145l-231 -250h-84z" />
    <glyph glyph-name="ithhuyen" horiz-adv-x="455" 
d="M162 0v1044h129v-1044h-129zM184 1389l170 -250h-84l-231 250h145z" />
    <glyph glyph-name="ithhoi" unicode="&#x1ec9;" horiz-adv-x="455" 
d="M162 0v1044h129v-1044h-129zM115 1468l6 74q49 8 127 8q85 -6 139.5 -45t54.5 -106q-3 -49 -38 -82l-82 -74.5t-60 -85.5h-74q0 44 20 71.5t61.5 58.5t62.5 55t24 61q-3 36 -33 59t-83 23q-44 0 -125 -17z" />
    <glyph glyph-name="ithnga" unicode="&#x129;" horiz-adv-x="455" 
d="M162 0v1044h129v-1044h-129zM66 1145h-66q14 68 50.5 116t96.5 48q37 0 111 -21q27 -7 49.5 -14.5t30.5 -7.5q30 0 54.5 15.5t31.5 43.5h68q-12 -87 -58.5 -123.5t-93.5 -36.5q-35 0 -111 23q-64 20 -84 20q-33 0 -50 -14.5t-29 -48.5z" />
    <glyph glyph-name="ithnang" unicode="&#x1ecb;" horiz-adv-x="455" 
d="M162 0v1044h129v-1044h-129zM162 1208v154h129v-154h-129zM162 -270v153h129v-153h-129z" />
    <glyph glyph-name="ihoasac" horiz-adv-x="455" 
d="M158 0v1430h141v-1430h-141zM106 1542l170 250h146l-232 -250h-84z" />
    <glyph glyph-name="ihoahuyen" horiz-adv-x="455" 
d="M158 0v1430h141v-1430h-141zM182 1806l170 -250h-84l-231 250h145z" />
    <glyph glyph-name="ihoahoi" unicode="&#x1ec8;" horiz-adv-x="455" 
d="M158 0v1430h141v-1430h-141zM133 1855l6 74q49 8 127 8q85 -6 140 -45t55 -106q-3 -49 -38 -82l-83 -76t-59 -84h-74q0 44 20 71.5t61.5 58.5t62.5 55t24 61q-3 36 -34 59t-83 23q-44 0 -125 -17z" />
    <glyph glyph-name="ihoanga" unicode="&#x128;" horiz-adv-x="455" 
d="M158 0v1430h141v-1430h-141zM53 1532h-65q14 68 50.5 116t96.5 48q44 0 111 -21q29 -8 50 -15t30 -7q29 0 54 16t32 43h67q-12 -88 -58 -124t-93 -36q-35 0 -111 23q-66 20 -84 20q-33 0 -49.5 -14.5t-30.5 -48.5z" />
    <glyph glyph-name="ihoanang" unicode="&#x1eca;" horiz-adv-x="455" 
d="M158 0v1430h141v-1430h-141zM162 -295v154h129v-154h-129z" />
    <glyph glyph-name="uthsac" 
d="M977 1044v-798q0 -162 8 -246h-125v186h-4q-41 -91 -117 -151t-221 -60q-125 0 -204 51.5t-115.5 141.5t-36.5 209v667h129v-634q0 -155 60 -239.5t188 -84.5q109 0 179 56t100 142t30 183v577h129zM463 1147l170 250h145l-231 -250h-84z" />
    <glyph glyph-name="uthhuyen" 
d="M977 1044v-798q0 -162 8 -246h-125v186h-4q-41 -91 -117 -151t-221 -60q-125 0 -204 51.5t-115.5 141.5t-36.5 209v667h129v-634q0 -155 60 -239.5t188 -84.5q109 0 179 56t100 142t30 183v577h129zM518 1411l170 -250h-84l-231 250h145z" />
    <glyph glyph-name="uthhoi" unicode="&#x1ee7;" 
d="M977 1044v-798q0 -162 8 -246h-125v186h-4q-41 -91 -117 -151t-221 -60q-125 0 -204 51.5t-115.5 141.5t-36.5 209v667h129v-634q0 -155 60 -239.5t188 -84.5q109 0 179 56t100 142t30 183v577h129zM449 1470l6 74q49 8 127 8q85 -6 139.5 -45t54.5 -106q-3 -49 -38 -82
l-82 -74.5t-60 -85.5h-74q0 44 20 71.5t61.5 58.5t62.5 55t24 61q-3 36 -34 59t-83 23q-43 0 -124 -17z" />
    <glyph glyph-name="uthnga" unicode="&#x169;" 
d="M977 1044v-798q0 -162 8 -246h-125v186h-4q-41 -91 -117 -151t-221 -60q-125 0 -204 51.5t-115.5 141.5t-36.5 209v667h129v-634q0 -155 60 -239.5t188 -84.5q109 0 179 56t100 142t30 183v577h129zM430 1157h-65q14 68 50.5 116t96.5 48q44 0 111 -21q28 -8 49.5 -15
t29.5 -7q30 0 54.5 15.5t31.5 43.5h68q-12 -88 -58 -123.5t-93 -35.5q-38 0 -111 22q-69 21 -84 21q-33 0 -50 -14.5t-30 -49.5z" />
    <glyph glyph-name="uthnang" unicode="&#x1ee5;" 
d="M977 1044v-798q0 -162 8 -246h-125v186h-4q-41 -91 -117 -151t-221 -60q-125 0 -204 51.5t-115.5 141.5t-36.5 209v667h129v-634q0 -155 60 -239.5t188 -84.5q109 0 179 56t100 142t30 183v577h129zM498 -279v154h129v-154h-129z" />
    <glyph glyph-name="uhoasac" horiz-adv-x="1366" 
d="M1202 1430v-930q0 -195 -80 -312.5t-197.5 -165t-240.5 -47.5t-240.5 47.5t-197.5 165t-80 312.5v930h141v-930q0 -118 43 -209t128.5 -142t205.5 -51t205.5 51t128.5 142t43 209v930h141zM584 1542l170 250h145l-231 -250h-84z" />
    <glyph glyph-name="uhoahuyen" horiz-adv-x="1366" 
d="M1202 1430v-930q0 -195 -80 -312.5t-197.5 -165t-240.5 -47.5t-240.5 47.5t-197.5 165t-80 312.5v930h141v-930q0 -118 43 -209t128.5 -142t205.5 -51t205.5 51t128.5 142t43 209v930h141zM629 1786l170 -250h-84l-232 250h146z" />
    <glyph glyph-name="uhoahoi" unicode="&#x1ee6;" horiz-adv-x="1366" 
d="M1202 1430v-930q0 -195 -80 -312.5t-197.5 -165t-240.5 -47.5t-240.5 47.5t-197.5 165t-80 312.5v930h141v-930q0 -118 43 -209t128.5 -142t205.5 -51t205.5 51t128.5 142t43 209v930h141zM559 1866l6 73q48 9 127 9q86 -6 140.5 -45.5t54.5 -106.5q-3 -49 -38 -82
l-83 -76t-59 -84h-74q0 44 20 71.5t61.5 58.5t62.5 55t24 61q-3 36 -34 59t-83 23q-39 0 -125 -16z" />
    <glyph glyph-name="uhoanga" unicode="&#x168;" horiz-adv-x="1366" 
d="M1202 1430v-930q0 -195 -80 -312.5t-197.5 -165t-240.5 -47.5t-240.5 47.5t-197.5 165t-80 312.5v930h141v-930q0 -118 43 -209t128.5 -142t205.5 -51t205.5 51t128.5 142t43 209v930h141zM541 1532h-66q16 70 52 117t96 47q43 0 110 -21q27 -7 49.5 -14.5t30.5 -7.5
q30 0 54.5 15.5t31.5 43.5h68q-12 -87 -58.5 -123.5t-93.5 -36.5q-36 0 -110 23q-66 20 -84 20q-34 0 -51 -14.5t-29 -48.5z" />
    <glyph glyph-name="uhoanang" unicode="&#x1ee4;" horiz-adv-x="1366" 
d="M1202 1430v-930q0 -195 -80 -312.5t-197.5 -165t-240.5 -47.5t-240.5 47.5t-197.5 165t-80 312.5v930h141v-930q0 -118 43 -209t128.5 -142t205.5 -51t205.5 51t128.5 142t43 209v930h141zM588 -289v154h129v-154h-129z" />
    <glyph glyph-name="ythsac" horiz-adv-x="909" 
d="M891 1044l-418 -1200q-43 -128 -106.5 -207t-161.5 -79q-70 0 -139 16l12 111q45 -17 96 -17q77 0 115 54.5t73 173.5l27 92l-371 1056h142l293 -872l-2 2h4l301 870h135zM385 1147l170 250h145l-231 -250h-84z" />
    <glyph glyph-name="ythhuyen" unicode="&#x1ef3;" horiz-adv-x="909" 
d="M891 1044l-418 -1200q-43 -128 -106.5 -207t-161.5 -79q-70 0 -139 16l12 111q45 -17 96 -17q77 0 115 54.5t73 173.5l27 92l-371 1056h142l293 -872l-2 2h4l301 870h135zM399 1411l170 -250h-84l-231 250h145z" />
    <glyph glyph-name="ythhoi" unicode="&#x1ef7;" horiz-adv-x="909" 
d="M891 1044l-418 -1200q-43 -128 -106.5 -207t-161.5 -79q-70 0 -139 16l12 111q45 -17 96 -17q77 0 115 54.5t73 173.5l27 92l-371 1056h142l293 -872l-2 2h4l301 870h135zM340 1481l6 73q48 9 127 9q86 -6 140.5 -45.5t54.5 -106.5q-3 -49 -38 -82l-82.5 -74.5
t-60.5 -85.5h-73q0 44 20 71.5t61.5 58.5t62.5 55t24 61q-3 36 -34 59t-83 23q-39 0 -125 -16z" />
    <glyph glyph-name="ythnga" unicode="&#x1ef9;" horiz-adv-x="909" 
d="M891 1044l-418 -1200q-43 -128 -106.5 -207t-161.5 -79q-70 0 -139 16l12 111q45 -17 96 -17q77 0 115 54.5t73 173.5l27 92l-371 1056h142l293 -872l-2 2h4l301 870h135zM281 1137h-66q14 67 50.5 115t96.5 48q41 0 111 -20l40 -12.5l24.5 -8t15.5 -2.5q30 0 54.5 16.5
t31.5 43.5h68q-12 -87 -58.5 -123.5t-93.5 -36.5q-42 0 -111 23q-64 20 -84 20q-33 0 -50 -14.5t-29 -48.5z" />
    <glyph glyph-name="ythnang" unicode="&#x1ef5;" horiz-adv-x="909" 
d="M891 1044l-418 -1200q-43 -128 -106.5 -207t-161.5 -79q-70 0 -139 16l12 111q45 -17 96 -17q77 0 115 54.5t73 173.5l27 92l-371 1056h142l293 -872l-2 2h4l301 870h135zM584 -440v153h129v-153h-129z" />
    <glyph glyph-name="yhoasac" horiz-adv-x="1251" 
d="M555 0v606l-530 824h163l437 -699l448 699h154l-531 -824v-606h-141zM575 1532l170 250h146l-232 -250h-84z" />
    <glyph glyph-name="yhoahuyen" unicode="&#x1ef2;" horiz-adv-x="1251" 
d="M555 0v606l-530 824h163l437 -699l448 699h154l-531 -824v-606h-141zM610 1776l170 -250h-84l-231 250h145z" />
    <glyph glyph-name="yhoahoi" unicode="&#x1ef6;" horiz-adv-x="1251" 
d="M555 0v606l-530 824h163l437 -699l448 699h154l-531 -824v-606h-141zM520 1845l6 74q49 8 127 8q85 -6 140 -45t55 -106q-3 -48 -37.5 -81.5l-83.5 -77.5t-59 -83h-74q0 44 20 71.5t61.5 58.5t62.5 55t24 61q-3 36 -34 59t-83 23q-34 0 -125 -17z" />
    <glyph glyph-name="yhoanga" unicode="&#x1ef8;" horiz-adv-x="1251" 
d="M555 0v606l-530 824h163l437 -699l448 699h154l-531 -824v-606h-141zM471 1511h-65q14 68 50.5 116t96.5 48q41 0 111 -20q20 -6 38 -12l25.5 -8.5t15.5 -2.5q30 0 54.5 16.5t31.5 43.5h68q-12 -88 -58 -124t-94 -36q-37 0 -110 22q-63 21 -84 21q-33 0 -50 -14.5
t-30 -49.5z" />
    <glyph glyph-name="yhoanang" unicode="&#x1ef4;" horiz-adv-x="1251" 
d="M555 0v606l-530 824h163l437 -699l448 699h154l-531 -824v-606h-141zM559 -285v154h129v-154h-129z" />
    <glyph glyph-name="octhsac" unicode="&#x1edb;" 
d="M82 522q0 150 53 273.5t163 198.5t271 75q131 0 225 -48t146.5 -117.5t73.5 -139.5q50 2 89 29.5t46 87.5h-55v188h120v-205q-9 -72 -67 -110.5t-115 -38.5q25 -70 25 -193q0 -112 -29 -208.5t-90.5 -174t-154.5 -121t-214 -43.5t-213.5 44t-153.5 120.5t-90.5 174
t-29.5 208.5zM223 522q0 -123 40 -221.5t118 -156.5t188 -58q109 0 188 58t118.5 156.5t39.5 221.5q0 122 -40 221.5t-118.5 157t-187.5 57.5q-110 0 -187.5 -57.5t-118 -156.5t-40.5 -222zM449 1171l169 250h146l-232 -250h-83z" />
    <glyph glyph-name="octhhuyen" unicode="&#x1edd;" 
d="M82 522q0 150 53 273.5t163 198.5t271 75q131 0 225 -48t146.5 -117.5t73.5 -139.5q50 2 89 29.5t46 87.5h-55v188h120v-205q-9 -72 -67 -110.5t-115 -38.5q25 -70 25 -193q0 -112 -29 -208.5t-90.5 -174t-154.5 -121t-214 -43.5t-213.5 44t-153.5 120.5t-90.5 174
t-29.5 208.5zM223 522q0 -123 40 -221.5t118 -156.5t188 -58q109 0 188 58t118.5 156.5t39.5 221.5q0 122 -40 221.5t-118.5 157t-187.5 57.5q-110 0 -187.5 -57.5t-118 -156.5t-40.5 -222zM555 1415l170 -250h-84l-231 250h145z" />
    <glyph glyph-name="octhhoi" unicode="&#x1edf;" 
d="M82 522q0 150 53 273.5t163 198.5t271 75q131 0 225 -48t146.5 -117.5t73.5 -139.5q50 2 89 29.5t46 87.5h-55v188h120v-205q-9 -72 -67 -110.5t-115 -38.5q25 -70 25 -193q0 -112 -29 -208.5t-90.5 -174t-154.5 -121t-214 -43.5t-213.5 44t-153.5 120.5t-90.5 174
t-29.5 208.5zM223 522q0 -123 40 -221.5t118 -156.5t188 -58q109 0 188 58t118.5 156.5t39.5 221.5q0 122 -40 221.5t-118.5 157t-187.5 57.5q-110 0 -187.5 -57.5t-118 -156.5t-40.5 -222zM455 1485l6 74q49 8 127 8q85 -6 139.5 -46t54.5 -106q-3 -49 -38 -82l-82.5 -75.5
t-59.5 -83.5h-74q0 44 20 71.5t61.5 58.5t62.5 54t24 61q-3 36 -33 59t-83 23q-39 0 -125 -16z" />
    <glyph glyph-name="octhnga" unicode="&#x1ee1;" 
d="M82 522q0 150 53 273.5t163 198.5t271 75q131 0 225 -48t146.5 -117.5t73.5 -139.5q50 2 89 29.5t46 87.5h-55v188h120v-205q-9 -72 -67 -110.5t-115 -38.5q25 -70 25 -193q0 -112 -29 -208.5t-90.5 -174t-154.5 -121t-214 -43.5t-213.5 44t-153.5 120.5t-90.5 174
t-29.5 208.5zM223 522q0 -123 40 -221.5t118 -156.5t188 -58q109 0 188 58t118.5 156.5t39.5 221.5q0 122 -40 221.5t-118.5 157t-187.5 57.5q-110 0 -187.5 -57.5t-118 -156.5t-40.5 -222zM395 1161h-65q14 68 50.5 116t96.5 48q41 0 111 -20q73 -23 80 -23q29 0 54 16
t32 43h67q-12 -88 -58 -123.5t-93 -35.5q-38 0 -111 22q-69 21 -84 21q-34 0 -49.5 -14t-30.5 -50z" />
    <glyph glyph-name="octhnang" unicode="&#x1ee3;" 
d="M82 522q0 150 53 273.5t163 198.5t271 75q131 0 225 -48t146.5 -117.5t73.5 -139.5q50 2 89 29.5t46 87.5h-55v188h120v-205q-9 -72 -67 -110.5t-115 -38.5q25 -70 25 -193q0 -112 -29 -208.5t-90.5 -174t-154.5 -121t-214 -43.5t-213.5 44t-153.5 120.5t-90.5 174
t-29.5 208.5zM223 522q0 -123 40 -221.5t118 -156.5t188 -58q109 0 188 58t118.5 156.5t39.5 221.5q0 122 -40 221.5t-118.5 157t-187.5 57.5q-110 0 -187.5 -57.5t-118 -156.5t-40.5 -222zM494 -268v153h129v-153h-129z" />
    <glyph glyph-name="ochoasac" unicode="&#x1eda;" horiz-adv-x="1479" 
d="M111 715q0 200 69.5 368.5t211.5 269.5t347 101q110 0 201 -29t155 -74.5t110.5 -103.5t74.5 -119q54 0 100 38.5t47 99.5h-55v188h121v-227q-1 -54 -32.5 -90t-76 -53t-77.5 -17q30 -70 45.5 -168.5t15.5 -183.5q-2 -165 -42.5 -301t-119.5 -234t-197 -151.5t-270 -53.5
q-151 0 -269 53.5t-197 152t-119.5 234t-42.5 300.5zM739 1331q-159 0 -269 -87.5t-164 -229.5t-54 -299q0 -156 54 -299t164 -230.5t269 -87.5t270 88t164.5 230.5t53.5 298.5t-53.5 298t-164.5 230t-270 88zM649 1546l170 250h146l-232 -250h-84z" />
    <glyph glyph-name="ochoahuyen" unicode="&#x1edc;" horiz-adv-x="1479" 
d="M111 715q0 200 69.5 368.5t211.5 269.5t347 101q110 0 201 -29t155 -74.5t110.5 -103.5t74.5 -119q54 0 100 38.5t47 99.5h-55v188h121v-227q-1 -54 -32.5 -90t-76 -53t-77.5 -17q30 -70 45.5 -168.5t15.5 -183.5q-2 -165 -42.5 -301t-119.5 -234t-197 -151.5t-270 -53.5
q-151 0 -269 53.5t-197 152t-119.5 234t-42.5 300.5zM739 1331q-159 0 -269 -87.5t-164 -229.5t-54 -299q0 -156 54 -299t164 -230.5t269 -87.5t270 88t164.5 230.5t53.5 298.5t-53.5 298t-164.5 230t-270 88zM725 1800l170 -250h-84l-231 250h145z" />
    <glyph glyph-name="ochoahoi" unicode="&#x1ede;" horiz-adv-x="1479" 
d="M111 715q0 200 69.5 368.5t211.5 269.5t347 101q110 0 201 -29t155 -74.5t110.5 -103.5t74.5 -119q54 0 100 38.5t47 99.5h-55v188h121v-227q-1 -54 -32.5 -90t-76 -53t-77.5 -17q30 -70 45.5 -168.5t15.5 -183.5q-2 -165 -42.5 -301t-119.5 -234t-197 -151.5t-270 -53.5
q-151 0 -269 53.5t-197 152t-119.5 234t-42.5 300.5zM739 1331q-159 0 -269 -87.5t-164 -229.5t-54 -299q0 -156 54 -299t164 -230.5t269 -87.5t270 88t164.5 230.5t53.5 298.5t-53.5 298t-164.5 230t-270 88zM614 1860l7 73q54 9 127 9q86 -6 140 -45.5t54 -106.5
q-3 -49 -38 -82l-82 -74.5t-60 -85.5h-74q0 44 20 71.5t61.5 58.5t62.5 55t24 61q-3 36 -34 59t-83 23q-39 0 -125 -16z" />
    <glyph glyph-name="ochoanga" unicode="&#x1ee0;" horiz-adv-x="1479" 
d="M111 715q0 200 69.5 368.5t211.5 269.5t347 101q110 0 201 -29t155 -74.5t110.5 -103.5t74.5 -119q54 0 100 38.5t47 99.5h-55v188h121v-227q-1 -54 -32.5 -90t-76 -53t-77.5 -17q30 -70 45.5 -168.5t15.5 -183.5q-2 -165 -42.5 -301t-119.5 -234t-197 -151.5t-270 -53.5
q-151 0 -269 53.5t-197 152t-119.5 234t-42.5 300.5zM739 1331q-159 0 -269 -87.5t-164 -229.5t-54 -299q0 -156 54 -299t164 -230.5t269 -87.5t270 88t164.5 230.5t53.5 298.5t-53.5 298t-164.5 230t-270 88zM555 1536h-66q16 70 52 117t96 47q44 0 111 -21q28 -8 49.5 -15
t29.5 -7q30 0 54.5 15.5t31.5 43.5h68q-12 -87 -58.5 -123.5t-93.5 -36.5q-34 0 -110 23q-66 20 -84 20q-32 0 -50 -14.5t-30 -48.5z" />
    <glyph glyph-name="ochoanang" unicode="&#x1ee2;" horiz-adv-x="1479" 
d="M111 715q0 200 69.5 368.5t211.5 269.5t347 101q110 0 201 -29t155 -74.5t110.5 -103.5t74.5 -119q54 0 100 38.5t47 99.5h-55v188h121v-227q-1 -54 -32.5 -90t-76 -53t-77.5 -17q30 -70 45.5 -168.5t15.5 -183.5q-2 -165 -42.5 -301t-119.5 -234t-197 -151.5t-270 -53.5
q-151 0 -269 53.5t-197 152t-119.5 234t-42.5 300.5zM739 1331q-159 0 -269 -87.5t-164 -229.5t-54 -299q0 -156 54 -299t164 -230.5t269 -87.5t270 88t164.5 230.5t53.5 298.5t-53.5 298t-164.5 230t-270 88zM643 -279v154h129v-154h-129z" />
    <glyph glyph-name="ucthsac" unicode="&#x1ee9;" 
d="M977 1044v-325q47 0 90.5 38t44.5 99h-55v188h121v-227q-9 -77 -75.5 -118.5t-125.5 -41.5v-411q0 -162 8 -246h-125v186h-4q-41 -91 -117 -151t-221 -60q-125 0 -204 51.5t-115.5 141.5t-36.5 209v667h129v-634q0 -155 60 -239.5t188 -84.5q109 0 179 56t100 142t30 183
v577h129zM504 1167l170 250h145l-231 -250h-84z" />
    <glyph glyph-name="ucthhuyen" unicode="&#x1eeb;" 
d="M977 1044v-325q47 0 90.5 38t44.5 99h-55v188h121v-227q-9 -77 -75.5 -118.5t-125.5 -41.5v-411q0 -162 8 -246h-125v186h-4q-41 -91 -117 -151t-221 -60q-125 0 -204 51.5t-115.5 141.5t-36.5 209v667h129v-634q0 -155 60 -239.5t188 -84.5q109 0 179 56t100 142t30 183
v577h129zM467 1401l170 -250h-84l-231 250h145z" />
    <glyph glyph-name="ucthhoi" unicode="&#x1eed;" 
d="M977 1044v-325q47 0 90.5 38t44.5 99h-55v188h121v-227q-9 -77 -75.5 -118.5t-125.5 -41.5v-411q0 -162 8 -246h-125v186h-4q-41 -91 -117 -151t-221 -60q-125 0 -204 51.5t-115.5 141.5t-36.5 209v667h129v-634q0 -155 60 -239.5t188 -84.5q109 0 179 56t100 142t30 183
v577h129zM449 1460l6 74q49 8 127 8q85 -6 139.5 -45t54.5 -106q-3 -48 -38 -82l-82.5 -76.5t-59.5 -83.5h-74q0 44 20 71.5t61.5 58.5t62.5 55t24 61q-3 36 -34 59t-83 23q-33 0 -124 -17z" />
    <glyph glyph-name="ucthnga" unicode="&#x1eef;" 
d="M977 1044v-325q47 0 90.5 38t44.5 99h-55v188h121v-227q-9 -77 -75.5 -118.5t-125.5 -41.5v-411q0 -162 8 -246h-125v186h-4q-41 -91 -117 -151t-221 -60q-125 0 -204 51.5t-115.5 141.5t-36.5 209v667h129v-634q0 -155 60 -239.5t188 -84.5q109 0 179 56t100 142t30 183
v577h129zM440 1157h-65q14 68 50.5 116t96.5 48q44 0 111 -21q29 -8 50 -15t30 -7q29 0 54 16t32 43h67q-12 -88 -58 -123.5t-93 -35.5q-38 0 -111 22q-69 21 -84 21q-34 0 -49.5 -14t-30.5 -50z" />
    <glyph glyph-name="ucthnang" unicode="&#x1ef1;" 
d="M977 1044v-325q47 0 90.5 38t44.5 99h-55v188h121v-227q-9 -77 -75.5 -118.5t-125.5 -41.5v-411q0 -162 8 -246h-125v186h-4q-41 -91 -117 -151t-221 -60q-125 0 -204 51.5t-115.5 141.5t-36.5 209v667h129v-634q0 -155 60 -239.5t188 -84.5q109 0 179 56t100 142t30 183
v577h129zM477 -268v153h129v-153h-129z" />
    <glyph glyph-name="uchoasac" unicode="&#x1ee8;" horiz-adv-x="1366" 
d="M1202 1430v-326q47 0 90.5 38t44.5 99h-55v189h121v-228q-9 -77 -75 -118.5t-126 -41.5v-542q0 -195 -80 -312.5t-197.5 -165t-240.5 -47.5t-240.5 47.5t-197.5 165t-80 312.5v930h141v-930q0 -118 43 -209t128.5 -142t205.5 -51t205.5 51t128.5 142t43 209v930h141z
M625 1530l170 250h145l-231 -250h-84z" />
    <glyph glyph-name="uchoahuyen" unicode="&#x1eea;" horiz-adv-x="1366" 
d="M1202 1430v-326q47 0 90.5 38t44.5 99h-55v189h121v-228q-9 -77 -75 -118.5t-126 -41.5v-542q0 -195 -80 -312.5t-197.5 -165t-240.5 -47.5t-240.5 47.5t-197.5 165t-80 312.5v930h141v-930q0 -118 43 -209t128.5 -142t205.5 -51t205.5 51t128.5 142t43 209v930h141z
M649 1794l170 -250h-84l-231 250h145z" />
    <glyph glyph-name="uchoahoi" unicode="&#x1eec;" horiz-adv-x="1366" 
d="M1202 1430v-326q47 0 90.5 38t44.5 99h-55v189h121v-228q-9 -77 -75 -118.5t-126 -41.5v-542q0 -195 -80 -312.5t-197.5 -165t-240.5 -47.5t-240.5 47.5t-197.5 165t-80 312.5v930h141v-930q0 -118 43 -209t128.5 -142t205.5 -51t205.5 51t128.5 142t43 209v930h141z
M580 1864l6 73q48 9 127 9q86 -6 140 -45.5t54 -106.5q-3 -49 -38 -82l-82 -74.5t-60 -85.5h-74q0 44 20 71.5t61.5 58.5t62.5 55t24 61q-3 36 -33 59t-83 23q-39 0 -125 -16z" />
    <glyph glyph-name="uchoanga" unicode="&#x1eee;" horiz-adv-x="1366" 
d="M1202 1430v-326q47 0 90.5 38t44.5 99h-55v189h121v-228q-9 -77 -75 -118.5t-126 -41.5v-542q0 -195 -80 -312.5t-197.5 -165t-240.5 -47.5t-240.5 47.5t-197.5 165t-80 312.5v930h141v-930q0 -118 43 -209t128.5 -142t205.5 -51t205.5 51t128.5 142t43 209v930h141z
M530 1530h-65q14 68 50.5 116t96.5 48q37 0 111 -21q29 -8 50 -15t30 -7q30 0 54.5 15.5t31.5 43.5h67q-12 -88 -58 -124t-93 -36q-35 0 -111 23q-64 20 -84 20q-33 0 -49.5 -14.5t-30.5 -48.5z" />
    <glyph glyph-name="uchoanang" unicode="&#x1ef0;" horiz-adv-x="1366" 
d="M1202 1430v-326q47 0 90.5 38t44.5 99h-55v189h121v-228q-9 -77 -75 -118.5t-126 -41.5v-542q0 -195 -80 -312.5t-197.5 -165t-240.5 -47.5t-240.5 47.5t-197.5 165t-80 312.5v930h141v-930q0 -118 43 -209t128.5 -142t205.5 -51t205.5 51t128.5 142t43 209v930h141z
M578 -270v153h129v-153h-129z" />
    <glyph glyph-name="aathsac" unicode="&#x1eaf;" horiz-adv-x="1024" 
d="M762 0v168h-4q-27 -60 -81.5 -104.5t-119 -66.5t-131.5 -22q-136 0 -212.5 50t-104 116.5t-27.5 128.5q0 126 59 201t153 110.5t197 45.5t234 10h25v53q0 137 -54.5 202.5t-183.5 65.5q-174 0 -307 -86v125q60 30 149 51t158 21q129 0 210 -40.5t119 -125.5t38 -223v-461
q0 -79 2.5 -130.5t7.5 -88.5h-127zM750 463v63h-37q-220 0 -355 -49t-135 -203q0 -96 60.5 -142t156.5 -46q139 0 207 64.5t85.5 145t17.5 167.5zM319 1356h60q14 -52 59.5 -76.5t108.5 -24.5t108.5 24.5t59.5 76.5h55q-13 -96 -72.5 -154.5t-152.5 -58.5t-152.5 58.5
t-73.5 154.5zM487 1376l170 250h146l-232 -250h-84z" />
    <glyph glyph-name="aathhuyen" unicode="&#x1eb1;" horiz-adv-x="1024" 
d="M762 0v168h-4q-27 -60 -81.5 -104.5t-119 -66.5t-131.5 -22q-136 0 -212.5 50t-104 116.5t-27.5 128.5q0 126 59 201t153 110.5t197 45.5t234 10h25v53q0 137 -54.5 202.5t-183.5 65.5q-174 0 -307 -86v125q60 30 149 51t158 21q129 0 210 -40.5t119 -125.5t38 -223v-461
q0 -79 2.5 -130.5t7.5 -88.5h-127zM750 463v63h-37q-220 0 -355 -49t-135 -203q0 -96 60.5 -142t156.5 -46q139 0 207 64.5t85.5 145t17.5 167.5zM319 1356h60q14 -52 59.5 -76.5t108.5 -24.5t108.5 24.5t59.5 76.5h55q-13 -96 -72.5 -154.5t-152.5 -58.5t-152.5 58.5
t-73.5 154.5zM461 1640l170 -249h-84l-232 249h146z" />
    <glyph glyph-name="aathhoi" unicode="&#x1eb3;" horiz-adv-x="1024" 
d="M762 0v168h-4q-27 -60 -81.5 -104.5t-119 -66.5t-131.5 -22q-136 0 -212.5 50t-104 116.5t-27.5 128.5q0 126 59 201t153 110.5t197 45.5t234 10h25v53q0 137 -54.5 202.5t-183.5 65.5q-174 0 -307 -86v125q60 30 149 51t158 21q129 0 210 -40.5t119 -125.5t38 -223v-461
q0 -79 2.5 -130.5t7.5 -88.5h-127zM750 463v63h-37q-220 0 -355 -49t-135 -203q0 -96 60.5 -142t156.5 -46q139 0 207 64.5t85.5 145t17.5 167.5zM319 1356h60q14 -52 59.5 -76.5t108.5 -24.5t108.5 24.5t59.5 76.5h55q-13 -96 -72.5 -154.5t-152.5 -58.5t-152.5 58.5
t-73.5 154.5zM432 1690l6 73q55 9 127 9q86 -6 140.5 -45.5t54.5 -106.5q-3 -49 -38 -82l-83 -76t-59 -84h-74q0 44 20 71.5t61.5 58.5t62.5 55t24 61q-3 36 -34 59t-83 23q-39 0 -125 -16z" />
    <glyph glyph-name="aathnga" unicode="&#x1eb5;" horiz-adv-x="1024" 
d="M762 0v168h-4q-27 -60 -81.5 -104.5t-119 -66.5t-131.5 -22q-136 0 -212.5 50t-104 116.5t-27.5 128.5q0 126 59 201t153 110.5t197 45.5t234 10h25v53q0 137 -54.5 202.5t-183.5 65.5q-174 0 -307 -86v125q60 30 149 51t158 21q129 0 210 -40.5t119 -125.5t38 -223v-461
q0 -79 2.5 -130.5t7.5 -88.5h-127zM750 463v63h-37q-220 0 -355 -49t-135 -203q0 -96 60.5 -142t156.5 -46q139 0 207 64.5t85.5 145t17.5 167.5zM319 1356h60q14 -52 59.5 -76.5t108.5 -24.5t108.5 24.5t59.5 76.5h55q-13 -96 -72.5 -154.5t-152.5 -58.5t-152.5 58.5
t-73.5 154.5zM362 1427h-65q14 68 50.5 116t96.5 48q41 0 111 -20l40 -12.5l24.5 -8t15.5 -2.5q30 0 54.5 16.5t31.5 43.5h67q-12 -88 -58 -124t-93 -36q-38 0 -111 22q-61 21 -84 21q-34 0 -49.5 -14t-30.5 -50z" />
    <glyph glyph-name="aathnang" unicode="&#x1eb7;" horiz-adv-x="1024" 
d="M762 0v168h-4q-27 -60 -81.5 -104.5t-119 -66.5t-131.5 -22q-136 0 -212.5 50t-104 116.5t-27.5 128.5q0 126 59 201t153 110.5t197 45.5t234 10h25v53q0 137 -54.5 202.5t-183.5 65.5q-174 0 -307 -86v125q60 30 149 51t158 21q129 0 210 -40.5t119 -125.5t38 -223v-461
q0 -79 2.5 -130.5t7.5 -88.5h-127zM750 463v63h-37q-220 0 -355 -49t-135 -203q0 -96 60.5 -142t156.5 -46q139 0 207 64.5t85.5 145t17.5 167.5zM319 1356h60q14 -52 59.5 -76.5t108.5 -24.5t108.5 24.5t59.5 76.5h55q-13 -96 -72.5 -154.5t-152.5 -58.5t-152.5 58.5
t-73.5 154.5zM410 -279v154h129v-154h-129z" />
    <glyph glyph-name="aahoasac" unicode="&#x1eae;" horiz-adv-x="1366" 
d="M27 0l585 1430h160l567 -1430h-147l-154 383h-721l-153 -383h-137zM991 506l-309 788l-311 -788h620zM487 1714h60q26 -100 168 -100q140 0 168 100h55q-13 -96 -72.5 -154.5t-152.5 -58.5t-152.5 58.5t-73.5 154.5zM655 1735l170 250h146l-232 -250h-84z" />
    <glyph glyph-name="aahoahuyen" unicode="&#x1eb0;" horiz-adv-x="1366" 
d="M27 0l585 1430h160l567 -1430h-147l-154 383h-721l-153 -383h-137zM991 506l-309 788l-311 -788h620zM487 1714h60q26 -100 168 -100q140 0 168 100h55q-13 -96 -72.5 -154.5t-152.5 -58.5t-152.5 58.5t-73.5 154.5zM629 1999l170 -250h-84l-232 250h146z" />
    <glyph glyph-name="aahoahoi" unicode="&#x1eb2;" horiz-adv-x="1366" 
d="M27 0l585 1430h160l567 -1430h-147l-154 383h-721l-153 -383h-137zM991 506l-309 788l-311 -788h620zM487 1714h60q26 -100 168 -100q140 0 168 100h55q-13 -96 -72.5 -154.5t-152.5 -58.5t-152.5 58.5t-73.5 154.5zM600 2048l6 74q49 8 127 8q85 -6 140 -45t55 -107
q-3 -49 -37.5 -81.5l-83.5 -76.5t-59 -83h-74q0 44 20 71.5t61.5 58.5t62.5 54t24 61q-3 38 -33 60t-84 22q-39 0 -125 -16z" />
    <glyph glyph-name="aahoanga" unicode="&#x1eb4;" horiz-adv-x="1366" 
d="M27 0l585 1430h160l567 -1430h-147l-154 383h-721l-153 -383h-137zM991 506l-309 788l-311 -788h620zM487 1714h60q26 -100 168 -100q140 0 168 100h55q-13 -96 -72.5 -154.5t-152.5 -58.5t-152.5 58.5t-73.5 154.5zM530 1786h-65q14 68 50.5 116t96.5 48q37 0 111 -21
q29 -8 50 -15t30 -7q30 0 54.5 15.5t31.5 43.5h67q-12 -88 -58 -124t-93 -36q-35 0 -111 23q-64 20 -84 20q-33 0 -49.5 -14.5t-30.5 -48.5z" />
    <glyph glyph-name="aahoanang" unicode="&#x1eb6;" horiz-adv-x="1366" 
d="M27 0l585 1430h160l567 -1430h-147l-154 383h-721l-153 -383h-137zM991 506l-309 788l-311 -788h620zM487 1714h60q26 -100 168 -100q140 0 168 100h55q-13 -96 -72.5 -154.5t-152.5 -58.5t-152.5 58.5t-73.5 154.5zM598 -258v154h129v-154h-129z" />
    <glyph glyph-name="abthsac" unicode="&#x1ea5;" horiz-adv-x="1024" 
d="M762 0v168h-4q-27 -60 -81.5 -104.5t-119 -66.5t-131.5 -22q-136 0 -212.5 50t-104 116.5t-27.5 128.5q0 126 59 201t153 110.5t197 45.5t234 10h25v53q0 137 -54.5 202.5t-183.5 65.5q-174 0 -307 -86v125q60 30 149 51t158 21q129 0 210 -40.5t119 -125.5t38 -223v-461
q0 -79 2.5 -130.5t7.5 -88.5h-127zM750 463v63h-37q-220 0 -355 -49t-135 -203q0 -96 60.5 -142t156.5 -46q139 0 207 64.5t85.5 145t17.5 167.5zM248 1151l172 244h149l170 -244h-84l-159 149l-164 -149h-84zM672 1333l170 250h145l-231 -250h-84z" />
    <glyph glyph-name="abthhuyen" unicode="&#x1ea7;" horiz-adv-x="1024" 
d="M762 0v168h-4q-27 -60 -81.5 -104.5t-119 -66.5t-131.5 -22q-136 0 -212.5 50t-104 116.5t-27.5 128.5q0 126 59 201t153 110.5t197 45.5t234 10h25v53q0 137 -54.5 202.5t-183.5 65.5q-174 0 -307 -86v125q60 30 149 51t158 21q129 0 210 -40.5t119 -125.5t38 -223v-461
q0 -79 2.5 -130.5t7.5 -88.5h-127zM750 463v63h-37q-220 0 -355 -49t-135 -203q0 -96 60.5 -142t156.5 -46q139 0 207 64.5t85.5 145t17.5 167.5zM248 1151l172 244h149l170 -244h-84l-159 149l-164 -149h-84zM645 1577l170 -250h-84l-231 250h145z" />
    <glyph glyph-name="abthhoi" unicode="&#x1ea9;" horiz-adv-x="1024" 
d="M762 0v168h-4q-27 -60 -81.5 -104.5t-119 -66.5t-131.5 -22q-136 0 -212.5 50t-104 116.5t-27.5 128.5q0 126 59 201t153 110.5t197 45.5t234 10h25v53q0 137 -54.5 202.5t-183.5 65.5q-174 0 -307 -86v125q60 30 149 51t158 21q129 0 210 -40.5t119 -125.5t38 -223v-461
q0 -79 2.5 -130.5t7.5 -88.5h-127zM750 463v63h-37q-220 0 -355 -49t-135 -203q0 -96 60.5 -142t156.5 -46q139 0 207 64.5t85.5 145t17.5 167.5zM248 1151l172 244h149l170 -244h-84l-159 149l-164 -149h-84zM616 1616l7 74q48 8 127 8q85 -6 139.5 -46t54.5 -106
q-3 -49 -38 -82l-82.5 -75.5t-59.5 -83.5h-74q0 44 20 71.5t61.5 58.5t62.5 54t24 61q-3 36 -34 59t-83 23q-39 0 -125 -16z" />
    <glyph glyph-name="abthnga" unicode="&#x1eab;" horiz-adv-x="1024" 
d="M762 0v168h-4q-27 -60 -81.5 -104.5t-119 -66.5t-131.5 -22q-136 0 -212.5 50t-104 116.5t-27.5 128.5q0 126 59 201t153 110.5t197 45.5t234 10h25v53q0 137 -54.5 202.5t-183.5 65.5q-174 0 -307 -86v125q60 30 149 51t158 21q129 0 210 -40.5t119 -125.5t38 -223v-461
q0 -79 2.5 -130.5t7.5 -88.5h-127zM750 463v63h-37q-220 0 -355 -49t-135 -203q0 -96 60.5 -142t156.5 -46q139 0 207 64.5t85.5 145t17.5 167.5zM248 1151l172 244h149l170 -244h-84l-159 149l-164 -149h-84zM332 1456h-66q16 70 52 117t96 47q43 0 110 -21
q27 -7 49.5 -14.5t30.5 -7.5q30 0 54.5 15.5t31.5 43.5h68q-12 -88 -58.5 -123.5t-93.5 -35.5q-40 0 -110 22q-69 21 -84 21q-33 0 -50 -14.5t-30 -49.5z" />
    <glyph glyph-name="abthnang" unicode="&#x1ead;" horiz-adv-x="1024" 
d="M762 0v168h-4q-27 -60 -81.5 -104.5t-119 -66.5t-131.5 -22q-136 0 -212.5 50t-104 116.5t-27.5 128.5q0 126 59 201t153 110.5t197 45.5t234 10h25v53q0 137 -54.5 202.5t-183.5 65.5q-174 0 -307 -86v125q60 30 149 51t158 21q129 0 210 -40.5t119 -125.5t38 -223v-461
q0 -79 2.5 -130.5t7.5 -88.5h-127zM750 463v63h-37q-220 0 -355 -49t-135 -203q0 -96 60.5 -142t156.5 -46q139 0 207 64.5t85.5 145t17.5 167.5zM248 1151l172 244h149l170 -244h-84l-159 149l-164 -149h-84zM389 -279v154h129v-154h-129z" />
    <glyph glyph-name="abhoasac" unicode="&#x1ea4;" horiz-adv-x="1366" 
d="M27 0l585 1430h160l567 -1430h-147l-154 383h-721l-153 -383h-137zM991 506l-309 788l-311 -788h620zM446 1499l172 244h150l170 -244h-84l-160 150l-164 -150h-84zM870 1681l170 250h146l-232 -250h-84z" />
    <glyph glyph-name="abhoahuyen" unicode="&#x1ea6;" horiz-adv-x="1366" 
d="M27 0l585 1430h160l567 -1430h-147l-154 383h-721l-153 -383h-137zM991 506l-309 788l-311 -788h620zM446 1499l172 244h150l170 -244h-84l-160 150l-164 -150h-84zM844 1925l170 -250h-84l-232 250h146z" />
    <glyph glyph-name="abhoahoi" unicode="&#x1ea8;" horiz-adv-x="1366" 
d="M27 0l585 1430h160l567 -1430h-147l-154 383h-721l-153 -383h-137zM991 506l-309 788l-311 -788h620zM446 1499l172 244h150l170 -244h-84l-160 150l-164 -150h-84zM815 1964l6 74q49 8 127 8q85 -6 140 -45t55 -107q-3 -49 -37.5 -81.5l-83.5 -76.5t-59 -83h-74
q0 44 20 71.5t61.5 58.5t62.5 54t24 61q-3 38 -33 60t-84 22q-39 0 -125 -16z" />
    <glyph glyph-name="abhoanga" unicode="&#x1eaa;" horiz-adv-x="1366" 
d="M27 0l585 1430h160l567 -1430h-147l-154 383h-721l-153 -383h-137zM991 506l-309 788l-311 -788h620zM446 1499l172 244h150l170 -244h-84l-160 150l-164 -150h-84zM530 1804h-65q14 68 50.5 116t96.5 48q41 0 111 -20q73 -23 80 -23q30 0 54.5 16.5t31.5 43.5h67
q-12 -89 -58 -124.5t-93 -35.5q-38 0 -111 22q-61 21 -84 21q-34 0 -49.5 -14t-30.5 -50z" />
    <glyph glyph-name="abhoanang" unicode="&#x1eac;" horiz-adv-x="1366" 
d="M27 0l585 1430h160l567 -1430h-147l-154 383h-721l-153 -383h-137zM991 506l-309 788l-311 -788h620zM446 1499l172 244h150l170 -244h-84l-160 150l-164 -150h-84zM588 -258v154h129v-154h-129z" />
    <glyph glyph-name="ebthsac" unicode="&#x1ebf;" horiz-adv-x="1024" 
d="M862 164v-131q-69 -28 -148.5 -43t-154.5 -15q-246 0 -360.5 147.5t-114.5 399.5q0 119 30.5 218t90 174.5t140.5 115t179 39.5q143 0 235.5 -69t136.5 -186t44 -263v-66h-715q0 -112 40 -203t118 -143.5t186 -52.5q68 0 157 24t136 54zM225 596h574q0 97 -27.5 179
t-88 132.5t-151.5 50.5q-90 0 -160 -52.5t-108.5 -137.5t-38.5 -172zM266 1149l172 244h150l170 -244h-84l-160 149l-164 -149h-84zM690 1331l170 250h146l-232 -250h-84z" />
    <glyph glyph-name="ebthhuyen" unicode="&#x1ec1;" horiz-adv-x="1024" 
d="M862 164v-131q-69 -28 -148.5 -43t-154.5 -15q-246 0 -360.5 147.5t-114.5 399.5q0 119 30.5 218t90 174.5t140.5 115t179 39.5q143 0 235.5 -69t136.5 -186t44 -263v-66h-715q0 -112 40 -203t118 -143.5t186 -52.5q68 0 157 24t136 54zM225 596h574q0 97 -27.5 179
t-88 132.5t-151.5 50.5q-90 0 -160 -52.5t-108.5 -137.5t-38.5 -172zM266 1149l172 244h150l170 -244h-84l-160 149l-164 -149h-84zM664 1575l170 -250h-84l-232 250h146z" />
    <glyph glyph-name="ebthhoi" unicode="&#x1ec3;" horiz-adv-x="1024" 
d="M862 164v-131q-69 -28 -148.5 -43t-154.5 -15q-246 0 -360.5 147.5t-114.5 399.5q0 119 30.5 218t90 174.5t140.5 115t179 39.5q143 0 235.5 -69t136.5 -186t44 -263v-66h-715q0 -112 40 -203t118 -143.5t186 -52.5q68 0 157 24t136 54zM225 596h574q0 97 -27.5 179
t-88 132.5t-151.5 50.5q-90 0 -160 -52.5t-108.5 -137.5t-38.5 -172zM266 1149l172 244h150l170 -244h-84l-160 149l-164 -149h-84zM635 1614l6 74q49 8 127 8q85 -6 140 -45.5t55 -106.5q-1 -36 -23 -65t-60.5 -60t-62.5 -56t-35 -60h-73q0 44 20 71.5t61.5 58.5t62.5 54
t24 61q-3 37 -33.5 59.5t-83.5 22.5q-39 0 -125 -16z" />
    <glyph glyph-name="ebthnga" unicode="&#x1ec5;" horiz-adv-x="1024" 
d="M862 164v-131q-69 -28 -148.5 -43t-154.5 -15q-246 0 -360.5 147.5t-114.5 399.5q0 119 30.5 218t90 174.5t140.5 115t179 39.5q143 0 235.5 -69t136.5 -186t44 -263v-66h-715q0 -112 40 -203t118 -143.5t186 -52.5q68 0 157 24t136 54zM225 596h574q0 97 -27.5 179
t-88 132.5t-151.5 50.5q-90 0 -160 -52.5t-108.5 -137.5t-38.5 -172zM266 1149l172 244h150l170 -244h-84l-160 149l-164 -149h-84zM350 1454h-65q14 68 50.5 116t96.5 48q44 0 111 -21q29 -8 50 -15t30 -7q29 0 54 16t32 43h67q-12 -88 -58 -123.5t-93 -35.5q-38 0 -111 22
q-69 21 -84 21q-34 0 -49.5 -14t-30.5 -50z" />
    <glyph glyph-name="ebthnang" unicode="&#x1ec7;" horiz-adv-x="1024" 
d="M862 164v-131q-69 -28 -148.5 -43t-154.5 -15q-246 0 -360.5 147.5t-114.5 399.5q0 119 30.5 218t90 174.5t140.5 115t179 39.5q143 0 235.5 -69t136.5 -186t44 -263v-66h-715q0 -112 40 -203t118 -143.5t186 -52.5q68 0 157 24t136 54zM225 596h574q0 97 -27.5 179
t-88 132.5t-151.5 50.5q-90 0 -160 -52.5t-108.5 -137.5t-38.5 -172zM266 1149l172 244h150l170 -244h-84l-160 149l-164 -149h-84zM408 -281v154h129v-154h-129z" />
    <glyph glyph-name="ebhoasac" unicode="&#x1ebe;" horiz-adv-x="1024" 
d="M176 0v1430h701v-123h-560v-510h531v-123h-531v-551h584v-123h-725zM279 1522l172 243h149l170 -243h-84l-160 149l-164 -149h-83zM702 1704l170 250h146l-232 -250h-84z" />
    <glyph glyph-name="ebhoahuyen" unicode="&#x1ec0;" horiz-adv-x="1024" 
d="M176 0v1430h701v-123h-560v-510h531v-123h-531v-551h584v-123h-725zM279 1522l172 243h149l170 -243h-84l-160 149l-164 -149h-83zM676 1948l170 -250h-84l-232 250h146z" />
    <glyph glyph-name="ebhoahoi" unicode="&#x1ec2;" horiz-adv-x="1024" 
d="M176 0v1430h701v-123h-560v-510h531v-123h-531v-551h584v-123h-725zM279 1522l172 243h149l170 -243h-84l-160 149l-164 -149h-83zM647 1987l6 73q49 8 127 8q85 -6 140 -45t55 -106q-3 -49 -38 -82l-83 -76t-59 -84h-74q0 44 20 71.5t61.5 58.5t62.5 55t24 61
q-3 36 -34 59t-83 23q-39 0 -125 -16z" />
    <glyph glyph-name="ebhoanga" unicode="&#x1ec4;" horiz-adv-x="1024" 
d="M176 0v1430h701v-123h-560v-510h531v-123h-531v-551h584v-123h-725zM279 1522l172 243h149l170 -243h-84l-160 149l-164 -149h-83zM362 1827h-65q14 68 50.5 116t96.5 48q37 0 111 -21q27 -7 49.5 -14.5t30.5 -7.5q30 0 54.5 15.5t31.5 43.5h67q-12 -88 -58 -124t-93 -36
q-35 0 -111 23q-64 20 -84 20q-33 0 -49.5 -14.5t-30.5 -48.5z" />
    <glyph glyph-name="ebhoanang" unicode="&#x1ec6;" horiz-adv-x="1024" 
d="M176 0v1430h701v-123h-560v-510h531v-123h-531v-551h584v-123h-725zM279 1522l172 243h149l170 -243h-84l-160 149l-164 -149h-83zM451 -266v153h129v-153h-129z" />
    <glyph glyph-name="obthsac" unicode="&#x1ed1;" 
d="M82 522q0 150 53 273.5t163 198.5t271 75t271.5 -75.5t163.5 -200t53 -271.5q0 -112 -29 -208.5t-90.5 -174t-154.5 -121t-214 -43.5t-213.5 44t-153.5 120.5t-90.5 174t-29.5 208.5zM223 522q0 -123 40 -221.5t118 -156.5t188 -58q109 0 188 58t118.5 156.5t39.5 221.5
q0 122 -40 221.5t-118.5 157t-187.5 57.5q-110 0 -187.5 -57.5t-118 -156.5t-40.5 -222zM326 1147l172 244h149l170 -244h-84l-160 149l-163 -149h-84zM750 1329l170 250h145l-231 -250h-84z" />
    <glyph glyph-name="obthhuyen" unicode="&#x1ed3;" 
d="M82 522q0 150 53 273.5t163 198.5t271 75t271.5 -75.5t163.5 -200t53 -271.5q0 -112 -29 -208.5t-90.5 -174t-154.5 -121t-214 -43.5t-213.5 44t-153.5 120.5t-90.5 174t-29.5 208.5zM223 522q0 -123 40 -221.5t118 -156.5t188 -58q109 0 188 58t118.5 156.5t39.5 221.5
q0 122 -40 221.5t-118.5 157t-187.5 57.5q-110 0 -187.5 -57.5t-118 -156.5t-40.5 -222zM326 1147l172 244h149l170 -244h-84l-160 149l-163 -149h-84zM723 1573l170 -250h-84l-231 250h145z" />
    <glyph glyph-name="obthhoi" unicode="&#x1ed5;" 
d="M82 522q0 150 53 273.5t163 198.5t271 75t271.5 -75.5t163.5 -200t53 -271.5q0 -112 -29 -208.5t-90.5 -174t-154.5 -121t-214 -43.5t-213.5 44t-153.5 120.5t-90.5 174t-29.5 208.5zM223 522q0 -123 40 -221.5t118 -156.5t188 -58q109 0 188 58t118.5 156.5t39.5 221.5
q0 122 -40 221.5t-118.5 157t-187.5 57.5q-110 0 -187.5 -57.5t-118 -156.5t-40.5 -222zM326 1147l172 244h149l170 -244h-84l-160 149l-163 -149h-84zM694 1612l6 74q49 8 127 8q85 -6 140 -45.5t55 -106.5q-3 -49 -38 -82l-83 -76t-59 -84h-74q0 43 21 72t61.5 59.5
t61.5 53.5t24 61q-3 36 -34 59t-83 23q-39 0 -125 -16z" />
    <glyph glyph-name="obthnga" unicode="&#x1ed7;" 
d="M82 522q0 150 53 273.5t163 198.5t271 75t271.5 -75.5t163.5 -200t53 -271.5q0 -112 -29 -208.5t-90.5 -174t-154.5 -121t-214 -43.5t-213.5 44t-153.5 120.5t-90.5 174t-29.5 208.5zM223 522q0 -123 40 -221.5t118 -156.5t188 -58q109 0 188 58t118.5 156.5t39.5 221.5
q0 122 -40 221.5t-118.5 157t-187.5 57.5q-110 0 -187.5 -57.5t-118 -156.5t-40.5 -222zM326 1147l172 244h149l170 -244h-84l-160 149l-163 -149h-84zM410 1452h-66q14 67 51 115.5t97 48.5q43 0 110 -21q27 -7 49.5 -14.5t30.5 -7.5q30 0 54.5 15.5t31.5 43.5h68
q-12 -88 -58.5 -123.5t-93.5 -35.5q-38 0 -111 22q-67 21 -84 21q-34 0 -50 -14.5t-29 -49.5z" />
    <glyph glyph-name="obthnang" unicode="&#x1ed9;" 
d="M82 522q0 150 53 273.5t163 198.5t271 75t271.5 -75.5t163.5 -200t53 -271.5q0 -112 -29 -208.5t-90.5 -174t-154.5 -121t-214 -43.5t-213.5 44t-153.5 120.5t-90.5 174t-29.5 208.5zM223 522q0 -123 40 -221.5t118 -156.5t188 -58q109 0 188 58t118.5 156.5t39.5 221.5
q0 122 -40 221.5t-118.5 157t-187.5 57.5q-110 0 -187.5 -57.5t-118 -156.5t-40.5 -222zM326 1147l172 244h149l170 -244h-84l-160 149l-163 -149h-84zM467 -283v154h129v-154h-129z" />
    <glyph glyph-name="obhoasac" unicode="&#x1ed0;" horiz-adv-x="1479" 
d="M111 715q0 200 69.5 368.5t211.5 269.5t347 101t347.5 -101t212 -269.5t69.5 -368.5q-2 -165 -42.5 -301t-119.5 -234t-197 -151.5t-270 -53.5q-151 0 -269 53.5t-197 152t-119.5 234t-42.5 300.5zM739 1331q-159 0 -269 -87.5t-164 -229.5t-54 -299q0 -156 54 -299
t164 -230.5t269 -87.5t270 88t164.5 230.5t53.5 298.5t-53.5 298t-164.5 230t-270 88zM504 1516l172 243h149l170 -243h-84l-159 149l-164 -149h-84zM928 1698l170 250h145l-231 -250h-84z" />
    <glyph glyph-name="obhoahuyen" unicode="&#x1ed2;" horiz-adv-x="1479" 
d="M111 715q0 200 69.5 368.5t211.5 269.5t347 101t347.5 -101t212 -269.5t69.5 -368.5q-2 -165 -42.5 -301t-119.5 -234t-197 -151.5t-270 -53.5q-151 0 -269 53.5t-197 152t-119.5 234t-42.5 300.5zM739 1331q-159 0 -269 -87.5t-164 -229.5t-54 -299q0 -156 54 -299
t164 -230.5t269 -87.5t270 88t164.5 230.5t53.5 298.5t-53.5 298t-164.5 230t-270 88zM504 1516l172 243h149l170 -243h-84l-159 149l-164 -149h-84zM901 1942l170 -250h-84l-231 250h145z" />
    <glyph glyph-name="obhoahoi" unicode="&#x1ed4;" horiz-adv-x="1479" 
d="M111 715q0 200 69.5 368.5t211.5 269.5t347 101t347.5 -101t212 -269.5t69.5 -368.5q-2 -165 -42.5 -301t-119.5 -234t-197 -151.5t-270 -53.5q-151 0 -269 53.5t-197 152t-119.5 234t-42.5 300.5zM739 1331q-159 0 -269 -87.5t-164 -229.5t-54 -299q0 -156 54 -299
t164 -230.5t269 -87.5t270 88t164.5 230.5t53.5 298.5t-53.5 298t-164.5 230t-270 88zM504 1516l172 243h149l170 -243h-84l-159 149l-164 -149h-84zM872 1980l7 74q48 8 127 8q85 -6 139.5 -45t54.5 -106q-3 -49 -38 -82l-82 -74.5t-60 -85.5h-74q0 44 20 71.5t61.5 58.5
t62.5 55t24 61q-3 36 -34 59t-83 23q-44 0 -125 -17z" />
    <glyph glyph-name="obhoanga" unicode="&#x1ed6;" horiz-adv-x="1479" 
d="M111 715q0 200 69.5 368.5t211.5 269.5t347 101t347.5 -101t212 -269.5t69.5 -368.5q-2 -165 -42.5 -301t-119.5 -234t-197 -151.5t-270 -53.5q-151 0 -269 53.5t-197 152t-119.5 234t-42.5 300.5zM739 1331q-159 0 -269 -87.5t-164 -229.5t-54 -299q0 -156 54 -299
t164 -230.5t269 -87.5t270 88t164.5 230.5t53.5 298.5t-53.5 298t-164.5 230t-270 88zM504 1516l172 243h149l170 -243h-84l-159 149l-164 -149h-84zM588 1821h-66q16 70 52.5 117t95.5 47q36 0 110 -21q27 -7 49.5 -14.5t30.5 -7.5q30 0 54.5 15.5t31.5 43.5h68
q-12 -87 -58.5 -123.5t-93.5 -36.5q-43 0 -110 23q-66 20 -84 20q-32 0 -50 -14.5t-30 -48.5z" />
    <glyph glyph-name="obhoanang" unicode="&#x1ed8;" horiz-adv-x="1479" 
d="M111 715q0 200 69.5 368.5t211.5 269.5t347 101t347.5 -101t212 -269.5t69.5 -368.5q-2 -165 -42.5 -301t-119.5 -234t-197 -151.5t-270 -53.5q-151 0 -269 53.5t-197 152t-119.5 234t-42.5 300.5zM739 1331q-159 0 -269 -87.5t-164 -229.5t-54 -299q0 -156 54 -299
t164 -230.5t269 -87.5t270 88t164.5 230.5t53.5 298.5t-53.5 298t-164.5 230t-270 88zM504 1516l172 243h149l170 -243h-84l-159 149l-164 -149h-84zM655 -272v153h129v-153h-129z" />
    <glyph glyph-name="asacth" unicode="&#xf00a;" horiz-adv-x="0" 
d="M-680 1171l170 250h145l-231 -250h-84z" />
    <glyph glyph-name="ahuyenth" unicode="&#xf00f;" horiz-adv-x="0" 
d="M-594 1415l170 -250h-84l-231 250h145z" />
    <glyph glyph-name="ahoith" unicode="&#xf014;" horiz-adv-x="0" 
d="M-684 1485l6 74q49 8 127 8q85 -6 140 -45.5t55 -106.5q-3 -49 -37.5 -81.5l-83 -75.5t-60.5 -84h-73q0 44 20 71.5t61.5 58.5t62.5 54t24 61q-3 36 -34 59t-83 23q-39 0 -125 -16z" />
    <glyph glyph-name="angath" unicode="&#xf019;" horiz-adv-x="0" 
d="M-733 1141h-66q16 70 52 117t96 47q39 0 110 -21q27 -7 49.5 -14.5t30.5 -7.5q30 0 54.5 15.5t31.5 43.5h68q-12 -87 -58.5 -123.5t-93.5 -36.5q-36 0 -110 23q-66 20 -84 20q-32 0 -50 -14.5t-30 -48.5z" />
    <glyph glyph-name="angath" unicode="&#xf01b;" horiz-adv-x="0" 
d="M-733 1141h-66q16 70 52 117t96 47q39 0 110 -21q27 -7 49.5 -14.5t30.5 -7.5q30 0 54.5 15.5t31.5 43.5h68q-12 -87 -58.5 -123.5t-93.5 -36.5q-36 0 -110 23q-66 20 -84 20q-32 0 -50 -14.5t-30 -48.5z" />
    <glyph glyph-name="angath" unicode="&#xf01a;" horiz-adv-x="0" 
d="M-733 1141h-66q16 70 52 117t96 47q39 0 110 -21q27 -7 49.5 -14.5t30.5 -7.5q30 0 54.5 15.5t31.5 43.5h68q-12 -87 -58.5 -123.5t-93.5 -36.5q-36 0 -110 23q-66 20 -84 20q-32 0 -50 -14.5t-30 -48.5z" />
    <glyph glyph-name="anangth" unicode="&#xf023;" horiz-adv-x="0" 
d="M-655 -279v154h129v-154h-129z" />
    <glyph glyph-name="anangth" unicode="&#xf02c;" horiz-adv-x="0" 
d="M-655 -279v154h129v-154h-129z" />
    <glyph glyph-name="anangth" unicode="&#xf028;" horiz-adv-x="0" 
d="M-655 -279v154h129v-154h-129z" />
    <glyph glyph-name="anangth" unicode="&#xf027;" horiz-adv-x="0" 
d="M-655 -279v154h129v-154h-129z" />
    <glyph glyph-name="anangth" unicode="&#xf026;" horiz-adv-x="0" 
d="M-655 -279v154h129v-154h-129z" />
    <glyph glyph-name="anangth" unicode="&#xf025;" horiz-adv-x="0" 
d="M-655 -279v154h129v-154h-129z" />
    <glyph glyph-name="anangth" unicode="&#xf024;" horiz-adv-x="0" 
d="M-655 -279v154h129v-154h-129z" />
    <glyph glyph-name="aasacth" unicode="&#xf009;" horiz-adv-x="0" 
d="M-541 1376l170 250h146l-232 -250h-84z" />
    <glyph glyph-name="aahuyenth" unicode="&#xf00e;" horiz-adv-x="0" 
d="M-598 1630l170 -250h-84l-231 250h145z" />
    <glyph glyph-name="aahoith" unicode="&#xf013;" horiz-adv-x="0" 
d="M-596 1690l6 73q55 9 127 9q86 -6 140.5 -45.5t54.5 -106.5q-3 -49 -38 -82l-82.5 -74.5t-60.5 -85.5h-73q0 44 20 71.5t61.5 58.5t62.5 55t24 61q-3 36 -34 59t-83 23q-39 0 -125 -16z" />
    <glyph glyph-name="aangath" unicode="&#xf018;" horiz-adv-x="0" 
d="M-645 1438h-66q16 70 52 117t96 47q39 0 110 -21q27 -7 49.5 -14.5t30.5 -7.5q30 0 54.5 15.5t31.5 43.5h68q-12 -87 -58.5 -123.5t-93.5 -36.5q-43 0 -110 23q-66 20 -84 20q-32 0 -50 -14.5t-30 -48.5z" />
    <glyph glyph-name="absacth" unicode="&#x301;" horiz-adv-x="0" 
d="M-362 1303l169 249h146l-232 -249h-83z" />
    <glyph glyph-name="absacth" unicode="&#x302;" horiz-adv-x="0" 
d="M-362 1303l169 249h146l-232 -249h-83z" />
    <glyph glyph-name="abhuyenth" unicode="&#x300;" horiz-adv-x="0" 
d="M-420 1587l170 -250h-84l-231 250h145z" />
    <glyph glyph-name="abhoith" unicode="&#x309;" horiz-adv-x="0" 
d="M-397 1606l6 73q48 9 127 9q86 -6 140 -45.5t54 -106.5q-3 -49 -38 -82l-82 -74.5t-60 -85.5h-74q0 44 20 71.5t61.5 58.5t62.5 55t24 61q-3 36 -33 59t-83 23q-39 0 -125 -16z" />
    <glyph glyph-name="abngath" unicode="&#x303;" horiz-adv-x="0" 
d="M-723 1456h-65q14 68 50.5 116t96.5 48q44 0 111 -21q28 -8 49.5 -15t29.5 -7q30 0 54.5 15.5t31.5 43.5h68q-12 -88 -58 -123.5t-94 -35.5q-37 0 -110 22q-69 21 -84 21q-33 0 -50 -14.5t-30 -49.5z" />
    <glyph glyph-name="asachoa" unicode="&#x341;" horiz-adv-x="0" 
d="M-803 1530l170 250h146l-232 -250h-84z" />
    <glyph glyph-name="asachoa" unicode="&#xf007;" horiz-adv-x="0" 
d="M-803 1530l170 250h146l-232 -250h-84z" />
    <glyph glyph-name="ahuyenhoa" unicode="&#x340;" horiz-adv-x="0" 
d="M-737 1784l170 -250h-84l-232 250h146z" />
    <glyph glyph-name="ahuyenhoa" unicode="&#xf00c;" horiz-adv-x="0" 
d="M-737 1784l170 -250h-84l-232 250h146z" />
    <glyph glyph-name="ahoihoa" unicode="&#xf011;" horiz-adv-x="0" 
d="M-766 1833l6 74q49 8 127 8q85 -6 140 -45.5t55 -106.5q-3 -49 -37.5 -81.5l-83.5 -76.5t-59 -83h-74q0 44 20 71.5t61.5 58.5t62.5 54t24 61q-3 38 -33 60t-84 22q-39 0 -125 -16z" />
    <glyph glyph-name="angahoa" unicode="&#x342;" horiz-adv-x="0" 
d="M-795 1509h-65q14 68 50.5 116t96.5 48q41 0 111 -20q73 -23 80 -23q30 0 54.5 16.5t31.5 43.5h67q-12 -89 -58 -124.5t-93 -35.5q-38 0 -111 22q-63 21 -84 21q-34 0 -49.5 -14t-30.5 -50z" />
    <glyph glyph-name="angahoa" unicode="&#xf030;" horiz-adv-x="0" 
d="M-795 1509h-65q14 68 50.5 116t96.5 48q41 0 111 -20q73 -23 80 -23q30 0 54.5 16.5t31.5 43.5h67q-12 -89 -58 -124.5t-93 -35.5q-38 0 -111 22q-63 21 -84 21q-34 0 -49.5 -14t-30.5 -50z" />
    <glyph glyph-name="angahoa" unicode="&#xf02e;" horiz-adv-x="0" 
d="M-795 1509h-65q14 68 50.5 116t96.5 48q41 0 111 -20q73 -23 80 -23q30 0 54.5 16.5t31.5 43.5h67q-12 -89 -58 -124.5t-93 -35.5q-38 0 -111 22q-63 21 -84 21q-34 0 -49.5 -14t-30.5 -50z" />
    <glyph glyph-name="angahoa" unicode="&#xf01c;" horiz-adv-x="0" 
d="M-795 1509h-65q14 68 50.5 116t96.5 48q41 0 111 -20q73 -23 80 -23q30 0 54.5 16.5t31.5 43.5h67q-12 -89 -58 -124.5t-93 -35.5q-38 0 -111 22q-63 21 -84 21q-34 0 -49.5 -14t-30.5 -50z" />
    <glyph glyph-name="angahoa" unicode="&#xf017;" horiz-adv-x="0" 
d="M-795 1509h-65q14 68 50.5 116t96.5 48q41 0 111 -20q73 -23 80 -23q30 0 54.5 16.5t31.5 43.5h67q-12 -89 -58 -124.5t-93 -35.5q-38 0 -111 22q-63 21 -84 21q-34 0 -49.5 -14t-30.5 -50z" />
    <glyph glyph-name="angahoa" unicode="&#xf016;" horiz-adv-x="0" 
d="M-795 1509h-65q14 68 50.5 116t96.5 48q41 0 111 -20q73 -23 80 -23q30 0 54.5 16.5t31.5 43.5h67q-12 -89 -58 -124.5t-93 -35.5q-38 0 -111 22q-63 21 -84 21q-34 0 -49.5 -14t-30.5 -50z" />
    <glyph glyph-name="ananghoa" unicode="&#x323;" horiz-adv-x="0" 
d="M-768 -268v153h129v-153h-129z" />
    <glyph glyph-name="ananghoa" unicode="&#xf02b;" horiz-adv-x="0" 
d="M-768 -268v153h129v-153h-129z" />
    <glyph glyph-name="ananghoa" unicode="&#xf029;" horiz-adv-x="0" 
d="M-768 -268v153h129v-153h-129z" />
    <glyph glyph-name="ananghoa" unicode="&#xf022;" horiz-adv-x="0" 
d="M-768 -268v153h129v-153h-129z" />
    <glyph glyph-name="ananghoa" unicode="&#xf021;" horiz-adv-x="0" 
d="M-768 -268v153h129v-153h-129z" />
    <glyph glyph-name="ananghoa" unicode="&#xf020;" horiz-adv-x="0" 
d="M-768 -268v153h129v-153h-129z" />
    <glyph glyph-name="ananghoa" unicode="&#xf01f;" horiz-adv-x="0" 
d="M-768 -268v153h129v-153h-129z" />
    <glyph glyph-name="ananghoa" unicode="&#xf01e;" horiz-adv-x="0" 
d="M-768 -268v153h129v-153h-129z" />
    <glyph glyph-name="aasachoa" horiz-adv-x="0" 
d="M-705 1745l170 250h146l-232 -250h-84z" />
    <glyph glyph-name="aahuyenhoa" horiz-adv-x="0" 
d="M-762 1989l170 -250h-84l-231 250h145z" />
    <glyph glyph-name="aahoihoa" horiz-adv-x="0" 
d="M-770 2058l6 74q49 8 127 8q85 -6 140 -45t55 -106q-1 -37 -23.5 -65.5t-65.5 -65t-62 -56.5t-30 -55h-73q0 44 20 71.5t61.5 58.5t62.5 55t24 61q-3 36 -34 59t-83 23q-34 0 -125 -17z" />
    <glyph glyph-name="aangahoa" horiz-adv-x="0" 
d="M-819 1776h-66q16 68 52 115.5t96 47.5q40 0 110 -20l40 -12.5l24.5 -8t15.5 -2.5q30 0 54.5 16.5t31.5 43.5h68q-12 -87 -58.5 -123.5t-93.5 -36.5q-43 0 -110 23q-66 20 -84 20q-32 0 -50 -14.5t-30 -48.5z" />
    <glyph glyph-name="absachoa" unicode="&#xf006;" horiz-adv-x="0" 
d="M-465 1651l170 250h145l-231 -250h-84z" />
    <glyph glyph-name="abhuyenhoa" unicode="&#xf00b;" horiz-adv-x="0" 
d="M-502 1935l170 -249h-84l-231 249h145z" />
    <glyph glyph-name="abhoihoa" unicode="&#xf010;" horiz-adv-x="0" 
d="M-520 1954l6 74q49 8 127 8q85 -6 139.5 -46t54.5 -106q-3 -49 -38.5 -82.5l-82 -74.5t-59.5 -85h-73q0 43 21.5 73t61 59.5t60.5 52.5t24 61q-3 36 -33 59t-83 23q-39 0 -125 -16z" />
    <glyph glyph-name="abngahoa" unicode="&#xf015;" horiz-adv-x="0" 
d="M-825 1815h-66q16 68 52 115.5t96 47.5q40 0 110 -20l40 -12.5l24.5 -8t15.5 -2.5q30 0 54.5 16.5t31.5 43.5h68q-12 -87 -58.5 -123.5t-93.5 -36.5q-42 0 -111 23q-64 20 -83 20q-34 0 -51 -14.5t-29 -48.5z" />
    <glyph glyph-name="abngahoa" unicode="&#xf02f;" horiz-adv-x="0" 
d="M-825 1815h-66q16 68 52 115.5t96 47.5q40 0 110 -20l40 -12.5l24.5 -8t15.5 -2.5q30 0 54.5 16.5t31.5 43.5h68q-12 -87 -58.5 -123.5t-93.5 -36.5q-42 0 -111 23q-64 20 -83 20q-34 0 -51 -14.5t-29 -48.5z" />
    <glyph glyph-name="abngahoa" unicode="&#xf02d;" horiz-adv-x="0" 
d="M-825 1815h-66q16 68 52 115.5t96 47.5q40 0 110 -20l40 -12.5l24.5 -8t15.5 -2.5q30 0 54.5 16.5t31.5 43.5h68q-12 -87 -58.5 -123.5t-93.5 -36.5q-42 0 -111 23q-64 20 -83 20q-34 0 -51 -14.5t-29 -48.5z" />
    <glyph glyph-name="cth" horiz-adv-x="0" 
d="M-717 1352h60q14 -52 59.5 -76.5t108.5 -24.5q62 0 107.5 24t59.5 77h56q-13 -96 -73 -154.5t-153 -58.5q-92 0 -151.5 58.5t-73.5 154.5z" />
    <glyph glyph-name="csacth" horiz-adv-x="0" 
d="M-717 1352h60q14 -52 59.5 -76.5t108.5 -24.5q62 0 107.5 24t59.5 77h56q-13 -96 -73 -154.5t-153 -58.5q-92 0 -151.5 58.5t-73.5 154.5zM-549 1372l170 250h146l-232 -250h-84z" />
    <glyph glyph-name="chuyenth" horiz-adv-x="0" 
d="M-717 1352h60q14 -52 59.5 -76.5t108.5 -24.5q62 0 107.5 24t59.5 77h56q-13 -96 -73 -154.5t-153 -58.5q-92 0 -151.5 58.5t-73.5 154.5zM-575 1636l169 -250h-83l-232 250h146z" />
    <glyph glyph-name="choith" horiz-adv-x="0" 
d="M-717 1352h60q14 -52 59.5 -76.5t108.5 -24.5q62 0 107.5 24t59.5 77h56q-13 -96 -73 -154.5t-153 -58.5q-92 0 -151.5 58.5t-73.5 154.5zM-604 1686l6 73q49 8 127 8q85 -6 140 -45t55 -106q-2 -47 -38.5 -82t-83 -75.5t-59.5 -84.5h-73q0 44 20 71.5t61.5 58.5t62.5 55
t24 61q-3 37 -33.5 59.5t-83.5 22.5q-39 0 -125 -16z" />
    <glyph glyph-name="cngath" horiz-adv-x="0" 
d="M-717 1352h60q14 -52 59.5 -76.5t108.5 -24.5q62 0 107.5 24t59.5 77h56q-13 -96 -73 -154.5t-153 -58.5q-92 0 -151.5 58.5t-73.5 154.5zM-674 1423h-65q14 68 50.5 116t96.5 48q41 0 111 -20q73 -23 80 -23q29 0 54 17t32 43h67q-12 -89 -58 -124.5t-93 -35.5
q-38 0 -111 22q-63 21 -84 21q-34 0 -49.5 -14t-30.5 -50z" />
    <glyph glyph-name="cnangth" horiz-adv-x="0" 
d="M-717 1352h60q14 -52 59.5 -76.5t108.5 -24.5q62 0 107.5 24t59.5 77h56q-13 -96 -73 -154.5t-153 -58.5q-92 0 -151.5 58.5t-73.5 154.5zM-627 -283v154h129v-154h-129z" />
    <glyph glyph-name="choa" horiz-adv-x="0" 
d="M-879 1712h60q26 -100 168 -100q140 0 168 100h55q-13 -96 -72.5 -154.5t-152.5 -58.5t-152.5 58.5t-73.5 154.5z" />
    <glyph glyph-name="csachoa" horiz-adv-x="0" 
d="M-879 1712h60q26 -100 168 -100q140 0 168 100h55q-13 -96 -72.5 -154.5t-152.5 -58.5t-152.5 58.5t-73.5 154.5zM-711 1733l170 249h146l-232 -249h-84z" />
    <glyph glyph-name="chuyenhoa" horiz-adv-x="0" 
d="M-879 1712h60q26 -100 168 -100q140 0 168 100h55q-13 -96 -72.5 -154.5t-152.5 -58.5t-152.5 58.5t-73.5 154.5zM-737 1997l170 -250h-84l-232 250h146z" />
    <glyph glyph-name="choihoa" horiz-adv-x="0" 
d="M-879 1712h60q26 -100 168 -100q140 0 168 100h55q-13 -96 -72.5 -154.5t-152.5 -58.5t-152.5 58.5t-73.5 154.5zM-766 2046l6 74q49 8 127 8q85 -6 140 -45.5t55 -106.5q-3 -49 -37.5 -81.5l-83.5 -76.5t-59 -83h-74q0 44 20 71.5t61.5 58.5t62.5 54t24 61q-3 38 -33 60
t-84 22q-39 0 -125 -16z" />
    <glyph glyph-name="cngahoa" horiz-adv-x="0" 
d="M-879 1712h60q26 -100 168 -100q140 0 168 100h55q-13 -96 -72.5 -154.5t-152.5 -58.5t-152.5 58.5t-73.5 154.5zM-836 1784h-65q14 68 50.5 116t96.5 48q37 0 111 -21q29 -8 50 -15t30 -7q30 0 54.5 15.5t31.5 43.5h67q-12 -88 -58 -124t-93 -36q-35 0 -111 23
q-66 20 -84 20q-33 0 -49.5 -14.5t-30.5 -48.5z" />
    <glyph glyph-name="cnanghoa" horiz-adv-x="0" 
d="M-879 1712h60q26 -100 168 -100q140 0 168 100h55q-13 -96 -72.5 -154.5t-152.5 -58.5t-152.5 58.5t-73.5 154.5zM-737 -240v154h129v-154h-129z" />
    <glyph glyph-name="bth" horiz-adv-x="0" 
d="M-799 1147l172 244h150l170 -244h-84l-160 149l-164 -149h-84z" />
    <glyph glyph-name="bsacth" horiz-adv-x="0" 
d="M-799 1147l172 244h150l170 -244h-84l-160 149l-164 -149h-84zM-375 1329l170 250h146l-232 -250h-84z" />
    <glyph glyph-name="bhuyenth" horiz-adv-x="0" 
d="M-799 1147l172 244h150l170 -244h-84l-160 149l-164 -149h-84zM-401 1573l170 -250h-84l-232 250h146z" />
    <glyph glyph-name="bhoith" horiz-adv-x="0" 
d="M-799 1147l172 244h150l170 -244h-84l-160 149l-164 -149h-84zM-430 1612l6 74q49 8 127 8q85 -6 140 -45.5t55 -106.5q-3 -47 -39.5 -82l-82.5 -75.5t-59 -84.5h-73q0 43 21 72t61.5 59.5t61.5 53.5t24 61q-3 37 -33.5 59.5t-83.5 22.5q-39 0 -125 -16z" />
    <glyph glyph-name="bngath" horiz-adv-x="0" 
d="M-799 1147l172 244h150l170 -244h-84l-160 149l-164 -149h-84zM-715 1452h-65q14 68 50.5 116t96.5 48q44 0 111 -21q29 -8 50 -15t30 -7q29 0 54 16t32 43h67q-12 -88 -58 -123.5t-93 -35.5q-38 0 -111 22q-69 21 -84 21q-34 0 -49.5 -14t-30.5 -50z" />
    <glyph glyph-name="bnangth" horiz-adv-x="0" 
d="M-799 1147l172 244h150l170 -244h-84l-160 149l-164 -149h-84zM-657 -283v154h129v-154h-129z" />
    <glyph glyph-name="bhoa" horiz-adv-x="0" 
d="M-930 1509l172 244h150l170 -244h-84l-160 150l-164 -150h-84z" />
    <glyph glyph-name="bsachoa" horiz-adv-x="0" 
d="M-930 1509l172 244h150l170 -244h-84l-160 150l-164 -150h-84zM-506 1692l170 250h146l-232 -250h-84z" />
    <glyph glyph-name="bhuyenhoa" horiz-adv-x="0" 
d="M-930 1509l172 244h150l170 -244h-84l-160 150l-164 -150h-84zM-532 1935l170 -249h-84l-232 249h146z" />
    <glyph glyph-name="bhoihoa" horiz-adv-x="0" 
d="M-930 1509l172 244h150l170 -244h-84l-160 150l-164 -150h-84zM-561 1974l6 74q49 8 127 8q85 -6 140 -45t55 -106q-1 -37 -23.5 -65.5t-65.5 -65t-62 -56.5t-30 -55h-73q0 44 20 71.5t61.5 58.5t62.5 55t24 61q-3 37 -33.5 59.5t-83.5 22.5q-34 0 -125 -17z" />
    <glyph glyph-name="bngahoa" horiz-adv-x="0" 
d="M-930 1509l172 244h150l170 -244h-84l-160 150l-164 -150h-84zM-846 1815h-65q14 67 50.5 115t96.5 48q41 0 111 -20q23 -7 39 -12.5t24 -8t17 -2.5q29 0 54 17t32 43h67q-12 -88 -58 -124t-93 -36q-42 0 -111 23q-66 20 -84 20q-33 0 -49.5 -14.5t-30.5 -48.5z" />
    <glyph glyph-name="bnanghoa" horiz-adv-x="0" 
d="M-930 1509l172 244h150l170 -244h-84l-160 150l-164 -150h-84zM-788 -279v154h129v-154h-129z" />
    <glyph glyph-name="isachoa" horiz-adv-x="2" 
d="M-338 1526l170 250h145l-231 -250h-84z" />
    <glyph glyph-name="ihuyenhoa" horiz-adv-x="2" 
d="M-266 1792l170 -250h-84l-232 250h146z" />
    <glyph glyph-name="ihoihoa" horiz-adv-x="2" 
d="M-348 1843l6 74q49 8 127 8q85 -6 140 -45t55 -106q-1 -37 -23.5 -65.5t-65.5 -65t-62 -56.5t-30 -55h-73q0 44 20 71.5t61.5 58.5t62.5 55t24 61q-3 37 -33.5 59.5t-83.5 22.5q-34 0 -125 -17z" />
    <glyph glyph-name="ingahoa" horiz-adv-x="2" 
d="M-379 1526h-65q14 68 50.5 116t96.5 48q37 0 111 -21q28 -8 49.5 -15t30.5 -7q29 0 54 16t32 43h67q-12 -88 -58 -124t-93 -36q-35 0 -111 23q-66 20 -84 20q-33 0 -49.5 -14.5t-30.5 -48.5z" />
    <glyph glyph-name="inanghoa" horiz-adv-x="2" 
d="M-297 -276v153h129v-153h-129z" />
  </font>
</defs>
</svg>
